osu file format v13

[General]
AudioFilename: Gideon Wrath, Part II (Gigadeon Graves Boss Theme) - Scott Pilgrim vs. The World- The Game OST(1).mp3
AudioLeadIn: 0
PreviewTime: 44403
Countdown: 1
SampleSet: None
StackLeniency: 0.7
Mode: 0
LetterboxInBreaks: 1
WidescreenStoryboard: 0

[Editor]
Bookmarks: 69987
DistanceSpacing: 1
BeatDivisor: 4
GridSize: 8
TimelineZoom: 1

[Metadata]
Title:Gideon Wrath Part II
TitleUnicode:Gideon Wrath Part II
Artist:Anamanaguchi
ArtistUnicode:Anamanaguchi
Creator:Lazly-kun
Version:Average Joe
Source:Scott Pilgrim vs. the World: The Game
Tags:anamanaguchi scott pilgrim chiptune punk rock Lasoki
BeatmapID:613707
BeatmapSetID:269679

[Difficulty]
HPDrainRate:4
CircleSize:3
OverallDifficulty:4
ApproachRate:4
SliderMultiplier:0.9
SliderTickRate:1

[Events]
//Background and Video events
0,0,"500px-Seven_Evil_Exes_Pic.png",0,0
//Break Periods
2,43270,54083
//Storyboard Layer 0 (Background)
//Storyboard Layer 1 (Fail)
//Storyboard Layer 2 (Pass)
//Storyboard Layer 3 (Foreground)
//Storyboard Sound Samples

[TimingPoints]
404,333.333333333333,4,1,0,100,1,0
21737,-100,4,1,0,100,0,1
43070,-100,4,1,0,100,0,0

[HitObjects]
96,240,737,5,0,0:0:0:0:
184,88,1403,1,0,0:0:0:0:
368,88,2070,2,0,P|408:112|408:168,2,90,0|0|0,0:0|0:0|0:0,0:0:0:0:
368,272,3403,6,0,P|264:296|192:272,1,180,0|0,0:0|0:0,0:0:0:0:
88,128,4737,2,0,P|168:80|248:104,1,180,0|0,0:0|0:0,0:0:0:0:
176,264,6070,5,0,0:0:0:0:
352,216,6737,1,0,0:0:0:0:
232,72,7403,2,0,P|168:64|152:88,2,90,0|0|0,0:0|0:0|0:0,0:0:0:0:
96,216,8737,5,0,0:0:0:0:
256,304,9403,1,0,0:0:0:0:
328,248,9737,2,0,P|376:208|384:184,2,90,0|0|0,0:0|0:0|0:0,0:0:0:0:
96,72,11403,5,0,0:0:0:0:
272,56,12070,1,0,0:0:0:0:
432,136,12737,2,0,P|472:144|496:184,2,90,0|0|0,0:0|0:0|0:0,0:0:0:0:
248,104,14070,6,0,P|160:80|112:160,1,180
136,320,15403,2,0,P|224:344|272:264,1,180
328,112,16737,5,0,0:0:0:0:
328,288,17403,1,0,0:0:0:0:
152,272,18070,2,0,P|112:216|144:112,1,180
256,192,19070,12,0,21737,0:0:0:0:
96,208,23403,5,0,0:0:0:0:
184,64,24070,1,0,0:0:0:0:
352,64,24737,2,0,P|384:160|344:224,1,180
176,280,26070,5,0,0:0:0:0:
136,96,26737,1,0,0:0:0:0:
328,56,27403,1,0,0:0:0:0:
336,232,28070,6,0,P|256:280|168:272,1,180
72,120,29403,1,0,0:0:0:0:
176,272,30070,5,0,0:0:0:0:
320,184,30737,1,0,0:0:0:0:
344,104,31070,2,0,P|312:40|296:40,2,90,0|0|0,0:0|0:0|0:0,0:0:0:0:
48,48,32737,5,0,0:0:0:0:
112,216,33403,1,0,0:0:0:0:
280,288,34070,2,0,P|376:256|416:192,1,180,0|0,0:0|0:0,0:0:0:0:
288,56,35403,2,0,P|184:56|120:112,1,180,0|0,0:0|0:0,0:0:0:0:
128,200,36403,5,0,0:0:0:0:
200,256,36737,1,0,0:0:0:0:
288,264,37070,2,0,P|344:240|368:216,2,90,0|0|0,0:0|0:0|0:0,0:0:0:0:
88,72,38737,5,0,0:0:0:0:
264,56,39403,1,0,0:0:0:0:
408,160,40070,2,0,P|320:208|232:208,1,180,0|0,0:0|0:0,0:0:0:0:
200,32,41403,1,0,0:0:0:0:
144,96,41737,2,0,B|112:184|152:272|224:296|328:280|376:264,1,360
96,104,55403,5,0,0:0:0:0:
264,48,56070,1,0,0:0:0:0:
424,120,56737,2,0,P|384:208|312:240,1,180
120,272,58070,6,0,P|96:168|120:96,1,180,0|0,0:0|0:0,0:0:0:0:
304,64,59403,2,0,P|352:144|312:232,1,180,0|0,0:0|0:0,0:0:0:0:
168,136,60737,5,0,0:0:0:0:
328,64,61403,1,0,0:0:0:0:
400,224,62070,2,0,P|304:272|232:272,1,180
256,192,63070,12,0,65737,0:0:0:0:
80,72,67403,5,0,0:0:0:0:
96,256,68070,1,0,0:0:0:0:
256,320,68737,2,0,P|368:312|416:264,1,180
80,128,71403,6,0,P|168:96|248:120,1,180,0|0,0:0|0:0,0:0:0:0:
120,256,72737,2,0,P|208:288|288:248,1,180,0|0,0:0|0:0,0:0:0:0:
168,104,74070,5,0,0:0:0:0:
144,280,74737,1,0,0:0:0:0:
320,280,75403,2,0,P|376:184|360:104,1,180,0|0,0:0|0:0,0:0:0:0:
240,56,76737,6,0,P|152:96|120:168,1,180
200,336,78070,2,0,P|304:304|344:248,1,180,0|0,0:0|0:0,0:0:0:0:
456,112,79403,5,0,0:0:0:0:
280,64,80070,1,0,0:0:0:0:
112,136,80737,2,0,P|112:240|168:312,2,180,0|0|0,0:0|0:0|0:0,0:0:0:0:
288,64,82737,5,0,0:0:0:0:
400,200,83403,1,0,0:0:0:0:
240,280,84070,2,0,P|136:272|104:192,1,180
208,72,85403,1,0,0:0:0:0:
296,72,85737,2,0,B|392:128|392:208|336:304|272:296|200:248,1,360
