osu file format v14

[General]
AudioFilename: 03 artcore JINJA.mp3
AudioLeadIn: 0
PreviewTime: 10013
Countdown: 0
SampleSet: Normal
StackLeniency: 0.7
Mode: 1
LetterboxInBreaks: 0
WidescreenStoryboard: 0

[Editor]
DistanceSpacing: 0.6
BeatDivisor: 4
GridSize: 32
TimelineZoom: 2.099999

[Metadata]
Title:artcore JINJA
TitleUnicode:アートコア神社
Artist:An
ArtistUnicode:An
Creator:SKSalt
Version:Muzukashii
Source:東方Project
Tags:touhou niiru renkachou ~ ancients hakurei reimu shrine Niconico Douga tasuke912
BeatmapID:471177
BeatmapSetID:198600

[Difficulty]
HPDrainRate:5
CircleSize:5
OverallDifficulty:5
ApproachRate:5
SliderMultiplier:1.4
SliderTickRate:1

[Events]
//Background and Video events
0,0,"reimu.jpg",0,150
//Break Periods
//Storyboard Layer 0 (Background)
//Storyboard Layer 1 (Fail)
//Storyboard Layer 2 (Pass)
//Storyboard Layer 3 (Foreground)
//Storyboard Sound Samples

[TimingPoints]
66,315.789473684211,4,1,0,50,1,0
10171,-100,4,1,0,80,0,0
19013,-100,4,1,0,50,0,0
20276,-100,4,1,0,80,0,0
39223,-100,4,1,0,50,0,0
40487,-100,4,1,0,80,0,0
50592,-100,4,1,0,80,0,1
60697,-100,4,1,0,80,0,0
61171,-111.111111111111,4,1,0,50,0,0
70802,-100,4,1,0,60,0,0
79644,-100,4,1,0,50,0,0
91013,-100,4,1,0,60,0,0
101118,-100,4,1,0,40,0,0
102381,315.789473684211,4,1,0,80,1,1
122591,-100,4,1,0,80,0,0
132696,-100,4,1,0,50,0,0

[HitObjects]
172,168,10171,5,0,0:0:0:0:
172,168,10487,1,2,0:0:0:0:
172,168,10960,1,0,0:0:0:0:
172,168,11118,1,2,0:0:0:0:
172,168,11434,1,0,0:0:0:0:
220,152,11750,1,2,0:0:0:0:
256,192,11908,1,0,0:0:0:0:
220,152,12223,1,0,0:0:0:0:
208,120,12381,1,2,0:0:0:0:
136,160,12697,1,0,0:0:0:0:
136,160,13013,1,2,0:0:0:0:
136,160,13171,1,0,0:0:0:0:
220,152,13487,1,0,0:0:0:0:
220,152,13644,1,2,0:0:0:0:
172,168,13802,1,2,0:0:0:0:
212,192,13960,1,0,0:0:0:0:
212,192,14276,1,2,0:0:0:0:
136,160,14750,1,0,0:0:0:0:
136,160,14908,1,2,0:0:0:0:
172,168,15223,1,0,0:0:0:0:
172,168,15539,1,2,0:0:0:0:
288,96,15697,1,0,0:0:0:0:
172,168,16013,1,0,0:0:0:0:
172,168,16171,1,2,0:0:0:0:
172,168,16487,1,0,0:0:0:0:
220,152,16802,1,2,0:0:0:0:
220,152,17118,1,0,0:0:0:0:
208,120,17434,1,2,0:0:0:0:
292,136,17592,1,0,0:0:0:0:
292,136,17750,1,0,0:0:0:0:
292,136,18066,1,2,0:0:0:0:
292,136,18223,1,0,0:0:0:0:
192,192,18539,1,2,0:0:0:0:
192,192,18697,1,2,0:0:0:0:
192,192,18855,1,0,0:0:0:0:
268,196,19013,1,0,0:0:0:0:
268,196,19250,1,0,0:0:0:0:
268,196,19487,1,0,0:0:0:0:
268,196,19644,1,0,0:0:0:0:
160,188,19802,1,2,0:0:0:0:
268,196,20118,1,2,0:0:0:0:
212,152,20197,1,2,0:0:0:0:
268,196,20276,1,2,0:0:0:0:
288,120,20434,1,0,0:0:0:0:
280,88,20592,1,2,0:0:0:0:
280,88,20750,1,0,0:0:0:0:
124,112,21066,1,0,0:0:0:0:
124,112,21223,1,2,0:0:0:0:
128,144,21381,1,2,0:0:0:0:
124,112,21539,1,0,0:0:0:0:
124,112,21855,1,2,0:0:0:0:
224,96,22171,1,0,0:0:0:0:
124,112,22329,1,0,0:0:0:0:
124,112,22487,1,2,0:0:0:0:
284,160,22802,1,0,0:0:0:0:
208,156,23118,1,2,0:0:0:0:
180,200,23276,1,0,0:0:0:0:
252,244,23592,1,0,0:0:0:0:
252,244,23750,1,2,0:0:0:0:
252,244,23908,1,0,0:0:0:0:
132,148,24066,1,0,0:0:0:0:
136,72,24381,1,2,0:0:0:0:
192,104,24855,1,0,0:0:0:0:
192,104,25013,1,2,0:0:0:0:
272,148,25329,1,2,0:0:0:0:
184,152,25644,1,0,0:0:0:0:
232,176,25802,1,2,0:0:0:0:
232,176,26118,1,0,0:0:0:0:
384,256,26276,1,2,0:0:0:0:
148,176,26434,1,2,0:0:0:0:
76,164,26592,1,0,0:0:0:0:
128,192,26908,1,2,0:0:0:0:
152,216,27223,1,0,0:0:0:0:
192,64,27381,1,0,0:0:0:0:
152,216,27539,1,2,0:0:0:0:
192,176,27697,1,0,0:0:0:0:
232,176,27855,1,2,0:0:0:0:
76,164,28171,1,2,0:0:0:0:
76,164,28329,1,0,0:0:0:0:
76,164,28644,1,2,0:0:0:0:
76,164,28802,1,2,0:0:0:0:
76,164,28960,1,0,0:0:0:0:
76,164,29118,1,0,0:0:0:0:
272,152,29434,1,2,0:0:0:0:
160,160,29592,1,0,0:0:0:0:
180,136,30066,1,2,0:0:0:0:
180,136,30381,1,2,0:0:0:0:
280,88,30697,1,0,0:0:0:0:
280,88,30855,1,2,0:0:0:0:
124,112,31171,1,0,0:0:0:0:
384,256,31329,1,2,0:0:0:0:
128,144,31487,1,2,0:0:0:0:
124,112,31644,1,0,0:0:0:0:
124,112,31960,1,2,0:0:0:0:
224,192,32276,1,0,0:0:0:0:
124,112,32434,1,0,0:0:0:0:
124,112,32592,1,2,0:0:0:0:
284,160,32908,1,2,0:0:0:0:
208,156,33223,1,0,0:0:0:0:
180,200,33381,1,2,0:0:0:0:
252,244,33697,1,0,0:0:0:0:
256,160,33855,1,2,0:0:0:0:
252,244,34013,1,2,0:0:0:0:
132,148,34171,1,0,0:0:0:0:
136,72,34487,1,2,0:0:0:0:
192,104,34960,1,0,0:0:0:0:
192,104,35118,1,2,0:0:0:0:
272,148,35434,1,2,0:0:0:0:
184,152,35750,1,0,0:0:0:0:
232,176,35908,1,2,0:0:0:0:
232,176,36223,1,0,0:0:0:0:
320,192,36381,1,0,0:0:0:0:
148,176,36539,1,2,0:0:0:0:
76,164,36697,1,0,0:0:0:0:
76,164,37013,1,2,0:0:0:0:
256,192,37329,1,0,0:0:0:0:
152,216,37487,1,0,0:0:0:0:
192,176,37644,1,2,0:0:0:0:
232,176,37960,1,0,0:0:0:0:
76,164,38276,1,2,0:0:0:0:
76,164,38434,1,0,0:0:0:0:
76,164,38750,1,2,0:0:0:0:
76,164,38908,1,2,0:0:0:0:
76,164,39066,1,0,0:0:0:0:
256,192,39223,12,0,40329,0:0:0:0:
304,112,40487,5,6,0:0:0:0:
288,188,40644,1,4,0:0:0:0:
288,188,40960,1,6,0:0:0:0:
156,80,41434,1,2,0:0:0:0:
156,80,41592,1,2,0:0:0:0:
240,124,41750,1,0,0:0:0:0:
240,124,42066,1,2,0:0:0:0:
164,184,42223,1,0,0:0:0:0:
216,164,42539,1,0,0:0:0:0:
216,164,42697,1,2,0:0:0:0:
216,164,43013,1,6,0:0:0:0:
148,124,43171,1,4,0:0:0:0:
216,80,43487,1,6,0:0:0:0:
244,280,43960,1,2,0:0:0:0:
200,216,44118,1,0,0:0:0:0:
192,224,44276,1,0,0:0:0:0:
252,160,44592,1,2,0:0:0:0:
216,148,44750,1,0,0:0:0:0:
216,148,45066,1,0,0:0:0:0:
216,148,45223,1,2,0:0:0:0:
172,140,45539,1,6,0:0:0:0:
200,216,45697,1,4,0:0:0:0:
172,140,46013,1,6,0:0:0:0:
352,192,46487,1,2,0:0:0:0:
200,216,46644,1,2,0:0:0:0:
216,148,46802,1,0,0:0:0:0:
244,160,47118,1,2,0:0:0:0:
264,224,47276,1,0,0:0:0:0:
176,196,47592,1,0,0:0:0:0:
192,160,47750,1,2,0:0:0:0:
244,160,48066,1,6,0:0:0:0:
176,148,48223,1,4,0:0:0:0:
244,160,48539,1,6,0:0:0:0:
140,164,49013,1,2,0:0:0:0:
224,160,49171,1,0,0:0:0:0:
160,160,49329,1,0,0:0:0:0:
216,108,49644,1,2,0:0:0:0:
244,160,49802,1,0,0:0:0:0:
244,160,50118,1,0,0:0:0:0:
244,160,50276,1,2,0:0:0:0:
176,164,50592,1,2,0:0:0:0:
176,164,50908,1,0,0:0:0:0:
280,160,51066,1,2,0:0:0:0:
232,144,51381,1,0,0:0:0:0:
232,144,51697,1,2,0:0:0:0:
204,192,51855,1,0,0:0:0:0:
228,172,52171,1,2,0:0:0:0:
228,172,52329,1,0,0:0:0:0:
220,144,52487,1,0,0:0:0:0:
204,192,52644,1,2,0:0:0:0:
204,192,52802,1,0,0:0:0:0:
256,152,53118,1,2,0:0:0:0:
256,152,53434,1,0,0:0:0:0:
256,152,53592,1,2,0:0:0:0:
212,172,53908,1,0,0:0:0:0:
216,144,54066,1,2,0:0:0:0:
212,172,54223,1,2,0:0:0:0:
236,112,54381,1,0,0:0:0:0:
236,112,54697,1,2,0:0:0:0:
236,112,54855,1,0,0:0:0:0:
236,112,55171,1,2,0:0:0:0:
360,172,55250,1,2,0:0:0:0:
164,176,55329,1,2,0:0:0:0:
32,160,55487,1,0,0:0:0:0:
236,112,55644,1,2,0:0:0:0:
240,176,55960,1,0,0:0:0:0:
240,176,56118,1,2,0:0:0:0:
240,176,56434,1,0,0:0:0:0:
240,176,56750,1,2,0:0:0:0:
308,164,56908,1,0,0:0:0:0:
308,164,57223,1,2,0:0:0:0:
308,164,57381,1,0,0:0:0:0:
224,192,57460,1,0,0:0:0:0:
308,164,57539,1,0,0:0:0:0:
308,164,57697,1,0,0:0:0:0:
308,164,57855,1,2,0:0:0:0:
188,232,58171,1,2,0:0:0:0:
188,232,58487,1,0,0:0:0:0:
188,232,58644,1,2,0:0:0:0:
268,208,58960,1,2,0:0:0:0:
220,168,59276,1,2,0:0:0:0:
292,144,59434,1,0,0:0:0:0:
292,144,59750,1,0,0:0:0:0:
292,144,59908,1,2,0:0:0:0:
292,144,60223,1,2,0:0:0:0:
176,176,60302,1,2,0:0:0:0:
288,144,60381,1,2,0:0:0:0:
292,144,60539,1,0,0:0:0:0:
328,184,60697,1,2,0:0:0:0:
192,160,61171,1,2,0:0:0:0:
192,160,61487,1,0,0:0:0:0:
224,352,61644,1,0,0:0:0:0:
192,160,61802,1,2,0:0:0:0:
192,160,61960,1,0,0:0:0:0:
192,160,62434,1,0,0:0:0:0:
224,192,62592,1,2,0:0:0:0:
192,160,62908,1,0,0:0:0:0:
192,160,63066,1,2,0:0:0:0:
192,160,63223,1,0,0:0:0:0:
192,160,63697,1,2,0:0:0:0:
160,192,64013,1,0,0:0:0:0:
224,224,64171,1,2,0:0:0:0:
160,192,64329,1,2,0:0:0:0:
160,192,64487,1,0,0:0:0:0:
160,160,65118,1,0,0:0:0:0:
328,184,65750,1,2,0:0:0:0:
192,160,66223,1,2,0:0:0:0:
192,160,66539,1,0,0:0:0:0:
192,160,66697,1,0,0:0:0:0:
192,160,66855,1,2,0:0:0:0:
192,160,67013,1,0,0:0:0:0:
192,160,67487,1,0,0:0:0:0:
224,192,67644,1,2,0:0:0:0:
192,160,67960,1,0,0:0:0:0:
192,160,68118,1,2,0:0:0:0:
192,160,68276,1,0,0:0:0:0:
192,160,68750,1,2,0:0:0:0:
160,192,69066,1,0,0:0:0:0:
160,192,69223,1,2,0:0:0:0:
160,192,69381,1,0,0:0:0:0:
160,192,69539,1,2,0:0:0:0:
160,160,70171,5,0,0:0:0:0:
224,144,70802,5,0,0:0:0:0:
224,144,71118,1,2,0:0:0:0:
192,168,71592,1,0,0:0:0:0:
192,168,71750,1,2,0:0:0:0:
192,168,72066,1,0,0:0:0:0:
192,168,72381,1,2,0:0:0:0:
224,192,72697,1,0,0:0:0:0:
192,168,72855,1,0,0:0:0:0:
192,168,73013,1,2,0:0:0:0:
192,168,73329,1,0,0:0:0:0:
192,168,73644,1,2,0:0:0:0:
192,168,73802,1,0,0:0:0:0:
192,168,74118,1,0,0:0:0:0:
192,168,74276,1,2,0:0:0:0:
192,168,74592,1,0,0:0:0:0:
192,168,74908,1,2,0:0:0:0:
192,168,75381,1,0,0:0:0:0:
192,168,75539,1,2,0:0:0:0:
192,168,75855,1,0,0:0:0:0:
192,168,76171,1,2,0:0:0:0:
192,168,76644,1,0,0:0:0:0:
168,156,76802,1,2,0:0:0:0:
192,168,77118,1,0,0:0:0:0:
216,192,77434,1,2,0:0:0:0:
224,160,77750,1,2,0:0:0:0:
232,184,77908,1,0,0:0:0:0:
216,192,78066,1,0,0:0:0:0:
224,192,78223,1,2,0:0:0:0:
216,192,78381,1,0,0:0:0:0:
192,168,78697,1,2,0:0:0:0:
216,192,78855,1,0,0:0:0:0:
216,192,79171,1,0,0:0:0:0:
200,136,79329,1,2,0:0:0:0:
224,256,79487,1,0,0:0:0:0:
256,192,79644,12,0,80750,0:0:0:0:
268,128,80908,5,4,0:0:0:0:
268,128,81381,1,2,0:0:0:0:
252,184,81697,1,2,0:0:0:0:
252,184,81855,1,0,0:0:0:0:
252,184,82171,1,0,0:0:0:0:
176,120,82644,1,0,0:0:0:0:
252,184,82960,1,2,0:0:0:0:
252,184,83276,1,2,0:0:0:0:
200,192,83434,1,0,0:0:0:0:
252,184,83750,1,2,0:0:0:0:
200,192,83908,1,0,0:0:0:0:
268,216,84223,1,2,0:0:0:0:
268,216,84539,1,2,0:0:0:0:
268,216,84697,1,0,0:0:0:0:
160,176,85171,1,0,0:0:0:0:
200,192,85487,1,0,0:0:0:0:
200,192,85644,1,2,0:0:0:0:
268,128,85960,5,0,0:0:0:0:
268,128,86434,1,2,0:0:0:0:
252,184,86750,1,2,0:0:0:0:
252,184,86908,1,0,0:0:0:0:
252,184,87223,1,0,0:0:0:0:
176,120,87697,1,0,0:0:0:0:
320,160,88013,1,2,0:0:0:0:
252,184,88329,1,2,0:0:0:0:
200,192,88487,1,0,0:0:0:0:
252,184,88802,1,0,0:0:0:0:
200,192,88960,1,2,0:0:0:0:
268,216,89276,1,2,0:0:0:0:
268,216,89592,1,0,0:0:0:0:
160,176,89750,1,2,0:0:0:0:
160,176,90223,1,2,0:0:0:0:
160,176,90539,1,2,0:0:0:0:
200,192,90855,1,0,0:0:0:0:
224,144,91013,5,4,0:0:0:0:
224,144,91329,1,2,0:0:0:0:
320,224,91487,1,0,0:0:0:0:
192,168,91802,1,0,0:0:0:0:
192,168,91960,1,2,0:0:0:0:
384,288,92118,1,0,0:0:0:0:
192,168,92276,1,0,0:0:0:0:
192,168,92592,1,2,0:0:0:0:
128,160,92750,1,0,0:0:0:0:
192,168,93066,1,0,0:0:0:0:
192,168,93223,1,2,0:0:0:0:
192,168,93539,1,0,0:0:0:0:
192,168,93855,1,2,0:0:0:0:
192,160,94013,1,0,0:0:0:0:
192,192,94329,1,0,0:0:0:0:
192,168,94487,1,2,0:0:0:0:
288,288,94644,1,2,0:0:0:0:
176,184,94802,1,0,0:0:0:0:
192,168,95118,1,2,0:0:0:0:
192,168,95276,1,0,0:0:0:0:
192,168,95592,1,0,0:0:0:0:
192,168,95750,1,2,0:0:0:0:
224,144,96066,5,0,0:0:0:0:
224,144,96381,1,2,0:0:0:0:
320,224,96539,1,0,0:0:0:0:
192,168,96855,1,0,0:0:0:0:
192,168,97013,1,2,0:0:0:0:
384,288,97171,1,0,0:0:0:0:
192,168,97329,1,0,0:0:0:0:
192,168,97644,1,2,0:0:0:0:
128,160,97802,1,0,0:0:0:0:
192,168,98118,1,0,0:0:0:0:
192,168,98276,1,2,0:0:0:0:
192,168,98592,1,0,0:0:0:0:
192,168,98908,1,2,0:0:0:0:
192,160,99066,1,0,0:0:0:0:
192,192,99381,1,0,0:0:0:0:
192,168,99539,1,2,0:0:0:0:
288,288,99855,1,2,0:0:0:0:
176,184,100013,1,0,0:0:0:0:
192,168,100171,1,2,0:0:0:0:
192,168,100329,1,0,0:0:0:0:
192,168,100644,1,0,0:0:0:0:
192,168,100960,1,2,0:0:0:0:
236,196,101118,1,0,0:0:0:0:
252,196,101276,1,2,0:0:0:0:
252,196,101434,1,2,0:0:0:0:
172,176,101908,1,2,0:0:0:0:
176,164,102381,1,6,0:0:0:0:
176,164,102696,1,0,0:0:0:0:
280,160,102854,1,2,0:0:0:0:
232,144,103170,1,0,0:0:0:0:
232,144,103486,1,2,0:0:0:0:
204,192,103644,1,0,0:0:0:0:
220,144,103959,1,2,0:0:0:0:
228,172,104117,1,0,0:0:0:0:
228,172,104275,1,0,0:0:0:0:
204,192,104433,1,2,0:0:0:0:
204,192,104591,1,0,0:0:0:0:
256,152,104907,1,2,0:0:0:0:
256,152,105223,1,0,0:0:0:0:
256,152,105381,1,2,0:0:0:0:
212,172,105696,1,0,0:0:0:0:
216,144,105854,1,2,0:0:0:0:
212,172,106012,1,2,0:0:0:0:
236,112,106170,1,0,0:0:0:0:
236,112,106486,1,2,0:0:0:0:
236,112,106644,1,0,0:0:0:0:
164,176,106959,1,2,0:0:0:0:
360,172,107038,1,2,0:0:0:0:
160,96,107117,1,2,0:0:0:0:
236,112,107275,1,0,0:0:0:0:
236,112,107433,1,2,0:0:0:0:
240,176,107749,1,0,0:0:0:0:
240,176,107907,1,2,0:0:0:0:
240,176,108223,1,0,0:0:0:0:
240,176,108538,1,2,0:0:0:0:
308,164,108696,1,0,0:0:0:0:
308,164,109012,1,2,0:0:0:0:
308,164,109170,1,0,0:0:0:0:
224,192,109249,1,0,0:0:0:0:
308,164,109328,1,0,0:0:0:0:
308,164,109486,1,0,0:0:0:0:
308,164,109644,1,2,0:0:0:0:
188,232,109959,1,2,0:0:0:0:
188,232,110275,1,0,0:0:0:0:
188,232,110433,1,2,0:0:0:0:
268,208,110749,1,2,0:0:0:0:
292,144,111065,1,0,0:0:0:0:
220,168,111223,1,2,0:0:0:0:
292,144,111538,1,0,0:0:0:0:
292,144,111696,1,2,0:0:0:0:
292,144,112012,1,2,0:0:0:0:
288,144,112091,1,2,0:0:0:0:
176,176,112170,1,2,0:0:0:0:
292,144,112328,1,2,0:0:0:0:
176,164,112486,1,0,0:0:0:0:
176,164,112802,1,0,0:0:0:0:
280,160,112959,1,2,0:0:0:0:
232,144,113275,1,0,0:0:0:0:
232,144,113591,1,2,0:0:0:0:
204,192,113749,1,0,0:0:0:0:
220,144,114065,1,2,0:0:0:0:
228,172,114223,1,0,0:0:0:0:
228,172,114381,1,0,0:0:0:0:
204,192,114538,1,2,0:0:0:0:
204,192,114696,1,0,0:0:0:0:
256,152,115012,1,2,0:0:0:0:
256,152,115328,1,0,0:0:0:0:
256,152,115486,1,2,0:0:0:0:
212,172,115802,1,0,0:0:0:0:
216,144,115959,1,2,0:0:0:0:
212,172,116117,1,2,0:0:0:0:
236,112,116275,1,0,0:0:0:0:
236,112,116591,1,2,0:0:0:0:
236,112,116749,1,0,0:0:0:0:
236,112,117065,1,2,0:0:0:0:
360,172,117144,1,2,0:0:0:0:
164,176,117223,1,2,0:0:0:0:
192,160,117381,1,0,0:0:0:0:
236,112,117538,1,2,0:0:0:0:
240,176,117854,1,0,0:0:0:0:
240,176,118012,1,2,0:0:0:0:
240,176,118328,1,0,0:0:0:0:
240,176,118644,1,2,0:0:0:0:
308,164,118802,1,0,0:0:0:0:
308,164,119117,1,2,0:0:0:0:
308,164,119275,1,0,0:0:0:0:
224,160,119354,1,0,0:0:0:0:
308,164,119433,1,0,0:0:0:0:
308,164,119591,1,0,0:0:0:0:
308,164,119749,1,2,0:0:0:0:
188,232,120065,1,2,0:0:0:0:
188,232,120381,1,0,0:0:0:0:
188,232,120538,1,2,0:0:0:0:
268,208,120854,1,2,0:0:0:0:
220,168,121170,1,2,0:0:0:0:
292,144,121328,1,0,0:0:0:0:
292,144,121644,1,0,0:0:0:0:
292,144,121802,1,2,0:0:0:0:
292,144,122117,1,2,0:0:0:0:
176,176,122196,1,2,0:0:0:0:
288,144,122275,1,2,0:0:0:0:
292,144,122433,1,0,0:0:0:0:
268,144,122591,5,6,0:0:0:0:
172,140,123065,1,4,0:0:0:0:
184,104,123538,1,6,0:0:0:0:
184,104,124012,1,4,0:0:0:0:
184,104,124486,1,6,0:0:0:0:
168,160,124959,1,4,0:0:0:0:
168,160,125433,1,6,0:0:0:0:
100,144,125907,1,6,0:0:0:0:
100,144,126381,1,6,0:0:0:0:
136,152,126854,1,4,0:0:0:0:
136,152,127170,1,6,0:0:0:0:
100,144,127486,1,0,0:0:0:0:
132,156,127644,1,0,0:0:0:0:
256,160,127959,1,0,0:0:0:0:
256,208,128117,1,0,0:0:0:0:
256,208,128275,1,2,0:0:0:0:
208,180,128591,1,0,0:0:0:0:
200,184,128749,1,0,0:0:0:0:
260,176,129065,1,0,0:0:0:0:
240,188,129223,1,2,0:0:0:0:
220,172,129538,1,2,0:0:0:0:
320,192,129696,1,2,0:0:0:0:
220,172,129854,1,0,0:0:0:0:
256,160,130012,1,0,0:0:0:0:
148,156,130170,1,0,0:0:0:0:
288,160,130486,1,0,0:0:0:0:
272,208,130644,1,0,0:0:0:0:
272,208,130802,1,2,0:0:0:0:
224,180,131117,1,0,0:0:0:0:
216,184,131275,1,0,0:0:0:0:
276,176,131591,1,0,0:0:0:0:
256,188,131749,1,2,0:0:0:0:
236,172,132065,5,2,0:0:0:0:
96,192,132223,1,0,0:0:0:0:
236,172,132381,1,0,0:0:0:0:
96,192,132538,1,0,0:0:0:0:
200,156,132696,1,6,0:0:0:0:
288,96,133170,5,2,0:0:0:0:
288,96,133486,1,2,0:0:0:0:
120,72,133644,1,2,0:0:0:0:
288,96,133802,1,0,0:0:0:0:
120,72,133959,1,2,0:0:0:0:
120,72,134433,1,0,0:0:0:0:
144,108,134591,1,2,0:0:0:0:
144,108,134907,1,0,0:0:0:0:
308,100,135065,1,2,0:0:0:0:
268,108,135223,1,0,0:0:0:0:
144,136,135696,1,2,0:0:0:0:
144,136,136012,1,0,0:0:0:0:
144,136,136170,1,2,0:0:0:0:
144,136,136328,1,2,0:0:0:0:
144,136,136486,1,0,0:0:0:0:
268,108,137117,1,0,0:0:0:0:
112,48,137749,1,2,0:0:0:0:
188,148,138223,1,2,0:0:0:0:
188,148,138538,1,2,0:0:0:0:
92,148,138696,1,2,0:0:0:0:
92,148,138854,1,0,0:0:0:0:
92,148,139012,1,2,0:0:0:0:
228,144,139486,1,0,0:0:0:0:
228,144,139644,1,2,0:0:0:0:
264,152,139959,1,0,0:0:0:0:
264,152,140117,1,2,0:0:0:0:
264,152,140275,1,0,0:0:0:0:
264,152,140591,1,0,0:0:0:0:
248,204,140749,1,2,0:0:0:0:
208,184,141065,1,2,0:0:0:0:
208,184,141223,1,2,0:0:0:0:
208,184,141381,1,0,0:0:0:0:
208,184,141538,1,0,0:0:0:0:
232,160,142170,1,0,0:0:0:0:
248,136,142802,1,2,0:0:0:0:
