osu file format v12

[General]
AudioFilename: Xhroria.mp3
AudioLeadIn: 2000
PreviewTime: 58268
Countdown: 0
SampleSet: Normal
StackLeniency: 0.7
Mode: 0
LetterboxInBreaks: 0
WidescreenStoryboard: 0

[Editor]
Bookmarks: 5468,15818,27818,37418,42218,47018,51818,56618,59018,68618,78218,83018,92918,102218,112118,121268
DistanceSpacing: 1
BeatDivisor: 4
GridSize: 4

[Metadata]
Title:Xhroria
TitleUnicode:Xhroria
Artist:An
ArtistUnicode:An
Creator:Cherry Blossom
Version:Standard
Source:BMS
Tags:BOF2012 acutic notes abstreact reku ein neuer heiliger krieg trident dialgadu77 Ex
BeatmapID:229744
BeatmapSetID:82258

[Difficulty]
HPDrainRate:3
CircleSize:3
OverallDifficulty:4
ApproachRate:5
SliderMultiplier:0.999999999999999
SliderTickRate:1

[Events]
//Background and Video events
Video,0,"_BGA.avi"
0,0,"bgx.jpg",0,0
//Break Periods
2,56818,57818
2,102417,110918
//Storyboard Layer 0 (Background)
//Storyboard Layer 1 (Fail)
//Storyboard Layer 2 (Pass)
//Storyboard Layer 3 (Foreground)
//Storyboard Sound Samples
//Background Colour Transformations
3,100,163,162,255

[TimingPoints]
218,300,4,2,1,60,1,0
5393,-111.111111111111,4,2,1,60,0,0
15743,-100,4,1,1,60,0,0
23093,-100,4,2,1,30,0,0
24293,-100,4,2,1,30,0,0
27143,-100,4,2,1,5,0,0
27743,-100,4,2,1,60,0,0
32918,-100,4,2,3,60,0,0
33368,-100,4,2,4,60,0,0
33818,-100,4,2,5,60,0,0
34268,-100,4,2,6,60,0,0
34718,-100,4,2,7,60,0,0
35168,-100,4,2,8,60,0,0
35618,-100,4,2,9,60,0,0
36068,-100,4,2,10,60,0,0
36218,-100,4,1,1,60,0,0
37418,-90.9090909090909,4,2,1,80,0,1
37493,-90.9090909090909,4,1,2,80,0,1
56618,-90.9090909090909,4,1,1,60,0,0
58943,-111.111111111111,4,2,1,60,0,0
68543,-100,4,1,1,60,0,0
75743,-100,4,2,1,60,0,0
78143,-100,4,1,1,60,0,0
80393,-100,4,2,1,60,0,0
80543,-100,4,1,1,60,0,0
82718,-100,4,2,1,60,0,0
83018,-90.9090909090909,4,1,1,80,0,1
92618,-90.9090909090909,4,1,1,80,0,0
92918,-90.9090909090909,4,1,1,80,0,1
101543,-90.9090909090909,4,2,1,80,0,1
102218,-90.9090909090909,4,2,1,80,0,0
102293,-90.9090909090909,4,1,1,80,0,0
112118,-90.9090909090909,4,1,1,80,0,1
119243,-90.9090909090909,4,2,1,80,0,0
121043,-90.9090909090909,4,1,1,80,0,0

[Colours]
Combo1 : 0,255,255
Combo2 : 0,0,255
Combo3 : 22,248,96

[HitObjects]
256,336,5468,6,0,P|320:320|400:344,1,134.999995880127
440,264,6218,1,2,0:0:0:0:
496,136,6668,2,0,P|376:152|280:112,1,224.999993133545,2|2,0:0|0:0,0:0:0:0:
208,56,7718,2,0,P|160:48|112:56,1,89.999997253418,2|0,0:0|0:0,0:0:0:0:
32,72,8318,6,0,L|32:176,1,89.999997253418,2|0,0:0|0:0,0:0:0:0:
72,288,9068,2,0,P|136:280|208:288,1,134.999995880127,2|0,0:0|0:0,0:0:0:0:
248,312,9668,2,0,B|312:328|384:312,1,134.999995880127,2|2,0:0|0:0,0:0:0:0:
392,136,10718,5,0,0:0:0:0:
472,88,11018,2,0,P|396:44|312:88,1,179.999994506836,2|0,0:0|0:0,0:0:0:0:
256,144,11918,1,2,0:0:0:0:
196,80,12218,2,0,B|155:73|155:73|107:81,1,89.999997253418,2|0,0:0|0:0,0:0:0:0:
44,144,12818,2,0,L|44:240,2,89.999997253418,2|0|2,0:0|0:0|0:0,0:0:0:0:
168,208,13868,6,0,P|232:216|304:208,1,134.999995880127,2|2,0:0|0:0,0:0:0:0:
352,88,14768,1,2,0:0:0:0:
224,56,15218,5,0,0:0:0:0:
224,56,15518,1,0,0:0:0:0:
224,56,15818,2,0,P|144:48|64:64,1,150
32,88,16418,2,0,P|40:136|32:192,1,99.9999999999999,8|0,0:0|0:0,0:0:0:0:
112,248,17018,2,0,L|48:344,2,99.9999999999999,0|0|8,0:0|0:0|0:0,0:0:0:0:
168,168,17918,1,0,0:0:0:0:
256,120,18218,6,0,P|328:112|408:120,1,150
456,136,18818,2,0,P|448:184|456:240,1,99.9999999999999,8|0,0:0|0:0,0:0:0:0:
480,328,19418,1,0,0:0:0:0:
384,304,19718,2,0,L|320:288,2,50,0|0|8,0:0|0:0|0:0,0:0:0:0:
184,336,20618,6,0,P|112:320|32:336,1,150
24,288,21218,2,0,L|0:184,1,99.9999999999999,8|0,0:0|0:0,0:0:0:0:
96,216,21818,1,0,0:0:0:0:
169,158,22118,2,0,L|184:224,2,50,0|0|8,0:0|0:0|0:0,0:0:0:0:
136,64,22718,5,0,0:0:0:0:
136,64,23018,2,0,P|208:48|288:64,1,150,0|2,0:0|0:0,0:0:0:0:
424,104,23918,1,2,0:0:0:0:
256,192,24218,12,0,27218,0:0:0:0:
160,144,27818,6,0,P|256:128|368:144,1,200
360,240,28718,2,0,P|264:256|152:240,1,200,2|0,0:0|0:0,0:0:0:0:
112,224,29468,2,0,L|48:192,2,50,0|2|0,0:0|0:0|0:0,0:0:0:0:
144,320,30068,6,0,P|188:332|248:336,1,99.9999999999999,0|0,0:0|0:0,0:0:0:0:
344,332,30668,1,2,0:0:0:0:
424,272,30968,2,0,L|472:240,2,50,0|2|0,0:0|0:0|0:0,0:0:0:0:
400,176,31568,2,0,P|352:160|296:160,1,99.9999999999999,2|0,0:0|0:0,0:0:0:0:
256,160,32018,2,0,P|160:136|88:64,1,200,2|2,0:0|0:0,0:0:0:0:
64,168,32918,5,2,0:0:0:0:
184,256,33368,2,0,P|256:264|336:256,1,150,2|2,0:0|0:0,0:0:0:0:
448,160,34268,1,2,0:0:0:0:
328,64,34718,2,0,P|256:56|176:64,1,150,2|2,0:0|0:0,0:0:0:0:
256,200,35618,2,0,B|232:280|280:280|256:348,1,150,2|0,0:0|0:0,0:0:0:0:
208,352,36218,6,0,B|160:360|160:360|104:352,1,99.9999999999999,0|8,0:0|0:0,0:0:0:0:
64,264,36818,2,0,L|32:208,2,50,0|0|8,0:0|0:0|0:0,0:0:0:0:
152,184,37418,5,4,0:0:0:0:
232,104,37718,2,0,P|288:96|344:104,1,110.000003356934,10|0,0:0|0:0,0:0:0:0:
392,128,38168,2,0,P|376:208|392:288,1,165.0000050354,2|2,0:0|0:0,0:0:0:0:
256,200,39068,2,0,P|176:184|88:200,1,165.0000050354,2|10,0:0|0:0,0:0:0:0:
176,272,39818,5,0,0:0:0:0:
176,272,39968,2,0,P|256:288|336:272,1,165.0000050354,2|2,0:0|0:0,0:0:0:0:
336,104,40868,2,0,P|256:88|176:104,1,165.0000050354,2|10,0:0|0:0,0:0:0:0:
72,152,41618,2,0,L|16:176,2,55.0000016784668,0|0|8,0:0|0:0|0:0,0:0:0:0:
168,208,42218,5,0,0:0:0:0:
256,280,42518,2,0,P|312:272|368:280,1,110.000003356934,10|0,0:0|0:0,0:0:0:0:
416,296,42968,2,0,P|424:216|464:136,1,165.0000050354,2|2,0:0|0:0,0:0:0:0:
320,48,43868,2,0,B|264:24|216:80|152:48,1,165.0000050354,2|10,0:0|0:0,0:0:0:0:
72,112,44618,5,0,0:0:0:0:
72,112,44768,2,0,P|48:192|72:272,1,165.0000050354,2|2,0:0|0:0,0:0:0:0:
216,192,45668,2,0,P|296:176|384:192,1,165.0000050354,2|10,0:0|0:0,0:0:0:0:
472,248,46418,2,0,L|472:320,2,55.0000016784668,0|0|8,0:0|0:0|0:0,0:0:0:0:
472,136,47018,5,4,0:0:0:0:
392,56,47318,2,0,P|340:40|284:56,1,110.000003356934,10|0,0:0|0:0,0:0:0:0:
236,76,47768,2,0,P|156:100|76:76,1,165.0000050354,2|2,0:0|0:0,0:0:0:0:
72,240,48668,2,0,B|112:224|152:240|152:240|192:224|240:240,1,165.0000050354,2|10,0:0|0:0,0:0:0:0:
208,344,49418,5,0,0:0:0:0:
208,344,49568,2,0,P|288:352|352:304,1,165.0000050354,2|2,0:0|0:0,0:0:0:0:
456,176,50468,2,0,P|376:168|312:216,1,165.0000050354,2|10,0:0|0:0,0:0:0:0:
208,256,51218,2,0,L|136:256,2,55.0000016784668,0|0|8,0:0|0:0|0:0,0:0:0:0:
312,216,51818,5,0,0:0:0:0:
232,152,52118,2,0,P|176:144|120:152,1,110.000003356934,10|0,0:0|0:0,0:0:0:0:
72,168,52568,2,0,P|24:112|48:32,1,165.0000050354,2|2,0:0|0:0,0:0:0:0:
216,32,53468,2,0,B|296:48|384:32,1,165.0000050354,2|10,0:0|0:0,0:0:0:0:
488,24,54218,5,0,0:0:0:0:
488,24,54368,2,0,P|464:112|488:184,1,165.0000050354,2|2,0:0|0:0,0:0:0:0:
488,344,55268,2,0,P|408:328|328:344,1,165.0000050354,2|10,0:0|0:0,0:0:0:0:
288,240,56018,2,0,L|360:216,2,55.0000016784668,0|0|8,0:0|0:0|0:0,0:0:0:0:
184,280,56618,5,0,0:0:0:0:
80,112,59018,6,0,P|256:80|432:112,1,359.999989013672,4|0,0:0|0:0,0:0:0:0:
472,192,60518,2,0,L|376:224,1,89.999997253418,0|2,0:0|0:0,0:0:0:0:
352,304,61118,1,0,0:0:0:0:
352,304,61268,2,0,L|256:328,1,89.999997253418,2|0,0:0|0:0,0:0:0:0:
208,256,61868,5,0,0:0:0:0:
208,256,62018,2,0,L|296:232,1,89.999997253418,2|0,0:0|0:0,0:0:0:0:
320,200,62468,2,0,P|328:152|312:104,1,89.999997253418,2|0,0:0|0:0,0:0:0:0:
232,96,63068,1,0,0:0:0:0:
168,152,63368,6,0,P|104:168|64:224,1,134.999995880127,2|2,0:0|0:0,0:0:0:0:
48,312,64118,2,0,P|112:296|152:240,1,134.999995880127,2|2,0:0|0:0,0:0:0:0:
224,296,64868,2,0,P|288:280|360:296,1,134.999995880127,2|0,0:0|0:0,0:0:0:0:
432,340,65618,6,0,P|444:316|444:288,1,44.999998626709
408,216,66068,1,0,0:0:0:0:
408,216,66218,2,0,P|384:152|408:88,2,134.999995880127,2|2|2,0:0|0:0|0:0,0:0:0:0:
472,152,67418,1,2,0:0:0:0:
272,136,67868,6,0,L|128:152,1,134.999995880127,0|2,0:0|0:0,0:0:0:0:
56,88,68618,2,0,P|36:172|76:232,1,150
96,264,69218,2,0,P|168:248|248:264,1,150,8|0,0:0|0:0,0:0:0:0:
288,280,69818,2,0,L|400:328,1,99.9999999999999
464,264,70418,2,0,L|352:216,1,99.9999999999999,8|0,0:0|0:0,0:0:0:0:
280,184,71018,6,0,P|216:216|192:288,1,150
184,336,71618,2,0,P|136:344|80:336,1,99.9999999999999,8|0,0:0|0:0,0:0:0:0:
48,248,72218,2,0,L|24:144,1,99.9999999999999
0,56,72818,2,0,P|48:48|104:56,1,99.9999999999999,8|0,0:0|0:0,0:0:0:0:
184,104,73418,6,0,P|212:148|264:168,2,99.9999999999999,0|8|0,0:0|0:0|0:0,0:0:0:0:
280,64,74318,1,8,0:0:0:0:
380,32,74618,2,0,P|384:84|364:128,2,99.9999999999999,0|8|0,0:0|0:0|0:0,0:0:0:0:
472,64,75518,1,8,0:0:0:0:
456,160,75818,6,8,L|456:264,1,99.9999999999999,8|12,0:0|0:0,0:0:0:0:
368,208,76418,2,8,L|368:312,1,99.9999999999999,10|12,0:0|0:0,0:0:0:0:
280,264,77018,2,0,B|264:348|176:360|176:360|88:344|76:264,1,300,4|0,0:0|0:0,0:0:0:0:
76,168,78218,5,0,0:0:0:0:
76,120,78368,2,0,L|76:56,2,50
172,92,78968,2,0,P|220:84|272:92,1,99.9999999999999
324,176,79568,2,0,P|276:184|224:176,2,99.9999999999999
380,92,80468,1,4,0:0:0:0:
304,320,81818,6,0,P|256:328|200:320,1,99.9999999999999,0|8,0:0|0:0,0:0:0:0:
112,288,82418,2,0,L|56:256,2,50,0|0|0,0:0|0:0|0:0,0:0:0:0:
192,216,83018,5,4,0:0:0:0:
112,140,83318,2,0,P|192:116|280:148,1,165.0000050354,8|0,0:0|0:0,0:0:0:0:
312,172,83918,2,0,L|432:236,1,110.000003356934,8|0,0:0|0:0,0:0:0:0:
408,112,84518,2,0,L|296:56,1,110.000003356934,8|0,0:0|0:0,0:0:0:0:
202,62,85118,2,0,L|104:112,1,110.000003356934,8|0,0:0|0:0,0:0:0:0:
8,168,85718,6,0,P|80:208|104:288,1,165.0000050354,8|0,0:0|0:0,0:0:0:0:
136,328,86318,2,0,P|192:320|256:328,1,110.000003356934,8|0,0:0|0:0,0:0:0:0:
352,352,86918,1,8,0:0:0:0:
312,248,87218,1,0,0:0:0:0:
272,144,87518,2,0,P|312:112|368:104,1,110.000003356934,8|0,0:0|0:0,0:0:0:0:
280,40,88118,6,0,L|144:40,1,110.000003356934,8|0,0:0|0:0,0:0:0:0:
92,120,88718,2,0,L|212:120,2,110.000003356934,8|0|8,0:0|0:0|0:0,0:0:0:0:
56,224,89618,1,0,0:0:0:0:
128,304,89918,1,8,0:0:0:0:
232,328,90218,6,0,L|288:328,1,55.0000016784668,0|0,0:0|0:0,0:0:0:0:
344,232,90668,2,0,L|208:232,1,110.000003356934
176,136,91268,2,0,L|296:136,1,110.000003356934
224,40,91868,2,0,L|88:40,2,110.000003356934
388,40,92918,6,0,P|464:72|460:168,1,165.0000050354,4|0,0:0|0:0,0:0:0:0:
440,192,93518,2,0,L|440:304,1,110.000003356934,8|0,0:0|0:0,0:0:0:0:
352,240,94118,2,0,L|352:120,1,110.000003356934,8|0,0:0|0:0,0:0:0:0:
264,192,94718,2,0,L|264:328,1,110.000003356934,8|0,0:0|0:0,0:0:0:0:
168,240,95318,2,0,P|144:160|88:104,1,165.0000050354,8|0,0:0|0:0,0:0:0:0:
40,72,95918,2,0,P|80:32|136:24,1,110.000003356934,8|0,0:0|0:0,0:0:0:0:
248,24,96518,6,0,L|384:24,1,110.000003356934,8|0,0:0|0:0,0:0:0:0:
448,88,97118,1,8,0:0:0:0:
348,132,97418,2,0,L|220:132,2,110.000003356934,0|8|0,0:0|0:0|0:0,0:0:0:0:
440,196,98318,1,8,0:0:0:0:
436,300,98618,2,0,P|348:316|276:268,1,165.0000050354,0|0,0:0|0:0,0:0:0:0:
248,236,99218,2,0,P|144:196|32:228,1,220.000006713867,8|0,0:0|0:0,0:0:0:0:
80,120,100118,5,0,0:0:0:0:
80,120,100268,2,0,P|136:112|196:120,1,110.000003356934,8|0,0:0|0:0,0:0:0:0:
256,32,100868,1,0,0:0:0:0:
256,32,101018,2,0,P|360:60|468:32,1,220.000006713867,8|8,0:0|0:0,0:0:0:0:
508,136,101918,2,8,L|508:248,1,110.000003356934,8|12,0:0|0:0,0:0:0:0:
176,256,112118,6,0,P|256:280|336:256,1,165.0000050354,4|0,0:0|0:0,0:0:0:0:
376,224,112718,2,0,L|464:152,1,110.000003356934,8|0,0:0|0:0,0:0:0:0:
440,48,113318,2,0,L|352:120,1,110.000003356934,8|0,0:0|0:0,0:0:0:0:
256,64,113918,1,8,0:0:0:0:
160,120,114218,1,0,0:0:0:0:
160,120,114518,2,0,L|74:50,1,110.000003356934,8|0,0:0|0:0,0:0:0:0:
50,154,115118,2,0,L|136:224,1,110.000003356934,8|0,0:0|0:0,0:0:0:0:
176,328,115718,6,0,P|256:304|336:328,1,165.0000050354,8|0,0:0|0:0,0:0:0:0:
384,352,116318,2,0,P|432:328|464:280,1,110.000003356934,8|0,0:0|0:0,0:0:0:0:
464,176,116918,2,0,L|464:48,1,110.000003356934,8|0,0:0|0:0,0:0:0:0:
368,120,117518,1,8,0:0:0:0:
368,120,117818,2,0,P|288:136|208:120,1,165.0000050354,0|0,0:0|0:0,0:0:0:0:
160,88,118418,2,0,P|60:128|52:240,1,220.000006713867,8|0,0:0|0:0,0:0:0:0:
144,192,119318,6,0,L|208:192,1,55.0000016784668,0|2,0:0|0:0,0:0:0:0:
256,288,119768,1,2,0:0:0:0:
313,192,120068,2,0,L|368:192,2,55.0000016784668,0|2|0,0:0|0:0|0:0,0:0:0:0:
256,96,120668,1,2,0:0:0:0:
368,96,120968,2,0,L|432:96,2,55.0000016784668,2|0|4,0:0|0:0|0:0,0:0:0:0:
