osu file format v12

[General]
AudioFilename: Xhroria.mp3
AudioLeadIn: 2000
PreviewTime: 58268
Countdown: 0
SampleSet: Normal
StackLeniency: 0.7
Mode: 0
LetterboxInBreaks: 0
WidescreenStoryboard: 0

[Editor]
Bookmarks: 5468,15818,27818,37418,42218,47018,51818,56618,59018,68618,78218,83018,92918,102218,112118,121268
DistanceSpacing: 1
BeatDivisor: 4
GridSize: 4

[Metadata]
Title:Xhroria
TitleUnicode:Xhroria
Artist:An
ArtistUnicode:An
Creator:Cherry Blossom
Version:Hyper
Source:BMS
Tags:BOF2012 acutic notes abstreact reku ein neuer heiliger krieg trident dialgadu77 Ex
BeatmapID:228549
BeatmapSetID:82258

[Difficulty]
HPDrainRate:6
CircleSize:4
OverallDifficulty:7
ApproachRate:8
SliderMultiplier:1.7
SliderTickRate:1

[Events]
//Background and Video events
Video,0,"_BGA.avi"
0,0,"bgx.jpg",0,0
//Break Periods
2,56818,58268
2,102418,110768
//Storyboard Layer 0 (Background)
//Storyboard Layer 1 (Fail)
//Storyboard Layer 2 (Pass)
//Storyboard Layer 3 (Foreground)
//Storyboard Sound Samples
//Background Colour Transformations
3,100,163,162,255

[TimingPoints]
218,300,4,2,1,60,1,0
5393,-133.333333333333,4,2,1,60,0,0
14843,-133.333333333333,4,2,1,30,0,0
14993,-100,4,2,1,60,0,0
15743,-100,4,1,1,60,0,0
23543,-100,4,2,1,60,0,0
24293,-100,4,2,1,30,0,0
27443,-100,4,2,1,5,0,0
27743,-100,4,2,1,60,0,0
32918,-100,4,2,3,60,0,0
33368,-100,4,2,4,60,0,0
33818,-100,4,2,5,60,0,0
34268,-100,4,2,6,60,0,0
34718,-100,4,2,7,60,0,0
35168,-100,4,2,8,60,0,0
35618,-100,4,2,9,60,0,0
36068,-100,4,2,10,60,0,0
36218,-100,4,1,1,60,0,0
36293,-100,4,1,1,30,0,0
36443,-100,4,1,1,60,0,0
36593,-100,4,1,1,30,0,0
36743,-100,4,1,1,60,0,0
37418,-80,4,2,1,80,0,1
37493,-80,4,1,2,80,0,1
56618,-80,4,1,1,60,0,0
58943,-133.333333333333,4,2,1,60,0,0
68618,-100,4,1,1,60,0,0
75743,-100,4,2,1,60,0,0
77018,-133.333333333333,4,2,1,60,0,0
78143,-100,4,1,1,60,0,0
80393,-100,4,2,1,60,0,0
80543,-100,4,1,1,60,0,0
82193,-100,4,1,1,30,0,0
82343,-100,4,1,1,60,0,0
82718,-100,4,2,1,60,0,0
83018,-80,4,1,1,80,0,1
92618,-80,4,2,1,80,0,0
92918,-80,4,1,1,80,0,1
101543,-80,4,2,1,80,0,1
102218,-80,4,2,1,80,0,0
102293,-80,4,1,1,80,0,0
111443,-100,4,1,1,60,0,0
111893,-100,4,2,1,60,0,0
112118,-80,4,1,1,80,0,1
119243,-80,4,2,1,80,0,0
121043,-80,4,1,1,80,0,0

[Colours]
Combo1 : 0,255,255
Combo2 : 0,0,255
Combo3 : 22,248,96

[HitObjects]
80,96,5468,5,2,0:0:0:0:
80,96,5618,2,0,P|144:112|208:96,1,127.500004863739,2|0,0:0|0:0,0:0:0:0:
320,48,6218,1,2,0:0:0:0:
256,328,6668,1,2,0:0:0:0:
352,168,7118,1,0,0:0:0:0:
352,168,7268,2,0,P|256:144|160:168,1,191.250007295609,0|2,0:0|0:0,0:0:0:0:
416,88,8318,5,2,0:0:0:0:
416,88,8618,2,0,P|352:72|288:88,1,127.500004863739,2|0,0:0|0:0,0:0:0:0:
232,128,9068,2,0,P|170:141|109:125,1,127.500004863739,2|2,0:0|0:0,0:0:0:0:
48,88,9518,1,0,0:0:0:0:
48,88,9668,1,2,0:0:0:0:
44,216,9968,1,0,0:0:0:0:
44,216,10118,1,2,0:0:0:0:
432,192,10718,5,2,0:0:0:0:
320,128,11018,2,0,P|256:112|192:128,1,127.500004863739,2|0,0:0|0:0,0:0:0:0:
144,160,11468,2,0,P|128:224|144:288,1,127.500004863739,2|2,0:0|0:0,0:0:0:0:
256,224,12068,1,2,0:0:0:0:
256,224,12218,1,2,0:0:0:0:
47,286,12518,2,0,P|32:224|48:160,1,127.500004863739,0|2,0:0|0:0,0:0:0:0:
80,104,12968,2,0,P|144:88|208:104,1,127.500004863739,2|0,0:0|0:0,0:0:0:0:
304,32,13568,5,2,0:0:0:0:
304,32,13718,2,0,P|368:48|432:32,1,127.500004863739,2|0,0:0|0:0,0:0:0:0:
464,152,14318,1,2,0:0:0:0:
488,280,14618,2,0,P|440:328|384:336,1,127.500004863739,2|0,0:0|0:0,0:0:0:0:
256,112,15218,5,2,0:0:0:0:
256,280,15518,1,2,0:0:0:0:
128,168,15818,1,0,0:0:0:0:
384,168,16268,1,0,0:0:0:0:
384,168,16418,2,0,P|376:80|448:32,1,170,8|0,0:0|0:0,0:0:0:0:
456,120,16868,1,0,0:0:0:0:
480,200,17018,2,0,B|456:256|456:256|424:288|344:296,1,170
296,232,17468,1,0,0:0:0:0:
224,280,17618,2,0,P|136:264|56:280,1,170,8|0,0:0|0:0,0:0:0:0:
128,56,18218,5,0,0:0:0:0:
296,88,18518,1,0,0:0:0:0:
384,88,18668,1,0,0:0:0:0:
456,40,18818,2,0,P|464:128|388:176,1,170,8|0,0:0|0:0,0:0:0:0:
336,216,19268,1,0,0:0:0:0:
288,288,19418,2,0,L|264:336,2,42.5
200,272,19718,2,0,L|168:320,2,42.5
248,200,20018,2,0,B|208:180|168:184|136:216|136:216|80:200,1,170,8|0,0:0|0:0,0:0:0:0:
56,120,20468,5,0,0:0:0:0:
56,120,20618,2,0,B|128:136|128:136|224:80,1,170
144,32,21068,1,0,0:0:0:0:
144,32,21218,2,0,P|240:4|296:64,1,170,8|0,0:0|0:0,0:0:0:0:
336,112,21668,1,0,0:0:0:0:
388,180,21818,2,0,L|452:180,2,42.5
432,256,22118,2,0,L|488:256,2,42.5
392,320,22418,2,0,P|352:328|304:320,1,85,8|0,0:0|0:0,0:0:0:0:
256,256,22718,6,0,P|168:240|88:256,1,170,0|0,0:0|0:0,0:0:0:0:
256,64,23468,2,0,P|344:80|424:64,1,170
480,128,23918,1,2,0:0:0:0:
432,288,24218,1,4,0:0:0:0:
256,192,24368,12,0,27518,0:0:0:0:
424,312,27818,6,0,P|344:328|256:312,1,170
184,272,28268,1,0,0:0:0:0:
120,216,28418,2,0,L|32:216,1,85,2|0,0:0|0:0,0:0:0:0:
72,136,28718,2,0,L|176:136,1,85,2|0,0:0|0:0,0:0:0:0:
416,136,29168,1,2,0:0:0:0:
272,48,29468,1,0,0:0:0:0:
272,48,29618,2,0,L|272:144,1,85,2|0,0:0|0:0,0:0:0:0:
336,192,29918,1,0,0:0:0:0:
360,272,30068,1,0,0:0:0:0:
424,328,30218,6,0,P|324:348|276:288,1,170,2|0,0:0|0:0,0:0:0:0:
240,232,30668,2,0,P|152:208|80:232,1,170,2|0,0:0|0:0,0:0:0:0:
36,160,31118,2,0,P|76:140|120:128,1,85
200,120,31418,1,0,0:0:0:0:
200,120,31568,2,0,L|288:120,1,85,2|0,0:0|0:0,0:0:0:0:
240,48,31868,1,0,0:0:0:0:
240,48,32018,2,0,L|336:48,1,85,2|0,0:0|0:0,0:0:0:0:
456,48,32318,1,0,0:0:0:0:
396,160,32468,1,0,0:0:0:0:
396,160,32543,1,0,0:0:0:0:
396,160,32618,1,2,0:0:0:0:
452,320,32918,6,0,P|368:296|284:320,1,170,2|0,0:0|0:0,0:0:0:0:
212,348,33368,2,0,P|130:368|50:344,1,170,2|0,0:0|0:0,0:0:0:0:
16,268,33818,1,2,0:0:0:0:
144,48,34118,1,0,0:0:0:0:
144,48,34268,2,0,P|224:68|308:48,1,170,2|0,0:0|0:0,0:0:0:0:
392,32,34718,2,0,L|424:152,1,85,2|0,0:0|0:0,0:0:0:0:
392,368,35168,2,0,P|416:296|504:280,1,170,2|0,0:0|0:0,0:0:0:0:
512,192,35618,2,0,B|436:172|412:216|344:192,1,170,2|0,0:0|0:0,0:0:0:0:
256,192,36068,1,2,0:0:0:0:
168,192,36218,5,0,0:0:0:0:
80,192,36368,2,0,L|40:148,2,42.5,0|0|8,0:0|0:0|0:0,0:0:0:0:
124,268,36668,1,0,0:0:0:0:
124,112,36818,1,0,0:0:0:0:
104,92,36893,1,0,0:0:0:0:
84,72,36968,1,0,0:0:0:0:
64,52,37043,1,0,0:0:0:0:
44,32,37118,1,8,0:0:0:0:
280,176,37418,6,0,P|336:184|384:176,1,106.25,4|0,0:0|0:0,0:0:0:0:
432,72,37718,2,0,P|488:160|464:264,1,212.5,10|0,0:0|0:0,0:0:0:0:
376,320,38168,2,0,P|320:312|272:320,1,106.25,2|8,0:0|0:0,0:0:0:0:
168,352,38468,1,0,0:0:0:0:
64,320,38618,2,0,B|8:288|8:288|40:224|16:144,1,212.5,2|8,0:0|0:0,0:0:0:0:
112,192,39068,2,0,P|160:200|216:192,1,106.25,2|0,0:0|0:0,0:0:0:0:
272,96,39368,1,0,0:0:0:0:
272,96,39518,2,0,P|224:88|168:96,1,106.25,10|0,0:0|0:0,0:0:0:0:
380,84,39818,5,0,0:0:0:0:
380,84,39968,2,0,P|384:208|320:280,1,212.5,2|0,0:0|0:0,0:0:0:0:
408,352,40418,2,0,P|304:312|208:336,1,212.5,2|8,0:0|0:0,0:0:0:0:
96,312,40868,2,0,L|0:264,1,106.25,2|0,0:0|0:0,0:0:0:0:
88,208,41168,1,0,0:0:0:0:
88,208,41318,2,0,L|184:256,1,106.25,10|0,0:0|0:0,0:0:0:0:
192,152,41618,1,0,0:0:0:0:
96,104,41768,2,0,L|40:72,2,53.125,0|0|8,0:0|0:0|0:0,0:0:0:0:
184,48,42068,5,0,0:0:0:0:
184,48,42218,2,0,P|240:40|288:48,1,106.25
392,72,42518,2,0,P|424:176|392:280,1,212.5,10|0,0:0|0:0,0:0:0:0:
448,368,42968,2,0,P|392:360|336:376,1,106.25,2|8,0:0|0:0,0:0:0:0:
244,336,43268,1,0,0:0:0:0:
136,360,43418,2,0,L|24:360,1,106.25,2|0,0:0|0:0,0:0:0:0:
80,264,43718,1,8,0:0:0:0:
80,264,43868,2,0,L|200:264,1,106.25,2|0,0:0|0:0,0:0:0:0:
136,168,44168,1,0,0:0:0:0:
136,168,44318,2,0,L|16:168,1,106.25,10|0,0:0|0:0,0:0:0:0:
80,72,44618,5,0,0:0:0:0:
80,72,44768,2,0,P|184:48|296:72,1,212.5,2|0,0:0|0:0,0:0:0:0:
392,40,45218,2,0,P|384:96|400:152,1,106.25,2|0,0:0|0:0,0:0:0:0:
472,284,45518,1,8,0:0:0:0:
504,196,45668,2,0,P|512:140|496:84,1,106.25,2|0,0:0|0:0,0:0:0:0:
380,268,45968,1,0,0:0:0:0:
380,268,46118,2,0,P|372:324|388:380,1,106.25,10|0,0:0|0:0,0:0:0:0:
280,344,46418,1,0,0:0:0:0:
180,312,46568,1,0,0:0:0:0:
180,312,46643,1,0,0:0:0:0:
180,312,46718,1,8,0:0:0:0:
224,216,46868,5,0,0:0:0:0:
224,216,47018,2,0,P|180:184|132:160,1,106.25,4|0,0:0|0:0,0:0:0:0:
0,80,47318,2,0,P|104:80|208:40,1,212.5,10|0,0:0|0:0,0:0:0:0:
307,42,47768,2,0,P|408:80|512:80,1,212.5,2|0,0:0|0:0,0:0:0:0:
493,185,48218,2,0,L|408:248,1,106.25,2|0,0:0|0:0,0:0:0:0:
472,336,48518,1,8,0:0:0:0:
368,344,48668,2,0,P|256:328|152:344,1,212.5,2|0,0:0|0:0,0:0:0:0:
56,328,49118,2,0,P|80:280|136:248,1,106.25,10|0,0:0|0:0,0:0:0:0:
80,152,49418,5,0,0:0:0:0:
80,152,49568,2,0,P|56:200|0:232,1,106.25,2|8,0:0|0:0,0:0:0:0:
32,72,49868,1,0,0:0:0:0:
136,72,50018,2,0,P|240:88|352:72,1,212.5,2|8,0:0|0:0,0:0:0:0:
456,64,50468,2,0,L|472:176,1,106.25,2|0,0:0|0:0,0:0:0:0:
408,256,50768,1,0,0:0:0:0:
408,256,50918,2,0,L|392:144,1,106.25,10|0,0:0|0:0,0:0:0:0:
512,256,51218,1,0,0:0:0:0:
456,352,51368,2,0,L|512:352,2,53.125,0|0|8,0:0|0:0|0:0,0:0:0:0:
352,352,51668,5,0,0:0:0:0:
352,352,51818,2,0,P|296:344|240:352,1,106.25
216,248,52118,2,0,P|104:272|0:248,1,212.5,10|0,0:0|0:0,0:0:0:0:
96,192,52568,2,0,P|144:192|204:168,1,106.25,2|8,0:0|0:0,0:0:0:0:
232,72,52868,1,0,0:0:0:0:
232,72,53018,2,0,P|176:72|124:96,2,106.25,2|0|8,0:0|0:0|0:0,0:0:0:0:
304,152,53468,2,0,P|408:176|512:152,1,212.5,2|0,0:0|0:0,0:0:0:0:
440,72,53918,2,0,P|408:168|424:280,1,212.5,10|0,0:0|0:0,0:0:0:0:
488,360,54368,6,0,P|440:352|384:360,1,106.25,2|8,0:0|0:0,0:0:0:0:
280,352,54668,1,0,0:0:0:0:
176,360,54818,2,0,B|96:360|96:360|24:336|16:264,1,212.5,2|8,0:0|0:0,0:0:0:0:
120,264,55268,2,0,B|176:256|176:256|232:264,1,106.25,2|0,0:0|0:0,0:0:0:0:
304,184,55568,1,0,0:0:0:0:
304,184,55718,6,0,B|248:192|248:192|192:184,1,106.25,10|0,0:0|0:0,0:0:0:0:
104,144,56018,1,0,0:0:0:0:
8,104,56168,1,0,0:0:0:0:
8,104,56243,1,0,0:0:0:0:
8,104,56318,1,8,0:0:0:0:
88,40,56468,2,0,P|136:32|192:40,1,106.25,0|0,0:0|0:0,0:0:0:0:
256,72,59018,6,0,P|352:80|448:72,1,191.250007295609,4|0,0:0|0:0,0:0:0:0:
376,352,59918,1,0,0:0:0:0:
376,352,60068,2,0,P|312:344|240:352,1,127.500004863739,2|0,0:0|0:0,0:0:0:0:
192,312,60518,5,2,0:0:0:0:
192,312,60818,2,0,L|48:312,1,127.500004863739
24,264,61268,1,2,0:0:0:0:
24,264,61568,2,0,P|8:200|24:136,1,127.500004863739
72,104,62018,2,0,P|136:112|208:104,1,127.500004863739,2|0,0:0|0:0,0:0:0:0:
240,56,62468,1,2,0:0:0:0:
136,216,62768,5,0,0:0:0:0:
136,216,63068,2,0,B|200:224|200:224|264:216,1,127.500004863739,2|0,0:0|0:0,0:0:0:0:
312,176,63518,2,0,P|376:168|440:176,1,127.500004863739,2|0,0:0|0:0,0:0:0:0:
480,224,63968,2,0,L|480:296,1,63.7500024318696,2|0,0:0|0:0,0:0:0:0:
424,264,64268,2,0,L|424:344,1,63.7500024318696,2|0,0:0|0:0,0:0:0:0:
368,296,64568,2,0,L|368:368,1,63.7500024318696,2|0,0:0|0:0,0:0:0:0:
312,328,64868,1,2,0:0:0:0:
136,64,65618,6,0,P|168:72|200:64,1,63.7500024318696,0|2,0:0|0:0,0:0:0:0:
256,48,65918,1,0,0:0:0:0:
320,32,66068,2,0,P|350:25|381:33,1,63.7500024318696,0|2,0:0|0:0,0:0:0:0:
256,180,66668,1,2,0:0:0:0:
336,272,66968,1,0,0:0:0:0:
336,272,67118,2,0,P|256:320|176:272,1,191.250007295609,2|0,0:0|0:0,0:0:0:0:
36,148,67868,6,0,L|24:108,5,31.8750012159348
24,96,68318,1,0,0:0:0:0:
28,72,68393,1,0,0:0:0:0:
40,52,68468,1,0,0:0:0:0:
56,36,68543,1,0,0:0:0:0:
72,28,68618,6,0,P|156:48|244:40,1,170
324,44,69068,1,0,0:0:0:0:
400,8,69218,2,0,P|432:72|424:168,1,170,8|0,0:0|0:0,0:0:0:0:
408,252,69668,1,0,0:0:0:0:
372,328,69818,2,0,L|340:376,2,42.5
288,312,70118,2,0,L|248:360,2,42.5
224,264,70418,2,0,P|136:244|36:280,1,170,8|0,0:0|0:0,0:0:0:0:
120,328,70868,1,0,0:0:0:0:
120,328,71018,6,0,P|152:248|96:160,1,170
56,120,71468,1,0,0:0:0:0:
0,64,71618,2,0,P|88:48|136:112,1,170,8|0,0:0|0:0,0:0:0:0:
200,160,72068,1,0,0:0:0:0:
224,80,72218,2,0,L|200:24,2,42.5
304,56,72518,2,0,L|280:0,2,42.5
368,112,72818,2,0,B|440:128|440:128|464:176|440:224,1,170,8|0,0:0|0:0,0:0:0:0:
340,292,73268,1,0,0:0:0:0:
340,292,73418,6,0,P|296:284|252:292,1,85
136,256,73718,2,0,P|144:212|136:168,1,85,8|0,0:0|0:0,0:0:0:0:
172,48,74018,2,0,P|216:56|260:48,1,85,0|0,0:0|0:0,0:0:0:0:
368,112,74318,2,0,P|360:156|368:200,1,85,8|0,0:0|0:0,0:0:0:0:
460,284,74618,2,0,P|468:240|460:196,2,85,0|0|8,0:0|0:0|0:0,0:0:0:0:
108,212,75218,5,0,0:0:0:0:
88,128,75368,1,0,0:0:0:0:
128,52,75518,1,8,0:0:0:0:
204,12,75668,1,0,0:0:0:0:
296,24,75818,6,8,L|352:24,3,42.5,8|8|10|8,0:0|0:0|0:0|0:0,0:0:0:0:
380,20,76118,2,8,L|436:28,3,42.5,12|8|10|8,0:0|0:0|0:0|0:0,0:0:0:0:
456,52,76418,2,8,L|488:108,3,42.5,10|8|10|8,0:0|0:0|0:0|0:0,0:0:0:0:
480,132,76718,2,8,L|480:196,3,42.5,12|8|10|8,0:0|0:0|0:0|0:0,0:0:0:0:
480,208,77018,6,0,B|496:332|368:376|368:376|244:332|256:200,1,446.250017023087,12|0,0:0|0:0,0:0:0:0:
256,120,78218,5,0,0:0:0:0:
256,120,78368,1,0,0:0:0:0:
256,32,78518,1,0,0:0:0:0:
256,32,78668,1,0,0:0:0:0:
360,192,78968,1,0,0:0:0:0:
152,192,79268,1,0,0:0:0:0:
408,264,79568,1,0,0:0:0:0:
104,264,79868,1,0,0:0:0:0:
256,192,80168,1,0,0:0:0:0:
256,360,80468,5,4,0:0:0:0:
256,48,81818,6,0,P|328:96|416:96,1,170,0|8,0:0|0:0,0:0:0:0:
384,16,82268,1,0,0:0:0:0:
440,176,82418,2,0,L|464:232,2,42.5
376,288,82718,2,2,L|400:336,3,28.3333333333333
256,256,83018,6,0,P|200:248|144:264,1,106.25,4|0,0:0|0:0,0:0:0:0:
72,328,83318,1,8,0:0:0:0:
40,224,83468,2,0,P|88:136|64:32,1,212.5,0|0,0:0|0:0,0:0:0:0:
168,48,83918,2,0,P|268:72|376:48,1,212.5,8|0,0:0|0:0,0:0:0:0:
480,32,84368,1,0,0:0:0:0:
480,32,84518,2,0,L|512:160,1,106.25,8|0,0:0|0:0,0:0:0:0:
448,224,84818,2,0,L|416:96,2,106.25,0|0|8,0:0|0:0|0:0,0:0:0:0:
480,328,85268,5,0,0:0:0:0:
480,328,85418,2,0,P|424:320|368:328,1,106.25
272,344,85718,2,0,B|200:344|200:344|128:376|56:344,1,212.5,8|0,0:0|0:0,0:0:0:0:
128,264,86168,1,0,0:0:0:0:
79,168,86318,2,0,P|131:159|184:168,1,106.25,8|0,0:0|0:0,0:0:0:0:
128,71,86618,2,0,P|76:80|24:72,1,106.25,0|0,0:0|0:0,0:0:0:0:
232,40,86918,2,0,P|344:40|432:112,1,212.5,8|0,0:0|0:0,0:0:0:0:
480,192,87368,1,0,0:0:0:0:
480,192,87518,2,0,P|432:208|376:208,1,106.25,8|0,0:0|0:0,0:0:0:0:
272,176,87818,5,0,0:0:0:0:
168,176,87968,1,0,0:0:0:0:
168,176,88118,2,0,L|48:176,1,106.25,8|0,0:0|0:0,0:0:0:0:
112,272,88418,1,0,0:0:0:0:
112,272,88568,2,0,L|0:272,2,106.25,0|8|0,0:0|0:0|0:0,0:0:0:0:
208,320,89018,2,0,P|312:344|416:320,1,212.5,0|8,0:0|0:0,0:0:0:0:
400,216,89468,1,0,0:0:0:0:
368,118,89618,2,0,P|424:116|472:144,2,106.25,0|0|8,0:0|0:0|0:0,0:0:0:0:
264,136,90068,1,0,0:0:0:0:
164,88,90218,5,0,0:0:0:0:
164,88,90368,1,0,0:0:0:0:
124,296,90668,1,0,0:0:0:0:
88,88,90968,1,0,0:0:0:0:
196,272,91268,1,0,0:0:0:0:
32,136,91568,1,0,0:0:0:0:
232,208,91868,1,0,0:0:0:0:
16,208,92168,1,0,0:0:0:0:
220,136,92468,2,0,P|312:92|428:104,1,212.5
480,192,92918,6,0,P|432:200|368:192,2,106.25,4|0|0,0:0|0:0|0:0,0:0:0:0:
480,296,93368,1,0,0:0:0:0:
376,296,93518,2,0,P|264:288|176:336,1,212.5,8|0,0:0|0:0,0:0:0:0:
72,320,93968,1,0,0:0:0:0:
72,320,94118,2,0,L|160:232,1,106.25,8|0,0:0|0:0,0:0:0:0:
144,136,94418,2,0,L|56:224,1,106.25,0|0,0:0|0:0,0:0:0:0:
48,56,94718,2,0,P|144:28|256:56,1,212.5,8|0,0:0|0:0,0:0:0:0:
336,120,95168,5,0,0:0:0:0:
432,168,95318,2,0,P|392:208|344:224,1,106.25,8|0,0:0|0:0,0:0:0:0:
368,328,95618,2,0,P|312:320|264:328,1,106.25
160,344,95918,2,0,P|56:320|16:224,1,212.5,8|0,0:0|0:0,0:0:0:0:
120,248,96368,1,0,0:0:0:0:
120,248,96518,2,0,P|176:248|224:264,2,106.25,8|0|0,0:0|0:0|0:0,0:0:0:0:
88,144,96968,1,0,0:0:0:0:
88,144,97118,2,0,L|40:40,1,106.25,8|0,0:0|0:0,0:0:0:0:
152,56,97418,6,0,L|200:168,1,106.25
264,72,97718,1,8,0:0:0:0:
368,56,97868,2,0,L|416:168,1,106.25
448,248,98168,2,0,P|392:272|336:280,1,106.25,0|8,0:0|0:0,0:0:0:0:
248,248,98468,1,0,0:0:0:0:
184,160,98618,2,0,P|152:272|204:348,1,212.5,0|8,0:0|0:0,0:0:0:0:
96,352,99068,1,0,0:0:0:0:
96,352,99218,2,0,B|92:280|48:224|48:224|72:144,1,212.5,0|8,0:0|0:0,0:0:0:0:
88,48,99668,5,0,0:0:0:0:
88,48,99818,2,8,P|192:32|304:48,1,212.5,0|8,0:0|0:0,0:0:0:0:
384,104,100268,2,0,L|472:184,2,106.25,0|0|0,0:0|0:0|0:0,0:0:0:0:
360,208,100718,2,0,L|456:296,2,106.25,8|0|0,0:0|0:0|0:0,0:0:0:0:
264,264,101168,1,0,0:0:0:0:
176,320,101318,1,8,0:0:0:0:
176,320,101468,2,0,B|120:312|120:312|64:320,1,106.25,0|8,0:0|0:0,0:0:0:0:
116,224,101768,5,8,0:0:0:0:
48,144,101918,1,8,0:0:0:0:
80,128,101993,1,8,0:0:0:0:
116,124,102068,1,8,0:0:0:0:
152,128,102143,1,8,0:0:0:0:
184,144,102218,1,4,0:0:0:0:
256,112,111518,5,0,0:0:0:0:
256,112,111668,2,0,P|344:128|432:112,1,170
496,40,112118,6,0,P|512:144|440:216,1,212.5,4|0,0:0|0:0,0:0:0:0:
400,312,112568,1,0,0:0:0:0:
296,328,112718,2,0,B|192:312|192:312|80:328,1,212.5,8|0,0:0|0:0,0:0:0:0:
56,224,113168,1,0,0:0:0:0:
56,224,113318,2,0,B|144:208|144:208|216:224|264:184,1,212.5,8|0,0:0|0:0,0:0:0:0:
184,120,113768,1,0,0:0:0:0:
104,56,113918,2,0,P|152:32|224:32,1,106.25,8|0,0:0|0:0,0:0:0:0:
280,88,114218,2,0,P|328:96|392:88,1,106.25
476,32,114518,6,0,P|480:136|396:196,1,212.5,8|0,0:0|0:0,0:0:0:0:
304,208,114968,1,0,0:0:0:0:
200,192,115118,2,0,P|88:184|36:260,1,212.5,8|0,0:0|0:0,0:0:0:0:
136,272,115568,1,0,0:0:0:0:
80,352,115718,2,0,P|136:364|192:352,1,106.25,8|0,0:0|0:0,0:0:0:0:
264,280,116018,1,0,0:0:0:0:
368,272,116168,1,0,0:0:0:0:
456,328,116318,2,0,P|488:232|464:120,1,212.5,8|0,0:0|0:0,0:0:0:0:
400,40,116768,5,0,0:0:0:0:
296,40,116918,2,0,L|176:40,1,106.25,8|0,0:0|0:0,0:0:0:0:
240,136,117218,1,0,0:0:0:0:
136,136,117368,2,0,L|24:136,2,106.25,0|8|0,0:0|0:0|0:0,0:0:0:0:
184,232,117818,2,0,B|104:232|104:232|72:296|104:360,1,212.5,0|8,0:0|0:0,0:0:0:0:
208,336,118268,1,0,0:0:0:0:
288,264,118418,2,0,P|384:240|480:304,1,212.5,0|8,0:0|0:0,0:0:0:0:
496,192,118868,1,0,0:0:0:0:
496,192,119018,2,0,L|384:144,1,106.25,0|0,0:0|0:0,0:0:0:0:
256,80,119318,5,0,0:0:0:0:
256,80,119468,1,2,0:0:0:0:
144,192,119768,1,2,0:0:0:0:
368,192,120068,2,0,P|424:184|480:192,2,106.25,0|2|0,0:0|0:0|0:0,0:0:0:0:
256,304,120668,5,2,0:0:0:0:
256,80,120968,1,2,0:0:0:0:
176,216,121118,1,0,0:0:0:0:
336,216,121268,1,4,0:0:0:0:
