osu file format v14

[General]
AudioFilename: 06 Tephereth.mp3
AudioLeadIn: 0
PreviewTime: 20733
Countdown: 0
SampleSet: Normal
StackLeniency: 0.7
Mode: 1
LetterboxInBreaks: 0
WidescreenStoryboard: 0

[Editor]
DistanceSpacing: 0.8
BeatDivisor: 4
GridSize: 4
TimelineZoom: 1.700001

[Metadata]
Title:Tephereth
TitleUnicode:Tephereth
Artist:An
ArtistUnicode:An
Creator:SKSalt
Version:Muzukashii
Source:
Tags:Xephiratone AcuticNotes せんざい sennzai
BeatmapID:831003
BeatmapSetID:364132

[Difficulty]
HPDrainRate:5
CircleSize:5
OverallDifficulty:5
ApproachRate:5
SliderMultiplier:1.4
SliderTickRate:1

[Events]
//Background and Video events
0,0,"TepherethBG.jpg",0,0
//Break Periods
//Storyboard Layer 0 (Background)
//Storyboard Layer 1 (Fail)
//Storyboard Layer 2 (Pass)
//Storyboard Layer 3 (Foreground)
//Storyboard Sound Samples

[TimingPoints]
1257,314.13612565445,4,1,0,80,1,0
31256,-100,4,1,0,80,0,1
41466,-100,4,1,0,80,0,0
61571,-100,4,1,0,80,0,1
81675,-100,4,1,0,80,0,0
100524,314.13612565445,6,1,0,80,1,0
102408,314.13612565445,4,1,0,80,1,1
112303,-100,4,1,0,80,0,0
122355,-100,4,1,0,80,0,1
132093,-100,4,1,0,80,0,0

[HitObjects]
160,144,11309,5,0,0:0:0:0:
220,232,11780,1,0,0:0:0:0:
220,232,11937,1,2,0:0:0:0:
408,320,12722,1,0,0:0:0:0:
408,320,12880,1,0,0:0:0:0:
212,244,13194,1,2,0:0:0:0:
252,216,13822,1,0,0:0:0:0:
308,200,14293,1,0,0:0:0:0:
144,196,14450,1,2,0:0:0:0:
228,192,15236,1,0,0:0:0:0:
228,192,15393,1,0,0:0:0:0:
228,192,15707,1,2,0:0:0:0:
160,180,16335,1,0,0:0:0:0:
168,180,16806,1,0,0:0:0:0:
172,80,16963,1,2,0:0:0:0:
352,172,17749,1,0,0:0:0:0:
380,328,17906,1,0,0:0:0:0:
288,264,18220,1,2,0:0:0:0:
256,192,18848,12,0,20576,0:0:0:0:
348,128,20733,5,2,0:0:0:0:
200,192,21204,1,0,0:0:0:0:
168,188,21518,1,0,0:0:0:0:
168,188,21675,1,2,0:0:0:0:
328,208,21989,1,2,0:0:0:0:
420,240,22461,1,0,0:0:0:0:
204,168,22775,1,0,0:0:0:0:
204,168,22932,1,2,0:0:0:0:
316,216,23246,1,2,0:0:0:0:
136,200,23403,1,0,0:0:0:0:
236,188,23717,1,2,0:0:0:0:
236,188,24031,1,0,0:0:0:0:
236,188,24188,1,0,0:0:0:0:
176,208,24503,1,2,0:0:0:0:
192,248,24817,1,0,0:0:0:0:
192,248,24974,1,2,0:0:0:0:
192,208,25288,1,0,0:0:0:0:
288,244,25445,1,2,0:0:0:0:
252,200,25759,1,2,0:0:0:0:
260,208,26230,1,0,0:0:0:0:
200,216,26544,1,0,0:0:0:0:
200,216,26702,1,2,0:0:0:0:
280,188,27016,1,2,0:0:0:0:
188,200,27330,1,0,0:0:0:0:
208,160,27487,1,2,0:0:0:0:
160,176,27801,1,0,0:0:0:0:
160,152,27958,1,2,0:0:0:0:
160,184,28272,1,2,0:0:0:0:
248,212,28586,1,0,0:0:0:0:
172,168,28900,1,0,0:0:0:0:
292,200,29215,1,0,0:0:0:0:
240,208,29372,1,0,0:0:0:0:
224,148,29529,1,2,0:0:0:0:
232,232,29843,1,0,0:0:0:0:
232,232,30000,1,2,0:0:0:0:
240,256,30314,1,0,0:0:0:0:
276,236,30471,1,0,0:0:0:0:
276,236,30785,1,2,0:0:0:0:
168,168,31256,1,2,0:0:0:0:
128,148,31571,1,0,0:0:0:0:
132,136,31728,1,2,0:0:0:0:
192,204,31885,1,0,0:0:0:0:
192,188,32042,1,0,0:0:0:0:
192,160,32199,1,2,0:0:0:0:
304,244,32513,1,2,0:0:0:0:
200,188,32827,1,0,0:0:0:0:
192,176,32984,1,2,0:0:0:0:
200,184,33141,1,0,0:0:0:0:
204,192,33298,1,0,0:0:0:0:
228,188,33455,1,2,0:0:0:0:
208,216,33613,1,0,0:0:0:0:
256,184,33770,1,2,0:0:0:0:
224,200,34084,1,0,0:0:0:0:
216,200,34241,1,2,0:0:0:0:
212,172,34398,1,0,0:0:0:0:
276,268,34555,1,2,0:0:0:0:
132,116,34633,1,2,0:0:0:0:
284,160,34712,1,2,0:0:0:0:
324,208,34869,1,2,0:0:0:0:
256,208,35026,1,0,0:0:0:0:
192,192,35340,1,0,0:0:0:0:
200,56,35497,1,2,0:0:0:0:
216,200,35654,1,0,0:0:0:0:
296,200,35811,1,0,0:0:0:0:
296,200,35969,1,2,0:0:0:0:
240,152,36283,1,0,0:0:0:0:
196,168,36597,1,0,0:0:0:0:
184,144,36754,1,2,0:0:0:0:
200,248,36911,1,0,0:0:0:0:
204,228,37068,1,0,0:0:0:0:
204,228,37225,1,2,0:0:0:0:
336,168,37539,1,2,0:0:0:0:
180,184,37853,1,0,0:0:0:0:
180,184,38010,1,2,0:0:0:0:
212,224,38167,1,0,0:0:0:0:
244,188,38325,1,0,0:0:0:0:
240,180,38482,1,2,0:0:0:0:
240,180,38639,1,2,0:0:0:0:
276,164,38796,1,0,0:0:0:0:
264,196,39110,1,0,0:0:0:0:
264,196,39267,1,2,0:0:0:0:
264,196,39424,1,0,0:0:0:0:
264,196,39581,1,0,0:0:0:0:
264,196,39738,1,2,0:0:0:0:
160,192,40052,1,0,0:0:0:0:
176,156,40524,1,2,0:0:0:0:
172,152,40838,1,2,0:0:0:0:
240,144,41466,1,0,0:0:0:0:
248,152,41780,1,0,0:0:0:0:
248,152,42094,1,0,0:0:0:0:
248,152,42408,1,0,0:0:0:0:
180,164,42565,1,2,0:0:0:0:
240,144,42722,1,0,0:0:0:0:
248,152,43037,1,0,0:0:0:0:
248,152,43351,1,0,0:0:0:0:
280,168,43508,1,2,0:0:0:0:
248,152,43665,1,0,0:0:0:0:
392,216,43822,1,2,0:0:0:0:
240,144,43979,1,0,0:0:0:0:
248,152,44293,1,0,0:0:0:0:
248,152,44607,1,0,0:0:0:0:
248,152,44921,1,0,0:0:0:0:
244,184,45078,1,2,0:0:0:0:
240,144,45236,1,0,0:0:0:0:
248,152,45550,1,0,0:0:0:0:
164,188,45707,1,2,0:0:0:0:
224,184,46021,1,0,0:0:0:0:
244,260,46335,1,2,0:0:0:0:
240,144,46492,1,0,0:0:0:0:
248,152,46806,1,0,0:0:0:0:
248,152,47120,1,0,0:0:0:0:
248,152,47435,1,0,0:0:0:0:
224,148,47592,1,2,0:0:0:0:
240,144,47749,1,0,0:0:0:0:
248,152,48063,1,0,0:0:0:0:
248,152,48377,1,0,0:0:0:0:
248,152,48691,1,0,0:0:0:0:
152,148,48848,1,2,0:0:0:0:
240,144,49005,1,0,0:0:0:0:
248,152,49319,1,0,0:0:0:0:
248,152,49633,1,2,0:0:0:0:
248,152,49948,1,0,0:0:0:0:
428,160,50105,1,2,0:0:0:0:
312,208,50262,1,0,0:0:0:0:
308,180,50419,1,0,0:0:0:0:
304,164,50576,1,2,0:0:0:0:
272,212,51047,1,0,0:0:0:0:
272,212,51204,1,2,0:0:0:0:
136,200,51361,1,0,0:0:0:0:
252,204,51675,1,0,0:0:0:0:
252,200,51832,1,2,0:0:0:0:
312,160,52304,1,0,0:0:0:0:
312,160,52461,1,2,0:0:0:0:
188,212,52775,1,0,0:0:0:0:
188,212,53089,1,2,0:0:0:0:
176,136,53246,1,0,0:0:0:0:
184,176,53403,1,0,0:0:0:0:
184,176,53482,1,0,0:0:0:0:
184,176,53560,1,0,0:0:0:0:
184,176,53717,1,2,0:0:0:0:
184,176,54031,1,0,0:0:0:0:
268,232,54188,1,0,0:0:0:0:
268,232,54346,1,2,0:0:0:0:
104,164,54817,1,0,0:0:0:0:
104,164,54974,1,2,0:0:0:0:
148,200,55288,1,0,0:0:0:0:
184,192,55602,1,2,0:0:0:0:
184,192,55759,1,0,0:0:0:0:
160,188,55916,1,2,0:0:0:0:
160,188,55995,1,2,0:0:0:0:
160,188,56073,1,2,0:0:0:0:
160,188,56230,1,2,0:0:0:0:
160,188,56544,1,0,0:0:0:0:
200,152,56702,1,0,0:0:0:0:
200,152,56859,1,2,0:0:0:0:
200,152,57330,1,0,0:0:0:0:
196,144,57487,1,2,0:0:0:0:
260,160,57801,1,0,0:0:0:0:
260,160,58115,1,2,0:0:0:0:
260,160,58272,1,0,0:0:0:0:
256,156,58586,1,0,0:0:0:0:
204,192,58743,1,2,0:0:0:0:
224,208,59058,1,0,0:0:0:0:
204,192,59215,1,0,0:0:0:0:
224,208,59372,1,2,0:0:0:0:
332,236,59843,1,0,0:0:0:0:
304,212,60000,1,2,0:0:0:0:
256,192,60314,12,0,61414,0:0:0:0:
144,192,61571,5,2,0:0:0:0:
136,168,61885,1,0,0:0:0:0:
192,184,62042,1,0,0:0:0:0:
216,156,62199,1,2,0:0:0:0:
216,156,62513,1,0,0:0:0:0:
256,184,62670,1,0,0:0:0:0:
316,308,62827,1,2,0:0:0:0:
164,144,62984,1,2,0:0:0:0:
244,236,63141,1,0,0:0:0:0:
172,180,63455,1,2,0:0:0:0:
416,224,63770,1,0,0:0:0:0:
256,236,63927,1,0,0:0:0:0:
348,192,64084,1,2,0:0:0:0:
288,144,64398,1,0,0:0:0:0:
228,216,64555,1,0,0:0:0:0:
172,144,64712,1,2,0:0:0:0:
232,200,64869,1,0,0:0:0:0:
196,184,64948,1,0,0:0:0:0:
196,184,65026,1,0,0:0:0:0:
228,176,65183,1,2,0:0:0:0:
200,112,65340,1,0,0:0:0:0:
120,148,65654,1,2,0:0:0:0:
276,204,65811,1,0,0:0:0:0:
276,204,65969,1,2,0:0:0:0:
248,152,66283,1,0,0:0:0:0:
180,168,66440,1,2,0:0:0:0:
208,184,66597,1,0,0:0:0:0:
200,164,66911,1,0,0:0:0:0:
152,168,67068,1,0,0:0:0:0:
152,168,67225,1,2,0:0:0:0:
56,168,67382,1,0,0:0:0:0:
80,164,67461,1,0,0:0:0:0:
84,156,67539,1,0,0:0:0:0:
84,156,67696,1,2,0:0:0:0:
348,216,68010,1,0,0:0:0:0:
252,200,68167,1,2,0:0:0:0:
248,196,68325,1,0,0:0:0:0:
244,176,68482,1,2,0:0:0:0:
208,184,68796,1,0,0:0:0:0:
180,140,69110,1,0,0:0:0:0:
172,124,69424,1,0,0:0:0:0:
156,128,69581,1,0,0:0:0:0:
144,128,69738,1,2,0:0:0:0:
140,136,70052,1,2,0:0:0:0:
144,132,70209,1,2,0:0:0:0:
124,184,70366,1,0,0:0:0:0:
320,292,70681,1,0,0:0:0:0:
164,184,70838,1,0,0:0:0:0:
228,192,70995,1,2,0:0:0:0:
88,172,71623,1,2,0:0:0:0:
224,132,71937,1,2,0:0:0:0:
412,172,72094,1,0,0:0:0:0:
52,124,72251,1,2,0:0:0:0:
116,148,72565,1,0,0:0:0:0:
104,184,72722,1,0,0:0:0:0:
152,160,72880,1,2,0:0:0:0:
316,268,73194,1,0,0:0:0:0:
248,204,73351,1,0,0:0:0:0:
116,184,73508,1,2,0:0:0:0:
116,184,73586,1,2,0:0:0:0:
116,168,73665,1,2,0:0:0:0:
116,164,73822,1,0,0:0:0:0:
228,160,74136,1,2,0:0:0:0:
200,152,74450,1,0,0:0:0:0:
200,152,74607,1,0,0:0:0:0:
200,152,74764,1,2,0:0:0:0:
304,220,74921,1,0,0:0:0:0:
240,164,75000,1,0,0:0:0:0:
240,164,75078,1,0,0:0:0:0:
312,172,75236,1,2,0:0:0:0:
132,164,75393,1,0,0:0:0:0:
132,164,75707,1,2,0:0:0:0:
156,160,75864,1,0,0:0:0:0:
212,232,76021,1,2,0:0:0:0:
300,184,76335,1,0,0:0:0:0:
300,184,76492,1,2,0:0:0:0:
200,168,76649,1,0,0:0:0:0:
188,168,76963,1,0,0:0:0:0:
168,164,77120,1,0,0:0:0:0:
168,164,77277,1,2,0:0:0:0:
204,184,77435,1,0,0:0:0:0:
152,144,77513,1,0,0:0:0:0:
88,192,77592,1,0,0:0:0:0:
136,176,77749,1,2,0:0:0:0:
236,176,78063,1,2,0:0:0:0:
236,176,78220,1,0,0:0:0:0:
236,176,78377,1,0,0:0:0:0:
236,176,78534,1,2,0:0:0:0:
192,164,78848,1,0,0:0:0:0:
192,164,79005,1,2,0:0:0:0:
248,176,79162,1,0,0:0:0:0:
232,168,79476,1,2,0:0:0:0:
236,168,79633,1,0,0:0:0:0:
232,168,79791,1,2,0:0:0:0:
184,200,79948,1,0,0:0:0:0:
232,168,80105,1,2,0:0:0:0:
216,176,80183,1,2,0:0:0:0:
72,156,80262,1,2,0:0:0:0:
72,156,80419,1,0,0:0:0:0:
232,160,80733,1,0,0:0:0:0:
204,160,80890,1,0,0:0:0:0:
204,160,81047,1,2,0:0:0:0:
80,148,81361,1,2,0:0:0:0:
96,152,81518,1,0,0:0:0:0:
140,156,81675,1,2,0:0:0:0:
284,168,82461,1,2,0:0:0:0:
276,168,82775,1,2,0:0:0:0:
276,168,82932,1,0,0:0:0:0:
208,144,83560,1,0,0:0:0:0:
276,208,84031,1,0,0:0:0:0:
264,204,84188,1,2,0:0:0:0:
236,156,84817,1,0,0:0:0:0:
224,208,85445,1,2,0:0:0:0:
208,120,85759,1,0,0:0:0:0:
196,132,86073,1,0,0:0:0:0:
256,188,86544,1,0,0:0:0:0:
256,188,86702,1,2,0:0:0:0:
244,204,87644,1,2,0:0:0:0:
236,192,87958,1,0,0:0:0:0:
260,204,88429,1,2,0:0:0:0:
280,188,88900,1,2,0:0:0:0:
288,188,89215,1,2,0:0:0:0:
396,200,89529,1,0,0:0:0:0:
284,176,90157,1,2,0:0:0:0:
284,176,90471,1,2,0:0:0:0:
408,228,90785,5,0,0:0:0:0:
312,196,91099,1,2,0:0:0:0:
480,176,91571,1,2,0:0:0:0:
244,164,91728,1,0,0:0:0:0:
336,208,92042,1,0,0:0:0:0:
376,196,92356,1,2,0:0:0:0:
256,164,92827,1,0,0:0:0:0:
128,224,93298,1,0,0:0:0:0:
248,164,93613,1,2,0:0:0:0:
300,188,93927,1,0,0:0:0:0:
284,188,94084,1,2,0:0:0:0:
288,212,94241,1,0,0:0:0:0:
344,276,94555,1,0,0:0:0:0:
344,276,94869,1,2,0:0:0:0:
144,168,95340,1,0,0:0:0:0:
152,168,95654,1,0,0:0:0:0:
136,216,95811,1,0,0:0:0:0:
144,168,96126,1,2,0:0:0:0:
300,144,96440,1,2,0:0:0:0:
104,148,96754,1,0,0:0:0:0:
12,156,97068,1,0,0:0:0:0:
148,216,97382,1,2,0:0:0:0:
280,236,97853,1,0,0:0:0:0:
280,236,98167,1,0,0:0:0:0:
280,244,98325,1,0,0:0:0:0:
280,244,98639,1,2,0:0:0:0:
104,168,98953,1,0,0:0:0:0:
120,140,99110,1,0,0:0:0:0:
176,192,99267,1,2,0:0:0:0:
288,204,99738,1,0,0:0:0:0:
176,188,100052,1,0,0:0:0:0:
312,236,100209,5,2,0:0:0:0:
332,280,100524,1,0,0:0:0:0:
236,176,101937,5,2,0:0:0:0:
228,176,102094,5,2,0:0:0:0:
220,176,102173,1,2,0:0:0:0:
220,176,102251,1,2,0:0:0:0:
248,144,102408,1,0,0:0:0:0:
208,208,102565,1,0,0:0:0:0:
180,200,102722,1,0,0:0:0:0:
248,144,102879,1,2,0:0:0:0:
200,164,103193,1,0,0:0:0:0:
248,144,103350,1,2,0:0:0:0:
300,216,103507,1,0,0:0:0:0:
472,268,103586,1,0,0:0:0:0:
240,132,103664,1,0,0:0:0:0:
248,144,103821,1,2,0:0:0:0:
248,144,104135,1,2,0:0:0:0:
168,208,104292,1,0,0:0:0:0:
248,144,104449,1,2,0:0:0:0:
248,144,104921,1,0,0:0:0:0:
208,208,105078,1,0,0:0:0:0:
180,200,105235,1,0,0:0:0:0:
248,144,105392,1,2,0:0:0:0:
200,164,105706,1,0,0:0:0:0:
248,144,105863,1,2,0:0:0:0:
300,216,106020,1,0,0:0:0:0:
300,164,106099,1,0,0:0:0:0:
240,132,106177,1,0,0:0:0:0:
248,144,106334,1,2,0:0:0:0:
248,144,106648,1,2,0:0:0:0:
168,208,106805,1,0,0:0:0:0:
248,144,106962,1,2,0:0:0:0:
248,144,107434,1,0,0:0:0:0:
240,164,107591,1,0,0:0:0:0:
316,188,107748,1,2,0:0:0:0:
248,144,107905,1,2,0:0:0:0:
272,188,108062,1,0,0:0:0:0:
220,160,108140,1,0,0:0:0:0:
112,204,108219,1,0,0:0:0:0:
248,144,108376,1,2,0:0:0:0:
288,160,108690,1,0,0:0:0:0:
248,144,108847,1,2,0:0:0:0:
172,204,108926,1,2,0:0:0:0:
156,184,109004,1,2,0:0:0:0:
248,144,109161,1,0,0:0:0:0:
248,144,109476,1,0,0:0:0:0:
288,176,109633,1,2,0:0:0:0:
248,144,109947,1,0,0:0:0:0:
240,164,110104,1,0,0:0:0:0:
316,188,110261,1,2,0:0:0:0:
248,144,110418,1,2,0:0:0:0:
272,188,110575,1,0,0:0:0:0:
220,160,110654,1,0,0:0:0:0:
112,204,110732,1,0,0:0:0:0:
248,144,110889,1,2,0:0:0:0:
288,160,111203,1,0,0:0:0:0:
248,144,111360,1,2,0:0:0:0:
372,224,111675,1,2,0:0:0:0:
220,212,111832,1,0,0:0:0:0:
400,216,111989,1,0,0:0:0:0:
288,176,112146,1,2,0:0:0:0:
208,152,112303,1,2,0:0:0:0:
232,192,112617,1,0,0:0:0:0:
228,192,112774,1,2,0:0:0:0:
220,184,114031,1,2,0:0:0:0:
280,188,114345,1,2,0:0:0:0:
344,264,114816,1,0,0:0:0:0:
220,208,115130,1,0,0:0:0:0:
216,208,115287,1,2,0:0:0:0:
92,160,115601,1,2,0:0:0:0:
308,176,116072,1,2,0:0:0:0:
356,240,116387,1,0,0:0:0:0:
280,184,116544,1,2,0:0:0:0:
300,168,116858,1,2,0:0:0:0:
300,168,117015,1,0,0:0:0:0:
168,184,117172,1,0,0:0:0:0:
176,184,117329,1,2,0:0:0:0:
124,184,117643,1,0,0:0:0:0:
140,184,117800,1,2,0:0:0:0:
168,176,118271,1,0,0:0:0:0:
176,180,118586,1,2,0:0:0:0:
176,180,118900,1,0,0:0:0:0:
196,120,119057,1,2,0:0:0:0:
228,164,119685,1,2,0:0:0:0:
92,164,119999,1,0,0:0:0:0:
184,176,122041,1,2,0:0:0:0:
180,148,122120,1,2,0:0:0:0:
208,264,122198,5,2,0:0:0:0:
168,168,122355,1,0,0:0:0:0:
128,148,122669,1,0,0:0:0:0:
132,136,122826,1,2,0:0:0:0:
448,192,122983,1,0,0:0:0:0:
192,188,123140,1,0,0:0:0:0:
192,160,123298,1,2,0:0:0:0:
304,244,123612,1,2,0:0:0:0:
200,188,123926,1,0,0:0:0:0:
192,176,124083,1,2,0:0:0:0:
200,184,124240,1,0,0:0:0:0:
204,192,124397,1,0,0:0:0:0:
228,188,124554,1,2,0:0:0:0:
284,228,124711,1,0,0:0:0:0:
256,184,124868,1,2,0:0:0:0:
224,200,125182,1,0,0:0:0:0:
216,200,125339,1,2,0:0:0:0:
212,172,125497,1,0,0:0:0:0:
172,56,125654,1,0,0:0:0:0:
228,220,125811,1,2,0:0:0:0:
328,280,125968,1,2,0:0:0:0:
256,208,126125,1,0,0:0:0:0:
192,192,126439,1,0,0:0:0:0:
200,56,126596,1,2,0:0:0:0:
144,204,126753,1,0,0:0:0:0:
296,200,126910,1,0,0:0:0:0:
296,200,127067,1,2,0:0:0:0:
240,152,127381,1,0,0:0:0:0:
196,168,127695,1,0,0:0:0:0:
184,144,127853,1,2,0:0:0:0:
252,216,128010,1,0,0:0:0:0:
204,228,128167,1,0,0:0:0:0:
204,228,128324,1,2,0:0:0:0:
336,168,128638,1,2,0:0:0:0:
180,184,128952,1,0,0:0:0:0:
180,184,129109,1,2,0:0:0:0:
212,224,129266,1,0,0:0:0:0:
244,188,129423,1,0,0:0:0:0:
240,180,129580,1,2,0:0:0:0:
240,180,129737,1,2,0:0:0:0:
276,164,129894,1,0,0:0:0:0:
264,196,130209,1,0,0:0:0:0:
264,196,130366,1,2,0:0:0:0:
264,196,130523,1,0,0:0:0:0:
264,196,130680,1,0,0:0:0:0:
264,196,130837,1,2,0:0:0:0:
160,192,131151,1,0,0:0:0:0:
176,156,131622,1,2,0:0:0:0:
136,176,132093,1,0,0:0:0:0:
164,52,132250,1,2,0:0:0:0:
136,176,132407,1,2,0:0:0:0:
36,136,132565,1,0,0:0:0:0:
432,212,133350,1,2,0:0:0:0:
304,204,133664,1,2,0:0:0:0:
304,204,133821,1,0,0:0:0:0:
120,172,134449,1,0,0:0:0:0:
128,176,135078,1,2,0:0:0:0:
204,160,135706,1,0,0:0:0:0:
236,160,136334,1,2,0:0:0:0:
236,160,136648,1,0,0:0:0:0:
312,224,136962,1,2,0:0:0:0:
280,188,137120,1,0,0:0:0:0:
280,188,137434,1,0,0:0:0:0:
280,188,137591,1,2,0:0:0:0:
176,152,138533,1,0,0:0:0:0:
176,152,138847,1,0,0:0:0:0:
124,152,139318,1,2,0:0:0:0:
232,148,140104,1,0,0:0:0:0:
200,184,140418,1,2,0:0:0:0:
212,160,141046,1,0,0:0:0:0:
216,160,141360,1,2,0:0:0:0:
216,160,141675,1,0,0:0:0:0:
272,188,141989,1,2,0:0:0:0:
268,184,142146,1,0,0:0:0:0:
200,168,142460,1,2,0:0:0:0:
296,224,142774,1,0,0:0:0:0:
236,160,142931,1,2,0:0:0:0:
192,164,143559,1,2,0:0:0:0:
248,220,143873,1,0,0:0:0:0:
252,192,144188,1,2,0:0:0:0:
252,192,144345,1,0,0:0:0:0:
252,192,144659,1,2,0:0:0:0:
272,216,144973,1,2,0:0:0:0:
244,208,145130,1,0,0:0:0:0:
464,248,145601,1,2,0:0:0:0:
264,184,146072,1,0,0:0:0:0:
60,168,147329,1,0,0:0:0:0:
104,168,147643,1,2,0:0:0:0:
160,184,147957,1,0,0:0:0:0:
152,180,148114,1,2,0:0:0:0:
208,176,148428,1,0,0:0:0:0:
208,176,148586,1,2,0:0:0:0:
332,224,148900,1,2,0:0:0:0:
280,212,149214,1,0,0:0:0:0:
88,152,149528,1,2,0:0:0:0:
244,228,149685,1,2,0:0:0:0:
88,152,149842,1,0,0:0:0:0:
248,176,150156,1,2,0:0:0:0:
280,212,150470,1,0,0:0:0:0:
216,216,150784,1,2,0:0:0:0:
216,216,150942,1,0,0:0:0:0:
280,184,151256,1,0,0:0:0:0:
268,180,151570,1,2,0:0:0:0:
184,184,151727,1,0,0:0:0:0:
368,280,152041,1,0,0:0:0:0:
140,176,152512,1,2,0:0:0:0:
160,144,152826,1,0,0:0:0:0:
160,144,152983,1,2,0:0:0:0:
