osu file format v14

[General]
AudioFilename: 06 Tephereth.mp3
AudioLeadIn: 0
PreviewTime: 20733
Countdown: 0
SampleSet: Normal
StackLeniency: 0.7
Mode: 1
LetterboxInBreaks: 0
WidescreenStoryboard: 0

[Editor]
DistanceSpacing: 0.8
BeatDivisor: 4
GridSize: 4
TimelineZoom: 1.000001

[Metadata]
Title:Tephereth
TitleUnicode:Tephereth
Artist:An
ArtistUnicode:An
Creator:SKSalt
Version:Kantan
Source:
Tags:Xephiratone AcuticNotes せんざい sennzai
BeatmapID:831002
BeatmapSetID:364132

[Difficulty]
HPDrainRate:7
CircleSize:5
OverallDifficulty:3
ApproachRate:5
SliderMultiplier:1.2
SliderTickRate:1

[Events]
//Background and Video events
0,0,"TepherethBG.jpg",0,0
//Break Periods
//Storyboard Layer 0 (Background)
//Storyboard Layer 1 (Fail)
//Storyboard Layer 2 (Pass)
//Storyboard Layer 3 (Foreground)
//Storyboard Sound Samples

[TimingPoints]
1257,314.13612565445,4,1,0,80,1,0
31256,-100,4,1,0,80,0,1
41466,-100,4,1,0,80,0,0
61571,-100,4,1,0,80,0,1
81675,-100,4,1,0,80,0,0
100524,314.13612565445,6,1,0,80,1,0
102408,314.13612565445,4,1,0,80,1,1
112303,-100,4,1,0,80,0,0
122355,-100,4,1,0,80,0,1
132093,-100,4,1,0,80,0,0

[HitObjects]
160,144,11309,5,0,0:0:0:0:
220,232,11937,1,2,0:0:0:0:
212,244,13194,1,2,0:0:0:0:
252,216,13822,1,0,0:0:0:0:
144,196,14450,1,2,0:0:0:0:
228,192,15393,1,0,0:0:0:0:
228,192,15707,1,2,0:0:0:0:
160,180,16335,1,0,0:0:0:0:
172,80,16963,1,2,0:0:0:0:
288,264,18220,1,2,0:0:0:0:
256,192,18848,12,0,20105,0:0:0:0:
348,128,20733,5,2,0:0:0:0:
200,192,21204,1,0,0:0:0:0:
328,208,21989,1,2,0:0:0:0:
420,240,22461,1,0,0:0:0:0:
316,216,23246,1,2,0:0:0:0:
236,188,24188,1,0,0:0:0:0:
176,208,24503,1,2,0:0:0:0:
288,244,25445,1,0,0:0:0:0:
252,200,25759,1,2,0:0:0:0:
260,208,26230,1,0,0:0:0:0:
280,188,27016,1,2,0:0:0:0:
208,160,27487,1,0,0:0:0:0:
160,184,28272,1,2,0:0:0:0:
172,168,28900,1,0,0:0:0:0:
224,148,29529,1,2,0:0:0:0:
152,180,30785,1,2,0:0:0:0:
168,168,31256,1,0,0:0:0:0:
132,136,31728,1,2,0:0:0:0:
304,244,32513,1,0,0:0:0:0:
192,176,32984,1,2,0:0:0:0:
256,184,33770,1,0,0:0:0:0:
216,200,34241,1,2,0:0:0:0:
276,268,34555,1,2,0:0:0:0:
256,208,35026,1,0,0:0:0:0:
240,152,36283,1,0,0:0:0:0:
184,144,36754,1,2,0:0:0:0:
180,184,37539,1,0,0:0:0:0:
180,184,38010,1,2,0:0:0:0:
276,164,38796,1,0,0:0:0:0:
264,196,39267,1,2,0:0:0:0:
160,192,40052,1,0,0:0:0:0:
240,144,41466,1,0,0:0:0:0:
240,144,42722,1,0,0:0:0:0:
248,152,43351,1,2,0:0:0:0:
240,144,43979,1,0,0:0:0:0:
240,144,45236,1,0,0:0:0:0:
248,152,45864,1,2,0:0:0:0:
240,144,46492,1,0,0:0:0:0:
240,144,47749,1,0,0:0:0:0:
240,144,49005,1,0,0:0:0:0:
248,152,49633,1,2,0:0:0:0:
312,208,50262,1,0,0:0:0:0:
304,164,50576,1,2,0:0:0:0:
252,204,51518,1,0,0:0:0:0:
252,200,51832,1,2,0:0:0:0:
312,160,52461,1,2,0:0:0:0:
188,212,53089,1,2,0:0:0:0:
184,176,54031,1,0,0:0:0:0:
268,232,54346,1,2,0:0:0:0:
104,164,54974,1,0,0:0:0:0:
184,192,55602,1,2,0:0:0:0:
160,188,56544,1,0,0:0:0:0:
200,152,56859,1,2,0:0:0:0:
260,160,57487,1,2,0:0:0:0:
240,260,58115,1,0,0:0:0:0:
184,212,58743,1,2,0:0:0:0:
256,192,59058,12,0,60942,0:0:0:0:
144,192,61571,5,2,0:0:0:0:
216,156,62199,1,2,0:0:0:0:
316,308,62827,1,0,0:0:0:0:
244,236,63141,1,0,0:0:0:0:
172,180,63455,1,2,0:0:0:0:
348,192,64084,1,0,0:0:0:0:
172,144,64712,1,2,0:0:0:0:
200,112,65340,1,0,0:0:0:0:
120,148,65654,1,2,0:0:0:0:
276,204,65969,1,2,0:0:0:0:
208,184,66597,1,0,0:0:0:0:
152,168,67225,1,2,0:0:0:0:
224,188,67853,1,2,0:0:0:0:
248,196,68167,1,0,0:0:0:0:
244,176,68482,1,2,0:0:0:0:
180,140,69110,1,0,0:0:0:0:
144,128,69738,1,2,0:0:0:0:
140,136,70052,1,2,0:0:0:0:
124,184,70366,1,0,0:0:0:0:
88,172,71623,1,2,0:0:0:0:
52,124,72251,1,2,0:0:0:0:
152,160,72880,1,2,0:0:0:0:
316,268,73194,1,0,0:0:0:0:
116,184,73508,1,2,0:0:0:0:
228,160,74136,1,0,0:0:0:0:
200,152,74764,1,2,0:0:0:0:
132,164,75393,1,0,0:0:0:0:
132,164,75707,1,2,0:0:0:0:
212,232,76021,1,2,0:0:0:0:
200,168,76649,1,0,0:0:0:0:
168,164,77277,1,2,0:0:0:0:
88,192,77906,1,0,0:0:0:0:
236,176,78220,1,0,0:0:0:0:
236,176,78534,1,2,0:0:0:0:
248,176,79162,1,0,0:0:0:0:
232,168,79791,1,2,0:0:0:0:
232,168,80105,1,2,0:0:0:0:
72,156,80419,1,0,0:0:0:0:
140,156,81675,1,2,0:0:0:0:
168,180,84188,1,0,0:0:0:0:
288,212,85445,1,2,0:0:0:0:
288,212,86702,1,2,0:0:0:0:
288,212,89215,1,0,0:0:0:0:
288,212,90471,5,0,0:0:0:0:
244,164,91728,5,0,0:0:0:0:
376,196,92356,1,2,0:0:0:0:
128,224,93298,1,0,0:0:0:0:
248,164,93613,1,2,0:0:0:0:
288,212,94241,1,0,0:0:0:0:
344,276,94869,1,2,0:0:0:0:
136,216,95811,1,0,0:0:0:0:
144,168,96126,1,2,0:0:0:0:
104,148,96754,1,0,0:0:0:0:
148,216,97382,1,2,0:0:0:0:
280,244,98325,1,0,0:0:0:0:
280,244,98639,1,2,0:0:0:0:
176,192,99267,1,2,0:0:0:0:
312,236,100209,5,2,0:0:0:0:
332,280,100524,1,0,0:0:0:0:
248,144,102408,1,0,0:0:0:0:
248,144,102879,1,2,0:0:0:0:
192,176,103350,1,0,0:0:0:0:
248,144,103821,1,2,0:0:0:0:
248,144,104921,1,0,0:0:0:0:
248,144,105392,1,2,0:0:0:0:
192,176,105863,1,0,0:0:0:0:
248,144,106334,1,2,0:0:0:0:
172,156,107434,1,0,0:0:0:0:
316,188,107748,1,2,0:0:0:0:
248,144,108376,1,2,0:0:0:0:
156,184,109004,1,2,0:0:0:0:
248,144,109318,1,0,0:0:0:0:
288,176,109633,1,2,0:0:0:0:
172,156,109947,1,0,0:0:0:0:
316,188,110261,1,2,0:0:0:0:
248,144,110889,1,2,0:0:0:0:
208,152,112303,1,2,0:0:0:0:
280,208,114973,1,2,0:0:0:0:
280,208,116229,1,0,0:0:0:0:
280,208,117486,1,0,0:0:0:0:
244,212,119999,1,2,0:0:0:0:
168,168,122355,1,0,0:0:0:0:
132,136,122826,1,2,0:0:0:0:
304,244,123612,1,0,0:0:0:0:
192,176,124083,1,2,0:0:0:0:
256,184,124868,1,0,0:0:0:0:
216,200,125339,1,2,0:0:0:0:
276,268,125654,1,2,0:0:0:0:
256,208,126125,1,0,0:0:0:0:
240,152,127381,1,0,0:0:0:0:
184,144,127853,1,2,0:0:0:0:
180,184,128638,1,0,0:0:0:0:
180,184,129109,1,2,0:0:0:0:
276,164,129894,1,0,0:0:0:0:
264,196,130366,1,2,0:0:0:0:
160,192,131151,1,0,0:0:0:0:
224,216,132250,1,2,0:0:0:0:
36,136,132565,1,0,0:0:0:0:
256,136,133821,1,0,0:0:0:0:
248,140,134449,1,0,0:0:0:0:
128,176,135078,1,2,0:0:0:0:
236,160,136334,1,0,0:0:0:0:
244,144,136962,1,2,0:0:0:0:
280,188,137591,1,0,0:0:0:0:
244,144,138847,1,0,0:0:0:0:
304,200,139790,1,0,0:0:0:0:
248,192,140104,1,2,0:0:0:0:
248,192,141360,1,0,0:0:0:0:
248,192,142617,1,2,0:0:0:0:
304,192,143873,1,0,0:0:0:0:
304,192,144502,1,0,0:0:0:0:
248,248,145130,1,2,0:0:0:0:
168,212,146387,1,0,0:0:0:0:
248,248,147643,1,0,0:0:0:0:
180,208,148271,1,0,0:0:0:0:
180,208,148900,1,2,0:0:0:0:
64,188,149528,1,0,0:0:0:0:
248,248,150156,1,2,0:0:0:0:
256,220,151413,1,0,0:0:0:0:
248,248,152669,1,2,0:0:0:0:
