osu file format v9

[General]
AudioFilename: ohgoddontdeleteme.mp3
AudioLeadIn: 0
PreviewTime: 72466
Countdown: 0
SampleSet: Soft
StackLeniency: 0.7
Mode: 0
LetterboxInBreaks: 0

[Editor]
DistanceSpacing: 1
BeatDivisor: 2
GridSize: 8

[Metadata]
Title:TearVid
Artist:An
Creator:Shiirn
Version:Easy
Source:BMS
Tags:artcore bms of fighters 2011 reku crimmiskye crimmi onosakihito

[Difficulty]
HPDrainRate:2
CircleSize:3
OverallDifficulty:2
ApproachRate:3
SliderMultiplier:1.02
SliderTickRate:2

[Events]
//Background and Video events
0,0,"tearVid.image.jpg"
Video,75,"imtooprettytodie.avi"
//Break Periods
2,62819,71025
//Storyboard Layer 0 (Background)
//Storyboard Layer 1 (Fail)
//Storyboard Layer 2 (Pass)
//Storyboard Layer 3 (Foreground)
//Storyboard Sound Samples
//Background Colour Transformations
3,100,163,162,255

[TimingPoints]
-149,615.384615384615,4,2,0,30,1,0
1081,615.384615384615,4,2,0,30,1,0
10927,307.692307692308,4,2,0,50,1,0
18312,-100,4,2,0,10,0,0
19543,-100,4,2,0,5,0,0
19851,-100,4,2,0,20,0,0
20158,-100,4,2,0,35,0,0
20466,-100,4,2,0,50,0,0
20774,-100,4,2,0,5,0,1
20927,-100,4,2,0,5,0,0
23235,-100,4,1,0,40,0,0
42927,-100,4,1,0,25,0,0
43027,-100,4,1,0,40,0,0
43543,-100,4,1,1,25,0,0
43643,-100,4,1,0,40,0,0
44158,-100,4,1,0,25,0,0
44258,-100,4,1,0,40,0,0
44774,-100,4,1,1,25,0,0
44874,-100,4,1,0,40,0,0
45389,-100,4,1,0,25,0,0
45489,-100,4,1,0,40,0,0
45696,-100,4,1,1,40,0,0
45796,-100,4,1,0,40,0,0
46004,-100,4,1,1,25,0,0
46104,-100,4,1,0,40,0,0
46620,-100,4,1,0,25,0,0
46720,-100,4,1,0,40,0,0
46927,-100,4,1,1,40,0,0
47027,-100,4,1,0,40,0,0
47235,-100,4,1,0,25,0,0
47335,-100,4,1,0,40,0,0
47851,-100,4,1,0,25,0,0
47951,-100,4,1,0,40,0,0
48157,-100,4,1,1,40,0,0
48257,-100,4,1,0,40,0,0
48466,-100,4,1,0,25,0,0
48566,-100,4,1,0,40,0,0
49081,-100,4,1,0,25,0,0
49181,-100,4,1,0,40,0,0
49388,-100,4,1,1,40,0,0
49488,-100,4,1,0,40,0,0
49697,-100,4,1,0,25,0,0
49797,-100,4,1,0,40,0,0
50312,-100,4,1,0,25,0,0
50412,-100,4,1,0,40,0,0
50927,-100,4,1,1,25,0,0
51027,-100,4,1,0,40,0,0
51543,-100,4,1,1,25,0,0
51643,-100,4,1,0,40,0,0
52158,-100,4,1,0,25,0,0
52258,-100,4,1,0,40,0,0
52774,-100,4,1,0,25,0,0
52874,-100,4,1,0,40,0,0
53080,-100,4,1,1,40,0,0
53180,-100,4,1,0,40,0,0
53389,-100,4,1,1,25,0,0
53489,-100,4,1,0,40,0,0
54004,-100,4,1,0,25,0,0
54104,-100,4,1,0,40,0,0
54312,-100,4,1,1,40,0,0
54412,-100,4,1,0,40,0,0
54620,-100,4,1,1,25,0,0
54720,-100,4,1,0,40,0,0
55235,-100,4,1,0,25,0,0
55335,-100,4,1,0,40,0,0
55543,-100,4,1,1,40,0,0
55643,-100,4,1,0,40,0,0
55851,-100,4,1,1,25,0,0
55951,-100,4,1,0,40,0,0
56466,-100,4,1,0,25,0,0
56566,-100,4,1,0,40,0,0
56773,-100,4,1,1,40,0,0
56873,-100,4,1,0,40,0,0
57081,-100,4,1,1,25,0,0
57181,-100,4,1,0,40,0,0
57388,-100,4,1,1,40,0,0
57697,-100,4,1,1,25,0,0
57797,-100,4,1,0,40,0,0
58003,-100,4,1,1,40,0,0
58157,-100,4,1,0,40,0,0
58312,-100,4,1,1,25,0,0
58412,-100,4,1,0,40,0,0
58927,-100,4,1,0,25,0,0
59027,-100,4,1,0,40,0,0
59234,-100,4,1,1,40,0,0
59334,-100,4,1,0,40,0,0
59543,-100,4,1,0,25,0,0
60258,-100,4,1,0,40,0,0
60774,-100,4,1,1,25,0,0
60874,-100,4,1,0,40,0,0
62004,-100,4,2,0,50,0,0
76158,-100,4,2,0,50,0,0
82158,-100,4,1,0,50,0,0
84004,-100,4,2,0,50,0,0
84620,-100,4,1,0,50,0,0
85235,-100,4,2,0,50,0,0
85851,-100,4,1,0,50,0,0
86774,-100,4,2,0,50,0,0
86874,-100,4,1,0,50,0,0
92157,-100,4,1,0,50,0,1
101081,-100,4,2,1,65,0,1
102004,-100,4,1,0,50,0,1
110620,-100,4,2,1,65,0,1
111789,-100,4,1,0,50,0,0
111851,-100,4,1,0,50,0,1
120774,-100,4,2,1,65,0,1
121697,-100,4,1,0,50,0,1
130312,-100,4,2,1,65,0,1
131543,615.384615384615,4,2,0,85,1,0
131620,-100,4,2,0,50,0,0
140312,-100,4,2,0,5,0,0
140774,-100,4,2,0,50,0,0

[Colours]
Combo1 : 117,155,119
Combo2 : 128,125,157
Combo3 : 163,126,114

[HitObjects]
192,312,10927,6,0,B|120:240|168:120,1,204
256,88,11850,1,2
344,64,12157,6,0,B|416:136|368:256,1,204
280,288,13080,1,2
280,288,13388,1,0
120,280,14003,6,0,B|80:320|104:376,2,102,0|2|0
256,152,15234,2,0,B|296:112|272:56,2,102,0|2|0
320,328,16465,1,0
408,296,16773,1,2
488,248,17080,6,0,B|480:192|440:160,1,102
352,160,17696,2,0,B|360:104|400:72,2,102
406,267,18927,6,0,B|180:342|105:154|256:41|406:154|331:342|105:267,1,612,0|4
256,192,20927,12,0,22311
416,320,23234,6,0,B|320:224|256:320|128:320,1,306,2|2
64,256,24465,2,0,B|32:192|32:104,2,153,2|2|2
155,192,25696,6,0,B|256:166|356:192,2,204,2|2|2
306,296,27542,2,0,B|255:283|205:295,1,102,2|2
128,352,28157,6,0,B|72:300|64:217,1,153,2|2
136,99,29080,2,0,B|219:107|271:163,1,153,2|2
237,296,30003,2,0,B|338:270,1,102,2|2
384,352,30619,6,0,B|440:300|448:217,1,153,2|2
376,99,31542,2,0,B|292:107|240:163,1,153,2|0
157,123,32311,1,2
78,75,32619,2,0,B|43:150|65:223,1,153,2|2
208,340,33696,5,2
392,344,34311,1,8
481,190,34927,2,0,B|446:105|352:138|321:73,1,204,2|0
256,139,35850,1,2
190,74,36157,2,0,B|160:138|66:105|31:190,1,204,2|8
191,278,37388,2,0,B|291:294,2,102,2|8|2
354,193,38619,5,2
257,94,39234,1,2
255,290,39850,1,2
158,191,40465,1,2
387,196,41234,2,0,B|450:198,2,51,2|8|2
253,341,42311,1,2
428,280,42927,5,8
428,280,43234,2,8,B|448:180|360:96,1,204
256,104,44157,1,8
150,97,44465,2,8,B|64:180|84:280,1,204
164,328,45388,2,8,B|232:288|312:288,2,153,8|0|8
156,236,46619,6,8,B|252:196|284:84,1,204
376,76,47542,1,8
464,104,47850,2,8,B|468:308,1,204
384,352,48773,1,8
284,332,49080,6,8,B|260:228|168:352|112:256,1,204
60,192,50003,1,8
68,100,50311,1,8
68,100,50619,2,8,B|156:52|268:68,2,204
124,172,52157,2,8,B|172:152|228:156,1,102
292,92,52773,6,8,B|432:152|456:336,1,306
368,344,54003,2,8,B|320:208|256:296|192:208|144:344,1,306
56,333,55234,2,8,B|80:152|220:92,1,306
208,192,56465,6,0,B|208:279|144:263|192:375|256:311|320:375|368:263|304:279|304:191,2,357,8|0|8
152,128,58927,2,8,B|96:144|168:216|96:216|96:272|112:328,1,204
208,312,59850,1,8
304,312,60157,1,8
402,317,60465,2,8,B|416:272|416:216|344:216|416:144|360:128,1,204
304,56,61388,5,4
170,198,62003,6,0,B|224:176|240:128,1,102,2|0
160,88,62619,1,4
176,288,72465,5,0
80,192,73080,1,8
176,96,73696,2,0,B|280:72,2,102,0|0|8
360,120,74927,5,0
456,216,75542,1,8
360,312,76158,2,0,B|256:336,2,102,0|0|8
304,136,77388,6,0,B|208:88|216:224|192:264,1,204,0|8
368,328,78619,1,0
432,256,78927,1,0
432,160,79234,1,8
256,232,79850,6,0,B|352:280|344:144|368:104,1,204,0|8
192,40,81081,1,0
128,112,81389,1,0
128,208,81696,2,0,B|72:264|96:352,1,153
240,320,82619,5,0
336,104,83388,5,0
336,104,83850,1,0
256,320,84619,5,0
256,320,85081,1,0
176,104,85850,5,0
176,104,86312,1,0
136,232,86773,1,0
136,232,87080,6,0,B|168:312|264:304,1,153
376,232,88003,1,0
376,232,88311,6,0,B|344:152|248:160,1,153
136,232,89234,1,0
136,232,89542,6,0,B|168:312|264:304,1,153
376,232,90465,1,0
376,232,90773,6,0,B|344:152|248:160,1,153
136,232,91696,1,0
136,232,92003,6,0,B|176:304,1,51,0|2
288,328,92619,2,2,B|384:280|336:192,1,153,0|2
248,192,93388,2,0,B|192:272|120:256,1,153,2|0
24,160,94311,1,2
110,133,94619,6,0,B|285:46|197:162|256:250|314:162|226:46|401:133,1,357,0|2
360,312,96311,2,0,B|232:360|192:200|256:64|88:88,1,408,2|2
56,224,98003,2,2,B|128:224|176:312,1,153,0|2
304,352,98927,2,2,B|344:320|328:256,2,102,2|0|2
256,192,100773,5,2
256,192,101080,6,0,B|320:192,6,51,2|2|2|2|2|2|0
200,64,102465,6,2,B|128:104|144:168|80:176,1,153,0|2
24,232,103234,2,2,B|96:272|80:336|144:344,1,153
256,288,104157,6,2,B|256:176,1,102,0|2
312,64,104927,6,2,B|384:104|368:168|432:176,1,153
488,232,105696,2,2,B|416:272|432:336|368:344,1,153,0|2
256,288,106619,6,2,B|256:176,1,102,0|2
200,64,107388,6,2,B|128:104|144:168|80:176,1,153,2|0
104,312,108311,2,2,B|56:307|72:243|0:203,1,153
136,240,109080,2,2,B|136:128,1,102,0|2
336,240,110619,6,0,B|384:224,8,51,6|2|6|2|6|2|6|2|0
224,328,112311,2,2,B|128:280|176:192,1,153,0|2
264,192,113080,2,0,B|320:272|392:256,1,153,2|0
488,160,114003,1,2
402,133,114311,6,0,B|227:46|315:162|256:250|198:162|286:46|111:133,1,357,0|2
152,312,116003,2,0,B|280:360|320:200|256:64|424:88,1,408,2|2
456,224,117695,2,2,B|384:224|336:312,1,153,0|2
208,352,118619,2,2,B|168:320|184:256,2,102,2|0|2
256,192,120465,5,2
256,192,120772,6,0,B|192:192,6,51,2|2|2|2|2|2|0
312,64,122157,6,2,B|384:104|368:168|432:176,1,153,0|2
488,232,122926,2,2,B|416:272|432:336|368:344,1,153
256,288,123849,6,2,B|256:176,1,102,0|2
200,64,124619,6,2,B|128:104|144:168|80:176,1,153
24,232,125388,2,2,B|96:272|80:336|144:344,1,153,0|2
256,288,126311,6,2,B|256:176,1,102,0|2
312,64,127080,6,2,B|384:104|368:168|432:176,1,153,2|0
408,312,128003,2,2,B|455:307|439:243|511:203,1,153
376,240,128772,2,2,B|376:128,1,102,0|2
208,120,130311,6,0,B|176:160,8,51,6|2|6|2|6|2|6|2|2
288,80,132158,5,0
368,120,132773,1,0
432,184,133389,1,0
432,232,133696,1,0
432,280,134004,1,0
352,328,134619,6,0,B|312:296|256:304,1,102
160,328,135850,1,0
168,232,136466,6,0,B|208:264|264:256,1,102
296,224,137389,1,0
312,184,137696,6,0,B|272:152|216:160,1,102
184,192,138619,1,0
168,232,138927,6,0,B|208:264|264:256,1,102
336,312,140158,1,0
336,312,141389,5,0
237,302,142004,1,0
136,288,142619,1,0
80,200,143235,1,0
80,160,143542,1,0
80,120,143850,1,0
160,56,144465,6,0,B|200:88|256:80,1,102
352,56,145696,1,0
344,152,146312,6,0,B|304:120|248:128,1,102
216,160,147235,1,0
208,208,147543,6,0,B|256:240,4,51,0|2|0|2|4
