osu file format v9

[General]
AudioFilename: ohgoddontdeleteme.mp3
AudioLeadIn: 2493
PreviewTime: 72466
Countdown: 0
SampleSet: Soft
StackLeniency: 0.7
Mode: 0
LetterboxInBreaks: 0

[Editor]
DistanceSpacing: 0.5
BeatDivisor: 4
GridSize: 16

[Metadata]
Title:TearVid
Artist:An
Creator:Shiirn
Version:Another
Source:BMS
Tags:artcore bms of fighters 2011 reku crimmiskye crimmi onosakihito

[Difficulty]
HPDrainRate:7
CircleSize:4
OverallDifficulty:8
ApproachRate:8
SliderMultiplier:1.86
SliderTickRate:2

[Events]
//Background and Video events
0,0,"tearVid.image.jpg"
Video,75,"imtooprettytodie.avi"
//Break Periods
2,20973,22484
//Storyboard Layer 0 (Background)
//Storyboard Layer 1 (Fail)
//Storyboard Layer 2 (Pass)
//Storyboard Layer 3 (Foreground)
//Storyboard Sound Samples
//Background Colour Transformations
3,100,163,162,255

[TimingPoints]
-149,615.384615384615,4,2,0,30,1,0
80,-100,4,2,0,30,0,0
1081,615.384615384615,4,2,0,30,1,0
1157,-100,4,2,0,10,0,0
2157,-66.6666666666667,4,2,0,30,0,0
10926,307.692307692308,4,2,0,50,1,0
18311,-100,4,2,0,10,0,0
19542,-100,4,2,0,5,0,0
19850,-100,4,2,0,20,0,0
20157,-100,4,2,0,35,0,0
20465,-100,4,2,0,50,0,0
20773,-100,4,2,0,5,0,1
20926,-100,4,2,0,5,0,0
23234,-100,4,1,0,40,0,0
42926,-100,4,1,0,25,0,0
43026,-100,4,1,0,40,0,0
43542,-100,4,1,0,25,0,0
43642,-100,4,1,0,40,0,0
44157,-100,4,1,0,25,0,0
44257,-100,4,1,0,40,0,0
44773,-100,4,1,0,25,0,0
44873,-100,4,1,0,40,0,0
45388,-100,4,1,0,25,0,0
45488,-100,4,1,0,40,0,0
46003,-100,4,1,0,25,0,0
46103,-100,4,1,0,40,0,0
46619,-100,4,1,0,25,0,0
46719,-100,4,1,0,40,0,0
47234,-100,4,1,0,25,0,0
47334,-100,4,1,0,40,0,0
47850,-100,4,1,0,25,0,0
47950,-100,4,1,0,40,0,0
48465,-100,4,1,0,25,0,0
48565,-100,4,1,0,40,0,0
49080,-100,4,1,0,25,0,0
49180,-100,4,1,0,40,0,0
49696,-100,4,1,0,25,0,0
49796,-100,4,1,0,40,0,0
50311,-100,4,1,0,25,0,0
50411,-100,4,1,0,40,0,0
50926,-100,4,1,0,25,0,0
51026,-100,4,1,0,40,0,0
51542,-100,4,1,0,25,0,0
51642,-100,4,1,0,40,0,0
52157,-100,4,1,0,25,0,0
52257,-100,4,1,0,40,0,0
52773,-100,4,1,0,25,0,0
52873,-100,4,1,0,40,0,0
53388,-100,4,1,0,25,0,0
53488,-100,4,1,0,40,0,0
54003,-100,4,1,0,25,0,0
54103,-100,4,1,0,40,0,0
54619,-100,4,1,0,25,0,0
54719,-100,4,1,0,40,0,0
55234,-100,4,1,0,25,0,0
55334,-100,4,1,0,40,0,0
55850,-100,4,1,0,25,0,0
55950,-100,4,1,0,40,0,0
56465,-100,4,1,0,25,0,0
56565,-100,4,1,0,40,0,0
57080,-100,4,1,0,25,0,0
57180,-100,4,1,0,40,0,0
57696,-100,4,1,0,25,0,0
57796,-100,4,1,0,40,0,0
58311,-100,4,1,0,25,0,0
58411,-100,4,1,0,40,0,0
58926,-100,4,1,0,25,0,0
59026,-100,4,1,0,40,0,0
59542,-100,4,1,0,25,0,0
60257,-100,4,1,0,40,0,0
60773,-100,4,1,0,25,0,0
60873,-100,4,1,0,40,0,0
62002,-133.333333333333,4,2,0,50,0,0
76156,-117.647058823529,4,2,0,50,0,0
82156,-117.647058823529,4,1,0,40,0,0
84002,-117.647058823529,4,2,0,50,0,0
84618,-117.647058823529,4,1,0,40,0,0
85387,-117.647058823529,4,2,0,50,0,0
85849,-117.647058823529,4,1,0,40,0,0
86772,-117.647058823529,4,2,0,60,0,0
86873,-117.647058823529,4,1,0,50,0,0
92157,-100,4,1,0,50,0,1
101080,-100,4,2,1,85,0,1
102003,-100,4,1,0,50,0,1
110619,-100,4,2,1,85,0,0
111849,-86.9565217391304,4,1,0,50,0,1
120773,-86.9565217391304,4,2,1,85,0,1
121696,-86.9565217391304,4,1,0,50,0,1
130311,-100,4,2,1,85,0,1
131543,615.384615384615,4,2,0,50,1,0
133081,-100,4,2,0,90,0,0
133181,-100,4,2,0,50,0,0
140311,-100,4,2,0,5,0,0
140773,-100,4,2,0,50,0,0
148003,-100,4,2,1,50,0,0

[Colours]
Combo1 : 117,155,119
Combo2 : 128,125,157
Combo3 : 163,126,114

[HitObjects]
256,192,81,5,0
256,192,466,1,0
256,192,1081,6,0,B|288:292|212:364,1,186,2|0
88,288,2157,1,0
80,280,2235,1,0
72,272,2312,2,0,B|47:203|71:135,1,139.499995842576
440,112,2927,2,0,B|464:180|440:248,1,139.499995842576
256,192,3542,5,2
256,89,4311,1,0
309,101,4465,1,2
349,138,4619,1,0
361,190,4773,2,0,B|337:244|280:244|256:192|256:192|231:139|174:139|150:192,1,278.999991685152,0|2
32,208,6004,5,0
180,320,6619,1,0
224,216,6927,1,2
296,304,7234,1,0
472,48,7850,5,0
428,152,8157,1,2
356,64,8465,1,0
88,168,9542,1,0
88,168,9620,1,0
88,168,9697,1,2
88,168,10311,6,0,B|136:216|220:208,1,139.499995842576,0|2
255,320,10927,5,0
263,328,11003,1,0
272,336,11080,2,0,B|319:328|363:342,1,93,2|8
504,288,11388,2,0,B|456:295|412:281,1,93,2|0
488,192,11696,1,2
472,192,11773,1,0
456,192,11850,2,0,B|336:192,1,93,8|2
504,96,12157,6,0,B|456:88|412:102,1,93,0|2
272,48,12465,2,0,B|319:55|363:41,1,93,8|2
288,136,12773,1,0
256,136,12850,1,0
223,136,12926,2,0,B|176:136|132:121,1,93,2|8
40,136,13234,1,2
40,248,13388,6,8,B|83:233|131:233,1,93,0|2
224,248,13696,1,8
240,256,13773,1,0
256,264,13850,1,2
272,272,13926,1,0
288,280,14003,2,0,B|384:272,1,93,0|2
504,176,14311,2,0,B|411:168,1,93,8|2
376,80,14619,5,0
304,128,14773,1,2
208,128,14926,1,8
136,80,15080,1,2
128,96,15157,1,0
120,112,15234,1,0
112,128,15311,1,0
104,144,15388,1,2
96,160,15465,1,0
88,176,15542,1,8
80,192,15619,1,0
72,208,15696,1,2
64,224,15773,1,0
56,240,15850,6,0,B|48:288|64:336,1,93,0|2
160,312,16157,2,0,B|208:232,1,93,8|2
256,358,16465,2,0,B|256:312,2,46.5,0|0|2
352,312,16773,2,0,B|304:232,1,93,8|2
336,119,17080,6,0,B|304:152,2,46.5,0|0|2
256,80,17388,2,0,B|256:32,2,46.5,0|0|2
175,119,17696,2,0,B|208:152,2,46.5,0|0|2
175,224,18003,2,0,B|224:272|256:272|288:272|336:223,1,186,0|4
256,368,18926,5,4
256,192,19542,12,0,20773
205,261,23234,5,2
275,311,23388,1,0
325,242,23542,1,8
256,192,23696,2,0,B|187:258|75:242,1,186
16,192,24157,2,0,B|48:96,1,93,10|0
128,64,24465,5,2
144,80,24542,1,0
160,96,24619,2,0,B|272:96,1,93,0|8
336,96,24927,1,2
224,176,25080,2,0,B|336:176,1,93
400,176,25388,1,10
440,88,25542,1,0
440,88,25696,6,8,B|424:180|436:276,1,186,2|8
360,332,26157,1,0
256,352,26311,1,2
264,328,26388,1,0
272,304,26465,1,0
280,280,26542,1,2
288,256,26619,2,0,B|200:224,1,93,8|2
104,256,26927,6,0,B|112:304|96:352,1,93,2|0
24,272,27234,1,8
96,176,27388,1,0
24,200,27542,2,0,B|9:156|17:108,1,93,2|0
80,56,27850,1,10
168,80,28003,1,0
256,64,28157,6,0,B|256:160,1,93,2|0
352,128,28465,1,8
376,144,28542,1,0
400,160,28619,2,0,B|432:192|432:248,1,93,2|0
432,368,28927,1,0
408,352,29003,1,0
384,336,29080,2,8,B|352:304|352:248,1,93,10|0
248,271,29388,6,0,B|252:222|232:180,1,93,0|2
194,49,29696,2,0,B|234:77|280:81,1,93,8|0
413,112,30003,2,0,B|368:132|342:170,1,93,2|0
232,180,30311,2,2,B|273:275|209:354,1,186,10|2
108,320,30773,5,0
48,232,30927,2,0,B|92:248|144:248,1,93,8|2
96,136,31234,1,0
184,96,31388,1,0
284,88,31542,2,0,B|380:120,1,93,10|0
456,196,31850,5,0
456,196,31927,1,0
456,196,32003,2,0,B|480:244|456:284,1,93,2|10
336,352,32311,1,2
336,352,32388,1,0
336,352,32465,2,0,B|312:304|336:264,1,93,0|2
171,263,32773,2,0,B|196:304|172:352,1,93,8|2
256,380,33080,6,0,B|256:168,1,186,2|8
200,120,33542,1,0
184,128,33619,1,0
168,136,33696,1,2
80,192,33850,2,0,B|32:192,2,46.5,0|0|8
168,248,34157,1,0
184,256,34234,1,0
200,264,34311,6,0,B|240:280|296:280,1,93,2|0
333,192,34619,1,8
419,234,34773,1,2
377,321,34927,2,0,B|329:325|296:360,1,93,2|0
256,352,35157,1,2
216,360,35234,2,0,B|182:325|135:321,1,93,8|2
64,280,35542,5,2
48,192,35696,1,0
64,104,35850,1,8
144,168,36003,1,0
144,168,36080,1,0
144,168,36157,2,0,B|256:192,1,93,2|0
384,144,36465,2,0,B|272:120,1,93,8|0
256,48,36773,5,2
176,80,36927,1,0
96,112,37080,1,8
128,192,37234,1,0
160,272,37388,1,2
240,240,37542,1,0
280,312,37696,2,0,B|368:336,1,93,10|0
440,288,38003,5,2
480,216,38157,1,0
472,192,38234,1,0
464,168,38311,1,8
384,216,38465,1,0
360,128,38619,1,2
336,136,38696,1,0
312,144,38773,2,0,B|216:144,1,93,0|8
256,56,39080,1,0
256,56,39234,6,0,B|288:132|224:164|256:240,1,186,2|8
192,336,39696,1,0
176,328,39773,1,0
160,320,39850,1,2
144,312,39927,1,0
128,304,40003,2,0,B|144:256|128:208,1,93,0|8
256,256,40311,1,0
382,212,40465,6,0,B|368:256|384:304,1,93,2|0
476,216,40773,2,0,B|492:120,1,93,8|0
472,112,41003,1,0
456,96,41080,1,0
440,80,41157,1,0
432,56,41234,2,0,B|384:40|312:56,1,93,2|10
288,112,41542,1,2
256,192,41696,6,0,B|256:296,2,93,0|0|8
168,120,42157,1,0
144,112,42234,1,0
120,112,42311,1,2
96,120,42388,1,0
80,136,42465,2,0,B|48:184|80:240,2,93,0|8|0
144,192,42927,6,8,B|192:160|192:64|136:24,1,186,10|8
368,192,43542,2,8,B|320:224|320:320|376:360,1,186,8|10
432,280,44003,1,0
432,280,44157,2,8,B|336:272|240:288,1,186,10|8
80,104,44773,2,8,B|176:112|272:96,1,186,10|8
384,80,45234,1,0
339,163,45388,6,0,B|432:152,1,93,10|0
315,243,45696,2,0,B|408:232,1,93,8|2
384,312,46003,2,8,B|187:336,1,186,8|10
108,348,46465,1,0
100,256,46619,6,8,B|10:231,1,93,10|0
171,276,46926,2,8,B|197:233|197:233|222:192|197:150|197:150|172:108,1,186,10|10
256,40,47388,1,0
339,108,47542,2,8,B|314:150|314:150|289:192|314:233|314:233|339:275,1,186,10|10
392,336,48003,6,0,B|480:308,1,93,0|8
436,236,48311,1,2
392,48,48465,2,0,B|480:76,1,93,8|0
436,148,48773,1,10
352,192,48927,1,0
292,264,49080,6,8,B|344:340|444:364,1,186
220,120,49696,2,8,B|168:44|68:20,1,186
4,80,50157,1,0
148,163,50311,6,0,B|56:152,1,93,10|0
172,243,50619,2,0,B|80:232,1,93,8|2
104,312,50927,2,8,B|288:334,1,186,8|10
380,348,51388,1,0
472,348,51542,6,0,B|472:252,1,93,8|2
312,160,51850,2,0,B|312:252,1,93,8|0
424,296,52157,2,0,B|424:200,1,93,10|0
264,108,52465,2,0,B|264:200,1,93,10|0
176,232,52773,5,10
104,292,52927,1,0
48,216,53080,1,8
120,156,53234,1,0
192,96,53388,1,10
136,20,53542,1,0
64,80,53696,1,8
120,156,53850,1,0
176,232,54003,6,0,B|216:316,1,93,10|0
444,324,54311,2,0,B|420:284|372:268,1,93,8|2
300,236,54619,1,8
212,148,54773,1,0
256,304,54927,1,10
256,80,55080,1,0
256,80,55234,6,8,B|352:60|440:104,1,186,10|8
484,192,55696,1,2
437,281,55850,2,8,B|352:324|256:304,1,186,8|10
204,224,56311,1,2
204,224,56465,6,0,B|160:240|140:288,1,93,8|0
254,130,56773,2,0,B|262:84|230:43,1,93,8|0
312,220,57080,2,0,B|383:280|486:266,1,186,10|10
424,176,57542,1,0
424,176,57696,2,0,B|384:260|384:360,1,186,10|8
468,344,58157,1,2
307,347,58311,6,0,B|308:300|319:255,1,93,8|0
204,36,58619,2,0,B|204:84|192:128,1,93,10|0
216,232,58927,1,8
296,152,59080,1,0
140,340,59234,6,0,B|64:284|68:176,1,186,8|8
256,128,59696,2,0,B|256:32,2,93,2|10|2
444,177,60157,2,2,B|448:284|372:340,1,186,10|8
272,344,60619,1,2
223,219,60773,2,0,B|136:212|148:292|144:336|96:331,1,186,8|10
256,352,61388,5,4
36,84,62003,2,4,B|104:52|172:80,1,139.499995842576
112,172,62619,5,4
256,324,63080,1,4
400,172,63542,1,0
300,72,63850,2,0,B|256:96|212:72,1,92.9999972283841
172,96,64157,2,0,B|156:124,3,23.249999307096
180,140,64388,1,0
200,156,64465,6,0,B|240:196|224:252,2,104.624996881932
152,216,65080,1,0
424,348,65696,6,0,B|384:308|400:252,2,104.624996881932
472,288,66311,1,0
480,148,66619,1,0
416,92,66773,1,0
244,148,67080,1,0
180,92,67234,1,0
116,148,67388,1,0
116,148,67542,6,0,B|104:252|148:356,1,209.249993763864
396,148,68465,2,0,B|408:252|364:356,1,209.249993763864
192,80,69388,2,0,B|256:128|320:80,1,139.499995842576
256,32,70003,6,0,B|256:240,1,209.249993763864
112,304,70927,1,0
400,304,71388,1,0
192,352,71850,1,0
320,352,72157,1,0
416,272,72465,6,0,B|456:212|460:140,1,139.499995842576,4|2
372,156,72927,1,0
372,156,73080,2,0,B|308:180,1,69.7499979212881,8|0
205,180,73388,2,0,B|140:156,1,69.7499979212881,2|0
104,232,73696,6,0,B|104:280|128:328,1,92.9999972283841,4|2
160,328,74003,2,0,B|184:344,3,23.249999307096,2|0|0|0
216,360,74234,1,2
256,368,74311,2,8,B|272:328|240:296|256:240,2,104.624996881932,8|2|0
384,336,74927,5,4
400,320,75003,1,0
416,304,75080,2,0,B|416:216,1,69.7499979212881,0|2
288,208,75388,1,0
288,208,75542,2,0,B|255:143|195:106,1,139.499995842576,8|0
384,80,76157,6,0,B|424:104|440:144,1,79.0499967017771,4|0
464,168,76388,1,0
440,192,76465,1,2
464,216,76542,1,0
436,246,76619,2,0,B|424:280|384:304,1,79.0499967017771,0|8
152,320,77080,1,2
144,296,77157,1,0
136,272,77234,1,0
128,248,77311,1,0
120,224,77388,6,0,B|104:144|136:64,1,158.099993403554,4|2
256,48,77850,1,0
377,68,78003,2,0,B|408:144|392:224,1,158.099993403554,8|2
276,360,78619,6,0,B|171:342,1,79.0499967017771,4|0
364,296,78927,1,2
340,292,79003,1,0
316,288,79080,2,0,B|211:270,1,79.0499967017771,0|8
404,224,79388,1,0
380,220,79465,1,0
356,216,79542,2,0,B|251:198,1,79.0499967017771,2|0
196,96,79850,6,0,B|300:113,1,79.0499967017771,4|0
108,160,80157,1,2
132,164,80234,1,0
156,168,80311,2,0,B|260:185,1,79.0499967017771,0|8
68,232,80619,1,0
92,236,80696,1,0
116,240,80773,2,0,B|220:257,1,79.0499967017771,2|0
240,312,81080,6,0,B|292:328,3,39.5249983508886,4|0|0|0
324,308,81388,2,0,B|376:304,3,39.5249983508886,2|0|0|0
404,296,81696,2,0,B|440:276|480:292,2,79.0499967017771,8|2|2
444,360,82157,5,4
68,24,82619,1,4
424,4,83388,5,4
88,380,83850,1,4
120,304,84003,1,0
24,320,84157,1,2
112,224,84311,1,0
16,224,84465,1,2
48,148,84619,5,4
464,236,85080,1,4
296,188,85388,5,0
312,276,85542,1,0
408,280,85696,1,0
424,368,85850,5,4
256,8,86311,1,4
88,368,86773,1,2
88,368,87080,6,0,B|44:300|64:216,1,158.099993403554
180,96,87542,2,8,B|256:56|332:96,1,158.099993403554,8|0
448,216,88003,2,0,B|468:300|424:368,1,158.099993403554,8|0
256,192,88619,5,0
256,192,88773,1,8
104,328,89080,1,0
104,328,89234,1,8
408,328,89542,2,0,B|336:292|320:352|256:328,1,158.099993403554
211,247,90003,2,0,B|148:188|192:104,1,158.099993403554,8|0
319,103,90465,2,0,B|364:188|300:247,1,158.099993403554,8|0
64,64,91080,5,0
64,64,91234,1,8
377,99,91542,6,0,B|448:64,1,79.0499967017771,0|8
408,160,91850,1,0
448,64,92003,2,0,B|472:140,1,79.0499967017771,0|2
464,232,92311,5,0
464,232,92388,1,0
464,232,92465,2,0,B|464:328,1,93,8|2
376,176,92773,1,0
376,176,92850,1,0
376,176,92927,2,0,B|376:272,1,93,0|10
308,328,93234,1,0
204,328,93388,6,0,B|116:296,1,93,2|0
112,208,93696,1,8
112,184,93773,1,0
112,160,93850,1,2
112,136,93927,1,0
136,112,94003,2,0,B|136:224,1,93
256,280,94311,2,0,B|264:248|248:216|256:184,1,93,8|0
376,112,94619,6,0,B|376:224,1,93,2|0
456,256,94927,1,8
464,272,95003,1,0
472,288,95080,1,2
480,304,95157,1,0
488,320,95234,2,0,B|448:352|392:352,1,93
336,280,95542,1,10
376,192,95696,6,0,B|336:112|232:64,1,186,2|0
160,136,96157,1,8
232,208,96311,1,2
160,280,96465,1,0
136,288,96542,1,0
112,296,96619,1,2
8,208,96773,2,0,B|56:200|104:208,1,93,10|2
256,136,97080,6,0,B|208:136|164:128,1,93,2|0
276,48,97388,1,8
296,56,97465,1,0
320,64,97542,1,2
432,128,97696,2,0,B|384:88,2,46.5
480,192,98003,2,0,B|432:288,1,93,10|0
368,328,98311,5,0
368,328,98465,2,0,B|272:328,1,93,2|8
184,328,98773,1,0
312,248,98927,2,0,B|216:248,1,93,2|0
128,248,99234,1,10
40,264,99388,1,0
40,120,99542,6,0,B|88:136|144:136,1,93,2|0
200,200,99850,2,0,B|224:160|200:112,1,93,8|0
471,263,100157,2,0,B|424:248|380:248,1,93
312,184,100465,2,0,B|288:224|312:272,1,93,8|0
120,232,100773,6,0,B|112:184|128:136,1,93,2|0
256,192,101080,1,6
256,192,101157,1,2
256,192,101234,1,2
256,192,101311,1,2
256,192,101388,1,6
256,192,101465,1,2
256,192,101542,1,2
256,192,101619,1,2
256,192,101696,1,6
256,192,101773,1,2
256,192,101850,1,2
256,192,101927,1,2
256,192,102003,6,0,B|264:288,1,93,2|0
352,320,102311,1,8
376,296,102388,1,0
400,272,102465,2,0,B|440:248|496:256,1,93,2|0
489,128,102773,2,0,B|440:136|400:112,1,93,0|10
336,64,103080,1,0
256,88,103234,6,0,B|256:184,1,93,2|0
176,64,103542,1,8
111,112,103696,2,0,B|72:136|22:128,1,93,2|0
70,211,104003,1,0
61,232,104080,1,0
54,254,104157,1,10
52,277,104234,1,0
59,299,104311,1,0
73,317,104388,1,0
91,330,104465,6,0,B|188:330,1,93,2|0
272,376,104773,1,8
280,272,104927,1,2
368,200,105080,2,0,B|408:176|424:128,1,93
416,88,105311,1,0
408,48,105388,2,0,B|320:80,1,93,10|0
191,79,105696,6,0,B|104:48,1,93,2|0
96,88,105927,1,0
88,128,106003,2,0,B|104:176|144:200,1,93,8|2
89,259,106311,2,0,B|133:283|179:274,1,93
180,355,106619,2,0,B|229:342|256:304,1,93,10|0
348,204,106927,6,0,B|256:224|164:204,1,186,2|8
108,128,107388,1,2
160,40,107542,1,0
256,80,107696,1,0
352,40,107850,1,10
404,128,108003,1,0
348,204,108157,6,0,B|307:214|256:216,1,93,0|2
163,203,108465,1,8
160,284,108619,2,0,B|201:294|252:296,1,93,0|2
344,283,108927,1,0
420,336,109080,1,10
504,296,109234,1,0
432,240,109388,5,2
424,216,109465,1,0
416,192,109542,1,0
408,168,109619,1,0
400,144,109696,2,0,B|352:128|336:80,1,93,8|0
256,144,110003,2,0,B|256:240,1,93
336,302,110311,2,0,B|352:256|400:240,1,93,8|2
496,216,110619,5,6
488,208,110696,1,2
480,200,110773,1,2
472,192,110850,1,2
464,184,110927,1,6
456,176,111003,1,2
448,168,111080,1,2
440,160,111157,1,2
432,152,111234,5,6
424,144,111311,1,2
416,136,111388,1,2
408,128,111465,1,2
400,120,111542,1,6
392,112,111619,1,2
384,104,111696,1,2
376,96,111773,1,2
368,88,111850,6,0,B|320:112|264:104,1,106.950003506094,2|0
168,48,112157,2,0,B|111:39|63:63,1,106.950003506094,8|2
54,89,112388,1,0
47,114,112465,1,0
40,140,112542,1,0
37,166,112619,1,0
39,192,112696,1,0
44,218,112773,2,0,B|148:261,1,106.950003506094,10|0
64,320,113080,5,2
160,352,113234,1,0
240,272,113388,1,8
344,336,113542,1,2
376,336,113619,1,0
408,336,113696,2,0,B|464:328|496:280,1,106.950003506094
512,152,114003,2,0,B|456:160|424:208,1,106.950003506094,10|0
464,32,114311,6,0,B|448:84|448:84|408:120,2,106.950003506094,2|0|8
360,40,114773,1,2
312,120,114927,1,0
292,88,115003,1,0
256,80,115080,1,0
220,88,115157,1,0
200,120,115234,1,10
152,40,115388,1,2
48,31,115542,6,0,B|64:84|64:84|103:119,2,106.950003506094,0|0|8
102,264,116003,2,0,B|64:300|64:300|48:352,2,106.950003506094,2|0|2
24,192,116465,1,0
56,192,116542,1,0
88,192,116619,1,2
120,192,116696,1,0
156,192,116773,6,0,B|208:200|252:240,1,106.950003506094,2|0
356,192,117080,2,0,B|304:184|260:144,1,106.950003506094,8|2
192,120,117388,1,0
320,264,117542,1,0
268,72,117696,1,10
244,312,117850,1,0
296,152,118003,6,0,B|344:120|400:120,1,106.950003506094,0|2
270,246,118311,2,0,B|274:304|246:352,1,106.950003506094,8|0
152,320,118619,1,2
48,280,118773,1,0
136,208,118927,1,2
32,168,119080,1,2
120,96,119234,6,0,B|224:64,1,106.950003506094,2|0
336,56,119542,1,8
368,72,119619,1,0
400,88,119696,2,0,B|448:112|448:112|488:152,1,106.950003506094
384,176,120003,1,0
402,206,120080,1,0
420,237,120157,2,0,B|447:283|447:283|458:338,1,106.950003506094,8|0
304,336,120465,6,0,B|360:352|400:384,1,106.950003506094,2|0
208,336,120773,1,6
183,345,120850,1,2
156,349,120927,1,2
129,349,121003,1,2
102,345,121080,1,6
77,335,121157,1,2
56,317,121234,1,2
40,295,121311,1,2
29,270,121388,1,6
22,243,121465,1,2
22,216,121542,1,2
28,190,121619,1,2
41,166,121696,6,0,B|88:192|144:192,1,106.950003506094,2|0
120,96,122003,1,8
152,104,122080,1,0
184,112,122157,2,0,B|296:112,1,106.950003506094,2|0
368,112,122465,1,0
440,192,122619,1,10
440,192,122696,1,0
440,192,122773,1,0
368,272,122927,5,2
332,272,123003,1,0
296,272,123080,2,0,B|189:272,1,106.950003506094,0|8
48,272,123388,1,2
48,272,123542,2,0,B|78:320|130:336,1,106.950003506094
0,192,123850,2,0,B|106:192,1,106.950003506094,10|0
128,44,124157,6,0,B|76:60|44:112,1,106.950003506094,2|0
152,192,124465,1,8
200,108,124619,1,2
256,192,124773,1,0
360,192,124927,1,0
312,276,125080,2,0,B|324:328|384:348,1,106.950003506094,10|0
472,312,125388,5,2
448,288,125465,1,0
424,260,125542,1,0
509,192,125696,2,0,B|456:192,2,53.4750017530472,8|0|2
424,124,126003,1,0
448,96,126080,1,0
472,72,126157,1,0
360,40,126311,1,10
336,56,126388,1,0
312,72,126465,1,0
288,88,126542,1,0
264,104,126619,6,0,B|208:104|152:80,1,106.950003506094,2|0
88,32,126927,2,0,B|48:80|32:128,1,106.950003506094,8|2
80,192,127234,1,0
114,192,127311,1,0
149,192,127388,2,0,B|256:192,1,106.950003506094,0|10
363,192,127696,1,0
478,260,127850,6,0,B|464:304|424:352,1,106.950003506094,0|2
352,300,128157,2,0,B|304:280|248:280,1,106.950003506094,8|0
160,328,128465,1,2
168,296,128542,1,0
173,264,128619,1,0
172,231,128696,1,0
166,199,128773,1,10
154,168,128850,1,0
140,139,128927,1,2
121,112,129003,1,0
99,88,129080,6,0,B|148:71|204:76,1,106.950003506094,2|0
256,32,129388,2,0,B|256:248,1,213.900007012189,8|0
224,320,129850,1,0
128,344,130003,2,0,B|72:328|32:280,1,106.950003506094,8|2
80,200,130311,5,6
88,192,130388,1,2
96,184,130465,1,2
104,176,130542,1,2
112,168,130619,1,6
120,160,130696,1,2
128,152,130773,1,2
136,144,130850,1,2
144,136,130927,5,6
152,128,131003,1,2
160,120,131080,1,2
168,112,131157,1,2
176,104,131234,1,6
184,96,131311,1,2
192,88,131388,1,2
200,80,131465,1,2
208,72,131543,6,0,B|128:24|24:40,1,186,4|0
320,280,132619,1,0
312,296,132697,1,0
304,312,132774,2,0,B|384:360|488:344,1,186
512,232,133696,1,0
480,120,134004,2,0,B|400:72|296:88,1,186
216,64,134773,5,0
226,141,134927,1,0
154,108,135081,1,0
160,184,135235,2,0,B|112:264|120:368,1,186
352,200,136466,2,0,B|400:120|392:16,1,186
256,64,137389,1,0
120,24,137696,2,0,B|72:104|80:208,1,186
216,160,138619,1,0
352,200,138927,6,0,B|400:120|392:16,1,186
480,160,140004,1,0
488,192,140081,1,0
496,224,140158,2,0,B|440:296|328:296,1,186
256,192,141081,1,0
180,88,141389,6,0,B|72:88|16:160,1,186,0|0
120,192,142312,1,0
120,192,142619,2,0,B|136:264|208:304,1,139.5,0|0
280,294,143235,2,0,B|293:258|257:235,2,69.75
256,360,143850,1,0
231,89,144466,2,0,B|218:125|254:148,2,69.75
256,24,145081,1,0
40,284,145696,6,0,B|96:352,1,69.75
160,320,146158,1,0
176,336,146235,1,0
192,352,146312,2,0,B|288:360|376:336,1,186
368,232,147235,1,0
312,232,147389,1,0
281,265,147543,6,0,B|256:304,1,46.5,0|2
230,118,147850,2,0,B|256:80,1,46.5,4|2
202,220,148158,6,0,B|191:199,3,23.25,0|0|2|0
312,161,148466,2,0,B|319:182,3,23.25,8|2|0|2
256,192,148773,5,4
