osu file format v13

[General]
AudioFilename: An - Quad.mp3
AudioLeadIn: 0
PreviewTime: 107797
Countdown: 1
SampleSet: Normal
StackLeniency: 0.7
Mode: 0
LetterboxInBreaks: 1
WidescreenStoryboard: 1

[Editor]
DistanceSpacing: 1.3
BeatDivisor: 4
GridSize: 8
TimelineZoom: 1

[Metadata]
Title:Quad
TitleUnicode:Quad
Artist:An
ArtistUnicode:An
Creator:Estivarus
Version:I dream :3c
Source:
Tags:AcuticNotes Acutic Notes fillnote OrVid
BeatmapID:476676
BeatmapSetID:201175

[Difficulty]
HPDrainRate:4
CircleSize:4
OverallDifficulty:5
ApproachRate:5
SliderMultiplier:0.9
SliderTickRate:1

[Events]
//Background and Video events
//Break Periods
//Storyboard Layer 0 (Background)
//Storyboard Layer 1 (Fail)
//Storyboard Layer 2 (Pass)
//Storyboard Layer 3 (Foreground)
//Storyboard Sound Samples
//Background Colour Transformations
3,100,163,162,255

[TimingPoints]
105,307.692307692308,4,1,0,50,1,0
9951,-90.9090909090909,4,1,0,50,0,0
18566,-100,4,1,0,50,0,0
19797,-83.3333333333333,4,1,0,50,0,0
29643,-83.3333333333333,4,1,0,50,0,0
39489,-90.9090909090909,4,1,0,50,0,0
39643,-142.857142857143,4,1,0,50,0,0
39951,-90.9090909090909,4,1,0,50,0,0
42105,-142.857142857143,4,1,0,50,0,0
42412,-90.9090909090909,4,1,0,50,0,0
44566,-142.857142857143,4,1,0,50,0,0
44874,-90.9090909090909,4,1,0,50,0,0
47028,-142.857142857143,4,1,0,50,0,0
47335,-90.9090909090909,4,1,0,50,0,0
49489,-142.857142857143,4,1,0,50,0,0
49797,-90.9090909090909,4,1,0,50,0,0
51951,-142.857142857143,4,1,0,50,0,0
52258,-90.9090909090909,4,1,0,50,0,0
54412,-142.857142857143,4,1,0,50,0,0
54720,-90.9090909090909,4,1,0,50,0,0
56874,-142.857142857143,4,1,0,50,0,0
57181,-90.9090909090909,4,1,0,50,0,0
59181,-111.111111111111,4,1,0,50,0,0
66566,-111.111111111111,4,1,0,50,0,0
69028,-111.111111111111,4,1,0,50,0,0
76412,-111.111111111111,4,1,0,50,0,0
78874,-125,4,1,0,50,0,0
88720,-100,4,1,0,50,0,0
98258,-100,4,1,0,50,0,0
107797,-111.111111111111,4,1,0,50,0,1
108105,-83.3333333333333,4,1,0,50,0,1
128104,-100,4,1,0,50,0,0
145335,-111.111111111111,4,1,0,50,0,0

[HitObjects]
160,127,105,6,0,P|96:160|81:183,2,90,0|0|0,0:0|0:0|0:0,0:0:0:0:
209,239,1028,2,0,L|216:296,1,45
372,297,1951,1,0,0:0:0:0:
431,183,2258,1,0,0:0:0:0:
384,104,2566,6,0,P|327:97|280:112,1,90
232,184,3181,2,0,P|184:192|128:176,1,90
192,96,3797,1,0,0:0:0:0:
288,104,4105,1,0,0:0:0:0:
328,192,4412,2,0,P|352:232|400:256,1,90
320,328,5028,6,0,P|224:344|136:328,1,180
96,136,6258,2,0,P|168:200|248:216,1,180
440,152,7489,1,0,0:0:0:0:
440,152,8412,2,0,L|384:168,1,45
152,104,9335,6,0,P|168:152|160:192,1,90
56,216,9951,2,0,P|128:288|232:272,1,198.000006042481
304,208,10874,2,0,B|400:232|400:232|448:320,1,198.000006042481
336,328,11797,2,0,L|232:304,1,99.0000030212403
144,256,12412,2,0,P|184:160|112:88,1,198.000006042481
64,184,13335,1,0,0:0:0:0:
64,184,13643,2,0,L|264:176,1,198.000006042481
328,88,14566,5,0,0:0:0:0:
408,160,14874,2,0,P|440:216|448:264,1,99.0000030212403
344,288,15489,1,0,0:0:0:0:
344,288,15797,2,0,P|288:288|232:312,2,99.0000030212403,0|0|0,0:0|0:0|0:0,0:0:0:0:
304,184,16720,2,0,P|336:136|384:112,1,99.0000030212403
256,192,17335,12,0,18566,0:0:0:0:
280,120,19797,6,0,L|208:96,1,53.9999983520508,0|0,0:0|0:0,0:0:0:0:
112,144,20258,1,0,0:0:0:0:
120,176,20412,2,0,P|120:240|104:280,2,107.999996704102,0|0|0,0:0|0:0|0:0,0:0:0:0:
184,80,21335,1,0,0:0:0:0:
184,80,21643,2,0,L|296:72,1,107.999996704102
384,144,22258,6,0,L|424:184,1,53.9999983520508
376,256,22720,1,0,0:0:0:0:
336,272,22874,2,0,P|280:296|216:312,1,107.999996704102
184,240,23489,2,0,P|112:224|64:248,2,107.999996704102,0|0|0,0:0|0:0|0:0,0:0:0:0:
128,304,24412,1,0,0:0:0:0:
120,120,24720,6,0,P|128:80|152:56,1,53.9999983520508
208,120,25181,2,0,L|272:136,1,53.9999983520508
344,152,25643,1,0,0:0:0:0:
424,184,25951,2,0,P|456:232|464:280,1,107.999996704102
376,272,26566,2,0,P|352:320|304:352,1,107.999996704102
288,264,27181,6,0,L|232:216,1,53.9999983520508
179,178,27643,1,0,0:0:0:0:
144,176,27797,2,0,P|88:192|48:248,1,107.999996704102
136,264,28412,2,0,L|136:352,2,80.9999975280763,0|0|0,0:0|0:0|0:0,0:0:0:0:
212,259,29028,1,0,0:0:0:0:
256,56,29643,6,0,L|312:56,1,53.9999983520508
384,40,29951,2,0,P|424:40|448:48,1,53.9999983520508
464,112,30258,2,0,P|480:152|480:176,1,53.9999983520508
424,208,30566,2,0,L|376:232,1,53.9999983520508
328,176,30874,2,0,L|272:208,3,53.9999983520508,0|0|0|0,0:0|0:0|0:0|0:0,0:0:0:0:
216,240,31489,6,0,L|160:272,1,53.9999983520508
104,240,31797,2,0,P|104:296|152:336,1,107.999996704102
208,336,32258,1,0,0:0:0:0:
