osu file format v13

[General]
AudioFilename: An - Quad.mp3
AudioLeadIn: 0
PreviewTime: 107797
Countdown: 1
SampleSet: Normal
StackLeniency: 0.7
Mode: 0
LetterboxInBreaks: 1
WidescreenStoryboard: 0

[Editor]
Bookmarks: 67797
DistanceSpacing: 1.1
BeatDivisor: 4
GridSize: 8
TimelineZoom: 1.5

[Metadata]
Title:Quad
TitleUnicode:Quad
Artist:An
ArtistUnicode:An
Creator:Estivarus
Version:I aspire :3c
Source:
Tags:AcuticNotes Acutic Notes fillnote OrVid
BeatmapID:476416
BeatmapSetID:201175

[Difficulty]
HPDrainRate:7
CircleSize:4
OverallDifficulty:8
ApproachRate:9
SliderMultiplier:1.2
SliderTickRate:1

[Events]
//Background and Video events
//Break Periods
2,66765,68428
//Storyboard Layer 0 (Background)
//Storyboard Layer 1 (Fail)
//Storyboard Layer 2 (Pass)
//Storyboard Layer 3 (Foreground)
//Storyboard Sound Samples
//Background Colour Transformations
3,100,163,162,255

[TimingPoints]
105,307.692307692308,4,1,0,50,1,0
9951,-90.9090909090909,4,1,0,50,0,0
18566,-100,4,1,0,50,0,0
19797,-83.3333333333333,4,1,0,50,0,0
29643,-83.3333333333333,4,1,0,50,0,0
39489,-90.9090909090909,4,1,0,50,0,0
39643,-142.857142857143,4,1,0,50,0,0
39951,-90.9090909090909,4,1,0,50,0,0
42105,-142.857142857143,4,1,0,50,0,0
42412,-90.9090909090909,4,1,0,50,0,0
44566,-142.857142857143,4,1,0,50,0,0
44874,-90.9090909090909,4,1,0,50,0,0
47028,-142.857142857143,4,1,0,50,0,0
47335,-90.9090909090909,4,1,0,50,0,0
49489,-142.857142857143,4,1,0,50,0,0
49797,-90.9090909090909,4,1,0,50,0,0
51951,-142.857142857143,4,1,0,50,0,0
52258,-90.9090909090909,4,1,0,50,0,0
54412,-142.857142857143,4,1,0,50,0,0
54720,-90.9090909090909,4,1,0,50,0,0
56874,-142.857142857143,4,1,0,50,0,0
57181,-90.9090909090909,4,1,0,50,0,0
59181,-111.111111111111,4,1,0,50,0,0
66566,-111.111111111111,4,1,0,50,0,0
69028,-111.111111111111,4,1,0,50,0,0
76412,-111.111111111111,4,1,0,50,0,0
78874,-125,4,1,0,50,0,0
88720,-100,4,1,0,50,0,0
98258,-100,4,1,0,50,0,0
107797,-111.111111111111,4,1,0,50,0,1
108105,-83.3333333333333,4,1,0,50,0,1
128104,-100,4,1,0,50,0,0
145335,-111.111111111111,4,1,0,50,0,0

[HitObjects]
125,95,105,6,0,B|164:95|164:95|210:74|253:104,1,120
243,218,566,2,0,P|217:203|203:178,1,60
328,120,874,1,0,0:0:0:0:
328,120,1028,2,0,P|358:145|371:175,1,60
388,233,1489,5,0,0:0:0:0:
352,297,1797,5,0,0:0:0:0:
352,297,1951,2,0,P|286:333|220:336,1,120
73,125,2566,2,0,P|137:183|190:193,1,120
288,88,3028,1,0,0:0:0:0:
243,278,3181,1,0,0:0:0:0:
299,198,3335,1,0,0:0:0:0:
90,243,3489,5,0,0:0:0:0:
133,171,3643,2,0,B|158:129|158:129|166:98|166:98|197:48,1,120
319,36,4105,2,0,L|278:103,1,60
243,278,4412,2,0,P|308:322|349:325,1,120
454,288,4874,5,0,0:0:0:0:
411,184,5028,2,0,B|411:143|411:143|434:103|408:52,1,120
220,203,5489,1,0,0:0:0:0:
220,202,5951,6,0,P|154:216|89:191,1,120
88,179,6412,2,0,B|77:144|77:144|75:107|75:107|59:61,1,120
220,203,6874,2,0,B|235:241|235:241|237:290|268:314,1,120
285,326,7489,6,0,P|426:304|466:221,1,240
283,120,8412,2,0,L|316:171,1,60
338,227,9335,6,0,P|328:284|280:327,1,120
429,141,9951,6,0,L|454:79,1,66.0000020141602
296,167,10258,1,0,0:0:0:0:
277,163,10335,1,0,0:0:0:0:
257,159,10412,1,0,0:0:0:0:
239,156,10489,1,0,0:0:0:0:
224,153,10566,2,0,P|180:162|136:172,1,66.0000020141602
72,204,10874,2,0,P|59:247|67:287,1,66.0000020141602
256,323,11335,5,0,0:0:0:0:
329,286,11643,5,0,0:0:0:0:
329,286,11797,2,0,P|369:226|364:168,1,132.00000402832
331,72,12258,1,0,0:0:0:0:
331,72,12335,1,0,0:0:0:0:
331,72,12412,2,0,L|264:43,1,66.0000020141602
364,168,12720,5,0,0:0:0:0:
364,168,12797,1,0,0:0:0:0:
364,168,12874,2,0,L|434:202,2,66.0000020141602,0|0|0,0:0|0:0|0:0,0:0:0:0:
223,188,13335,1,0,0:0:0:0:
153,231,13489,2,0,P|123:272|117:303,1,66.0000020141602
300,230,13797,2,0,L|369:230,2,66.0000020141602,0|0|0,0:0|0:0|0:0,0:0:0:0:
159,123,14258,5,0,0:0:0:0:
236,78,14412,2,0,P|289:65|323:70,1,66.0000020141602
386,91,14720,1,0,0:0:0:0:
386,91,14797,1,0,0:0:0:0:
386,91,14874,2,0,B|406:139|406:139|441:177|436:223,1,132.00000402832
441,238,15335,2,0,P|401:303|340:309,1,132.00000402832
321,331,15797,6,0,B|281:328|281:328|237:302|237:302|183:302,1,132.00000402832
347,225,16258,2,0,L|484:225,1,132.00000402832
211,62,16720,2,0,P|174:80|153:108,1,66.0000020141602
155,186,17028,1,0,0:0:0:0:
155,186,17105,1,0,0:0:0:0:
155,186,17181,1,0,0:0:0:0:
227,243,17335,1,0,0:0:0:0:
256,192,17412,12,0,18566,0:0:0:0:
256,84,19181,5,0,0:0:0:0:
382,162,19797,5,0,0:0:0:0:
410,242,19951,2,0,P|400:295|322:340,1,143.999995605469
251,257,20412,1,0,0:0:0:0:
84,286,20874,1,0,0:0:0:0:
84,286,20951,1,0,0:0:0:0:
84,286,21028,1,0,0:0:0:0:
74,138,21258,5,0,0:0:0:0:
146,69,21489,1,0,0:0:0:0:
238,75,21643,2,0,B|269:86|269:86|305:88|305:88|347:103,1,107.999996704102
411,268,22258,1,0,0:0:0:0:
411,268,22412,6,0,P|369:258|278:306,1,143.999995605469
168,196,22874,2,0,B|189:161|189:161|195:99|239:74,1,143.999995605469
321,57,23335,1,0,0:0:0:0:
321,57,23412,1,0,0:0:0:0:
321,57,23489,2,0,P|370:72|412:114,1,107.999996704102
282,233,23951,5,0,0:0:0:0:
350,275,24105,2,0,P|415:298|488:276,1,143.999995605469
444,187,24720,2,0,L|442:110,1,71.9999978027344
322,57,25181,1,0,0:0:0:0:
322,57,25335,2,0,P|279:125|207:142,1,143.999995605469
121,175,25797,5,0,0:0:0:0:
113,195,25874,1,0,0:0:0:0:
103,220,25951,2,0,B|91:250|91:250|92:293|60:322,1,107.999996704102
248,218,26412,2,0,L|279:135,1,71.9999978027344
276,47,27181,6,0,P|316:52|343:70,1,71.9999978027344
436,86,27643,1,0,0:0:0:0:
436,86,27797,2,0,P|450:179|413:240,1,143.999995605469
254,208,28258,1,0,0:0:0:0:
254,208,28335,1,0,0:0:0:0:
254,208,28412,1,0,0:0:0:0:
338,298,28643,5,0,0:0:0:0:
453,298,28874,2,0,P|484:272|490:234,1,71.9999978027344
436,86,29181,1,0,0:0:0:0:
336,94,29335,2,0,P|315:126|310:166,1,71.9999978027344
96,338,29643,5,0,0:0:0:0:
132,276,29797,1,0,0:0:0:0:
81,225,29951,2,0,P|62:174|60:136,1,71.9999978027344
203,295,30258,2,0,P|249:306|302:304,1,71.9999978027344
189,190,30566,1,0,0:0:0:0:
231,128,30720,1,0,0:0:0:0:
277,65,30874,1,0,0:0:0:0:
286,53,30951,1,0,0:0:0:0:
296,39,31028,1,0,0:0:0:0:
362,146,31181,6,0,P|383:192|385:235,1,71.9999978027344
189,190,31489,1,0,0:0:0:0:
170,189,31566,1,0,0:0:0:0:
148,179,31643,2,0,P|113:142|106:118,2,71.9999978027344,0|0|0,0:0|0:0|0:0,0:0:0:0:
294,222,32105,5,0,0:0:0:0:
260,348,32258,1,0,0:0:0:0:
388,330,32412,2,0,P|441:325|468:331,1,71.9999978027344
405,184,32720,1,0,0:0:0:0:
398,175,32797,1,0,0:0:0:0:
391,166,32874,1,0,0:0:0:0:
384,157,32951,1,0,0:0:0:0:
375,147,33028,6,0,P|321:153|286:142,1,71.9999978027344
168,272,33335,2,0,L|124:333,1,71.9999978027344
100,90,33643,2,0,P|149:100|175:130,1,71.9999978027344,0|0,0:0|0:0,0:0:0:0:
251,180,33951,1,0,0:0:0:0:
375,146,34105,2,0,L|421:88,1,71.9999978027344
416,236,34412,5,0,0:0:0:0:
253,277,34566,2,0,P|238:321|209:348,1,71.9999978027344
168,272,34874,2,0,L|84:228,1,71.9999978027344
292,63,35181,1,0,0:0:0:0:
300,83,35258,1,0,0:0:0:0:
301,106,35335,1,0,0:0:0:0:
292,131,35412,1,0,0:0:0:0:
280,149,35489,2,0,L|230:206,1,71.9999978027344
306,329,35797,6,0,L|416:236,1,143.999995605469
479,303,36258,1,0,0:0:0:0:
399,148,36412,1,0,0:0:0:0:
399,148,36489,1,0,0:0:0:0:
399,148,36566,2,0,P|383:86|388:62,1,71.9999978027344
459,53,36874,1,0,0:0:0:0:
281,81,37028,5,0,0:0:0:0:
137,187,37181,1,0,0:0:0:0:
260,319,37335,2,0,P|322:301|351:301,1,71.9999978027344
450,230,37643,2,0,P|440:265|418:293,1,71.9999978027344
261,318,37951,2,0,L|178:287,1,71.9999978027344
70,211,38258,2,0,L|167:176,1,71.9999978027344
365,158,38566,5,0,0:0:0:0:
356,149,38643,1,0,0:0:0:0:
347,140,38720,1,0,0:0:0:0:
256,58,38874,2,0,P|197:58|169:72,2,71.9999978027344,0|0|0,0:0|0:0|0:0,0:0:0:0:
365,158,39335,1,0,0:0:0:0:
195,173,39489,5,0,0:0:0:0:
195,173,39643,2,0,B|182:197|182:197|175:232|175:232|161:262,1,83.9999974365235
319,266,40105,1,0,0:0:0:0:
357,179,40412,2,0,L|369:149,5,22.0000006713867,0|0|0|0|0|0,0:0|0:0|0:0|0:0|0:0|0:0,0:0:0:0:
375,132,40720,6,0,P|362:77|335:35,1,99.0000030212403
266,83,41181,1,0,0:0:0:0:
119,83,41335,2,0,P|170:108|204:106,2,66.0000020141602,0|0|0,0:0|0:0|0:0,0:0:0:0:
196,236,41951,5,0,0:0:0:0:
196,236,42105,2,0,P|216:286|244:308,1,83.9999974365235
344,72,42566,1,0,0:0:0:0:
412,250,42874,2,0,L|401:290,5,22.0000006713867,0|0|0|0|0|0,0:0|0:0|0:0|0:0|0:0|0:0,0:0:0:0:
393,297,43181,6,0,P|353:318|324:321,1,66.0000020141602
129,128,43489,1,0,0:0:0:0:
303,200,43643,1,0,0:0:0:0:
151,305,43797,1,0,0:0:0:0:
129,128,44412,5,0,0:0:0:0:
209,97,44566,2,0,L|287:62,1,83.9999974365235
439,136,45028,1,0,0:0:0:0:
285,64,45335,2,0,L|260:87,1,22.0000006713867
283,93,45438,2,0,L|259:114,1,22.0000006713867
277,125,45540,2,0,L|247:152,1,22.0000006713867
257,155,45643,6,0,B|247:185|247:185|249:231|226:267,1,99.0000030212403
168,317,46105,1,0,0:0:0:0:
250,345,46258,2,0,P|291:350|321:343,1,66.0000020141602
89,284,46566,1,0,0:0:0:0:
227,173,46874,5,0,0:0:0:0:
227,173,47028,2,0,B|241:204|241:204|260:221|260:221|271:246,1,83.9999974365235
313,312,47489,1,0,0:0:0:0:
89,284,47797,2,0,L|75:314,5,22.0000006713867,0|0|0|0|0|0,0:0|0:0|0:0|0:0|0:0|0:0,0:0:0:0:
98,278,48105,6,0,P|137:254|165:255,1,66.0000020141602
111,126,48412,2,0,L|148:66,1,66.0000020141602
271,63,48720,2,0,P|389:96|423:179,1,198.000006042481
363,276,49335,5,0,0:0:0:0:
362,278,49489,2,0,B|338:290|337:290|302:292|280:333,1,83.9999974365235
166,287,49951,1,0,0:0:0:0:
100,106,50258,2,0,L|88:77,1,22.0000006713867
135,115,50361,2,0,L|123:86,1,22.0000006713867
176,126,50463,2,0,L|164:97,1,22.0000006713867
211,134,50566,6,0,P|279:168|317:218,1,132.00000402832
279,335,51028,1,0,0:0:0:0:
166,287,51181,2,0,P|124:276|98:279,2,66.0000020141602,0|0|0,0:0|0:0|0:0,0:0:0:0:
331,163,51797,5,0,0:0:0:0:
331,163,51951,2,0,P|304:116|302:74,1,83.9999974365235
358,34,52412,1,0,0:0:0:0:
432,252,52720,2,0,L|411:283,5,22.0000006713867,0|0|0|0|0|0,0:0|0:0|0:0|0:0|0:0|0:0,0:0:0:0:
372,327,53028,5,0,0:0:0:0:
332,163,53181,1,0,0:0:0:0:
299,257,53335,1,0,0:0:0:0:
425,144,53488,1,0,0:0:0:0:
433,252,53643,1,0,0:0:0:0:
299,257,54258,5,0,0:0:0:0:
224,182,54412,2,0,P|207:205|196:262,1,83.9999974365235
113,181,54874,1,0,0:0:0:0:
278,96,55181,2,0,L|249:74,5,22.0000006713867,0|0|0|0|0|0,0:0|0:0|0:0|0:0|0:0|0:0,0:0:0:0:
296,108,55489,6,0,P|349:113|376:107,1,66.0000020141602,0|0,0:0|0:0,0:0:0:0:
224,182,55797,2,0,L|165:238,1,66.0000020141602
260,316,56105,1,0,0:0:0:0:
459,244,56258,1,0,0:0:0:0:
296,108,56412,1,0,0:0:0:0:
398,79,56720,5,0,0:0:0:0:
398,79,56874,2,0,B|414:116|414:116|418:137|418:137|432:165,1,83.9999974365235
459,244,57335,1,0,0:0:0:0:
290,271,57643,2,0,L|265:304,1,22.0000006713867
275,231,57746,2,0,L|259:253,1,22.0000006713867
266,193,57848,2,0,L|242:222,1,22.0000006713867
252,158,57951,6,0,L|299:105,1,66.0000020141602
92,83,58258,2,0,P|60:68|28:36,1,66.0000020141602
135,282,58566,2,0,P|241:343|335:331,1,198.000006042481
424,231,59181,6,0,B|424:193|424:193|407:159|407:159|407:114,1,107.999996704102
319,63,59643,1,0,0:0:0:0:
213,86,59797,1,0,0:0:0:0:
143,166,59951,2,0,P|108:196|86:205,1,53.9999983520508
175,326,60258,1,0,0:0:0:0:
419,290,60412,6,0,B|383:276|383:276|352:252|352:252|305:237,1,107.999996704102
213,85,60874,2,0,P|224:127|222:159,1,53.9999983520508
143,244,61181,1,0,0:0:0:0:
131,256,61258,1,0,0:0:0:0:
119,263,61335,2,0,P|83:277|53:280,1,53.9999983520508
291,316,61643,5,0,0:0:0:0:
380,188,61797,1,0,0:0:0:0:
371,176,61874,1,0,0:0:0:0:
363,165,61951,1,0,0:0:0:0:
355,155,62028,1,0,0:0:0:0:
345,141,62105,2,0,P|311:112|299:107,1,53.9999983520508
239,307,62412,2,0,B|252:316|281:313|281:313|307:322,1,53.9999983520508
219,210,62720,5,0,0:0:0:0:
89,189,62874,2,0,L|58:148,4,26.9999991760254,0|0|0|0|0,0:0|0:0|0:0|0:0|0:0,0:0:0:0:
241,118,63335,2,0,P|263:80|262:58,1,53.9999983520508
267,41,63643,1,0,0:0:0:0:
363,207,63797,2,0,P|359:256|401:320,1,107.999996704102
457,237,64258,5,0,0:0:0:0:
229,194,64412,1,0,0:0:0:0:
219,209,64489,1,0,0:0:0:0:
214,227,64566,2,0,P|208:258|213:285,1,53.9999983520508
330,313,64874,1,0,0:0:0:0:
363,206,65028,2,0,P|396:212|423:210,1,53.9999983520508
286,120,65335,5,0,0:0:0:0:
192,62,65489,1,0,0:0:0:0:
192,62,65566,1,0,0:0:0:0:
192,62,65643,1,0,0:0:0:0:
192,62,65720,1,0,0:0:0:0:
192,62,65797,2,0,L|144:108,1,53.9999983520508
229,195,66105,5,0,0:0:0:0:
253,297,66258,1,0,0:0:0:0:
265,302,66335,1,0,0:0:0:0:
277,306,66412,2,0,P|312:313|339:312,1,53.9999983520508
341,97,69028,6,0,P|373:100|404:93,1,53.9999983520508
215,178,69335,2,0,P|168:179|153:188,1,53.9999983520508
334,203,69643,1,0,0:0:0:0:
341,212,69720,1,0,0:0:0:0:
349,220,69797,1,0,0:0:0:0:
360,227,69874,1,0,0:0:0:0:
369,233,69951,2,0,P|418:249|442:248,1,53.9999983520508
128,100,70258,6,0,L|66:60,1,53.9999983520508
146,288,70566,1,0,0:0:0:0:
227,194,70720,1,0,0:0:0:0:
362,164,70874,2,0,P|400:161|423:153,2,53.9999983520508,0|0|0,0:0|0:0|0:0,0:0:0:0:
152,84,71335,1,0,0:0:0:0:
194,254,71489,6,0,B|184:287|184:287|172:307,1,53.9999983520508
314,208,71797,2,0,B|354:217|354:217|389:220,1,53.9999983520508,0|0,0:0|0:0,0:0:0:0:
455,199,72105,1,0,0:0:0:0:
499,121,72258,1,0,0:0:0:0:
418,62,72412,2,0,P|376:53|362:40,1,53.9999983520508
175,94,72720,5,0,0:0:0:0:
99,274,72874,1,0,0:0:0:0:
99,274,72951,1,0,0:0:0:0:
99,274,73028,2,0,P|144:300|152:310,1,53.9999983520508
268,168,73335,1,0,0:0:0:0:
445,178,73489,1,0,0:0:0:0:
346,318,73643,2,0,P|309:300|288:283,1,53.9999983520508
273,203,73951,6,0,P|227:229|206:288,1,107.999996704102
209,289,74335,1,0,0:0:0:0:
213,299,74412,1,0,0:0:0:0:
346,319,74566,2,0,P|393:306|413:292,1,53.9999983520508
260,108,74874,2,0,L|228:58,1,53.9999983520508
91,196,75181,5,0,0:0:0:0:
224,328,75335,1,0,0:0:0:0:
224,328,75412,1,0,0:0:0:0:
224,328,75489,1,0,0:0:0:0:
366,213,75643,2,0,P|390:183|396:155,2,53.9999983520508,0|0|0,0:0|0:0|0:0,0:0:0:0:
295,255,76105,2,0,P|265:280|251:314,1,53.9999983520508
254,304,76335,1,0,0:0:0:0:
253,315,76412,1,0,0:0:0:0:
394,167,76566,5,0,0:0:0:0:
394,167,76643,1,0,0:0:0:0:
394,167,76720,2,0,P|380:136|367:118,1,53.9999983520508
149,202,77028,2,0,P|135:249|121:268,1,53.9999983520508
265,89,77335,1,0,0:0:0:0:
283,77,77412,1,0,0:0:0:0:
306,73,77489,1,0,0:0:0:0:
256,192,77643,12,0,78720,0:0:0:0:
298,259,78874,6,0,P|357:278|391:312,1,96
381,299,79335,1,0,0:0:0:0:
432,193,79489,2,0,L|464:137,1,48
422,69,79797,1,0,0:0:0:0:
330,75,79951,2,0,B|309:97|276:96|276:96|223:115,1,96
196,225,80412,6,0,L|150:240,1,48
243,107,80720,2,0,L|288:90,1,48
368,245,81028,2,0,L|310:217,1,48
249,195,81335,1,0,0:0:0:0:
48,258,81540,1,0,0:0:0:0:
169,47,81746,5,0,0:0:0:0:
340,177,81951,1,0,0:0:0:0:
117,196,82156,1,0,0:0:0:0:
323,318,82361,1,0,0:0:0:0:
386,256,82566,2,0,P|415:213|421:158,1,96
204,146,83181,5,0,0:0:0:0:
204,146,83335,2,0,P|262:167|302:170,1,96
219,41,83797,2,0,L|161:58,1,48,0|0,0:0|0:0,0:0:0:0:
108,118,84105,1,0,0:0:0:0:
187,172,84258,2,0,P|197:218|182:279,1,96
374,198,84720,2,0,P|404:187|432:187,1,48
338,279,85028,5,0,0:0:0:0:
227,305,85181,1,0,0:0:0:0:
128,247,85335,2,0,P|87:233|68:231,1,48
12,227,85643,1,0,0:0:0:0:
227,305,85797,2,0,B|243:286|243:286|273:266|273:266|301:227,1,96
449,82,86258,6,0,L|444:145,1,48
378,197,86566,1,0,0:0:0:0:
438,288,86720,1,0,0:0:0:0:
356,347,86874,5,0,0:0:0:0:
123,223,87079,1,0,0:0:0:0:
340,79,87284,1,0,0:0:0:0:
73,66,87489,5,0,0:0:0:0:
275,193,87694,1,0,0:0:0:0:
64,354,87899,1,0,0:0:0:0:
61,179,88105,1,0,0:0:0:0:
161,85,88310,2,0,P|203:67|231:64,1,64
326,83,88720,5,0,0:0:0:0:
336,94,89181,2,0,P|376:127|401:137,1,60
242,169,89643,2,0,L|175:159,1,60
89,203,89951,1,0,0:0:0:0:
217,307,90105,5,0,0:0:0:0:
332,319,90258,2,0,P|352:285|376:271,1,60
436,197,90566,1,0,0:0:0:0:
436,197,90720,2,0,L|441:129,1,60
241,171,91028,5,0,0:0:0:0:
236,186,91105,1,0,0:0:0:0:
229,199,91181,2,0,P|193:225|173:231,1,60
327,101,91643,2,0,L|389:78,1,60
239,300,92105,2,0,L|182:320,1,60
280,196,92412,5,0,0:0:0:0:
365,140,92566,2,0,P|394:141|437:123,2,60,0|0|0,0:0|0:0|0:0,0:0:0:0:
237,80,93028,2,0,P|204:53|167:43,1,60
74,126,93335,1,0,0:0:0:0:
172,245,93489,1,0,0:0:0:0:
166,258,93566,1,0,0:0:0:0:
162,271,93643,6,0,P|112:288|101:295,1,60
335,183,93951,1,0,0:0:0:0:
378,254,94105,2,0,L|413:314,1,60
399,51,94566,2,0,L|434:111,1,60
314,236,94874,6,0,P|318:206|335:181,1,60
246,65,95181,2,0,L|161:73,1,60
59,212,95489,1,0,0:0:0:0:
240,206,95643,1,0,0:0:0:0:
366,335,95797,1,0,0:0:0:0:
376,331,95874,1,0,0:0:0:0:
385,325,95951,1,0,0:0:0:0:
394,319,96028,1,0,0:0:0:0:
401,313,96105,6,0,P|429:278|437:249,1,60,0|0,0:0|0:0,0:0:0:0:
291,112,96412,2,0,P|257:98|216:98,1,60
89,241,96720,2,0,L|171:302,1,80
392,186,97130,1,0,0:0:0:0:
392,186,97335,6,0,P|337:195|293:184,1,80
241,158,97746,1,0,0:0:0:0:
173,54,97951,2,0,P|235:39|277:51,1,80
156,221,98412,6,0,L|92:333,1,120
174,117,98874,1,0,0:0:0:0:
174,117,99181,2,0,P|225:112|246:99,1,60
358,169,99643,2,0,P|380:238|368:306,1,120
240,327,100105,1,0,0:0:0:0:
240,327,100412,6,0,L|178:310,2,60,0|0|0,0:0|0:0|0:0,0:0:0:0:
420,227,100874,1,0,0:0:0:0:
196,55,101335,1,0,0:0:0:0:
196,55,101643,2,0,P|163:94|135:115,1,60
176,337,102105,6,0,L|142:288,1,60
333,194,102412,2,0,P|305:205|283:225,1,60
375,335,102720,2,0,P|403:324|426:305,1,60
309,168,103028,2,0,P|255:213|231:269,1,120
231,269,103412,1,0,0:0:0:0:
233,281,103489,1,0,0:0:0:0:
445,295,103643,5,0,0:0:0:0:
357,252,103797,2,0,P|361:209|351:178,1,60
454,59,104105,1,0,0:0:0:0:
397,115,104258,2,0,B|366:98|318:113|318:113|278:107,1,120
226,46,104720,1,0,0:0:0:0:
156,187,104951,1,0,0:0:0:0:
1,169,105181,1,0,0:0:0:0:
27,267,105335,6,0,P|63:294|81:333,1,60
281,208,105643,2,0,L|303:134,1,60
374,83,105951,1,0,0:0:0:0:
400,294,106105,1,0,0:0:0:0:
397,307,106181,1,0,0:0:0:0:
394,322,106258,2,0,P|342:330|322:326,1,60
121,123,106566,6,0,B|126:151|126:151|147:195|147:195|155:246,1,120
292,288,107028,1,0,0:0:0:0:
386,170,107181,2,0,P|417:132|437:119,1,60
293,288,107489,2,0,L|215:288,1,60
250,153,107797,6,0,P|214:98|215:55,1,107.999996704102
383,49,108412,2,0,L|302:73,1,71.9999978027344
125,282,108720,2,0,L|206:258,1,71.9999978027344
392,311,109028,1,0,0:0:0:0:
392,311,109105,1,0,0:0:0:0:
392,311,109181,1,0,0:0:0:0:
399,213,109335,2,0,L|346:163,1,71.9999978027344
269,133,109643,5,0,0:0:0:0:
191,178,109797,1,0,0:0:0:0:
108,157,109951,2,0,P|71:148|32:153,1,71.9999978027344
11,68,110258,1,0,0:0:0:0:
80,289,110412,1,0,0:0:0:0:
80,289,110566,2,0,B|122:307|122:307|144:322,1,71.9999978027344
330,312,110874,5,0,0:0:0:0:
436,196,111028,1,0,0:0:0:0:
361,44,111181,2,0,P|317:51|290:47,1,71.9999978027344
145,103,111489,1,0,0:0:0:0:
263,209,111643,1,0,0:0:0:0:
259,356,111797,2,0,B|308:343|308:343|335:329,1,71.9999978027344
387,272,112105,6,0,L|386:190,1,71.9999978027344
271,61,112412,2,0,L|271:141,1,71.9999978027344
214,193,112720,1,0,0:0:0:0:
138,160,112874,1,0,0:0:0:0:
61,189,113028,1,0,0:0:0:0:
61,189,113105,1,0,0:0:0:0:
61,189,113181,1,0,0:0:0:0:
144,288,113335,6,0,L|193:353,1,71.9999978027344
270,290,113643,1,0,0:0:0:0:
316,195,113797,2,0,P|359:180|391:179,1,71.9999978027344
451,293,114105,1,0,0:0:0:0:
358,264,114258,2,0,L|267:122,1,143.999995605469
280,37,114720,1,0,0:0:0:0:
137,86,114874,5,0,0:0:0:0:
128,97,114951,1,0,0:0:0:0:
122,110,115028,2,0,P|109:153|107:187,1,71.9999978027344
170,245,115335,2,0,P|117:272|37:240,1,143.999995605469
260,332,115797,2,0,L|337:332,1,71.9999978027344
234,113,116258,2,0,P|178:102|140:114,1,71.9999978027344
273,236,116720,2,0,P|310:274|346:290,1,71.9999978027344
140,195,117181,2,0,L|68:249,1,71.9999978027344
290,62,117643,5,0,0:0:0:0:
437,179,117797,1,0,0:0:0:0:
272,237,117951,2,0,P|216:226|186:233,1,71.9999978027344
79,304,118258,1,0,0:0:0:0:
79,304,118335,1,0,0:0:0:0:
79,304,118412,1,0,0:0:0:0:
158,173,118566,5,0,0:0:0:0:
252,307,118720,1,0,0:0:0:0:
430,241,118874,1,0,0:0:0:0:
301,187,119028,1,0,0:0:0:0:
448,85,119181,1,0,0:0:0:0:
233,43,119335,1,0,0:0:0:0:
131,104,119489,6,0,P|140:159|133:187,1,71.9999978027344
130,188,119720,1,0,0:0:0:0:
122,200,119797,1,0,0:0:0:0:
191,293,119951,2,0,B|246:293|246:293|293:307|293:307|343:307,1,143.999995605469
421,240,120412,2,0,P|405:201|401:166,1,71.9999978027344
240,68,120720,6,0,L|166:110,1,71.9999978027344
114,267,121028,1,0,0:0:0:0:
285,328,121181,1,0,0:0:0:0:
358,167,121335,1,0,0:0:0:0:
239,139,121489,5,0,0:0:0:0:
200,341,121643,1,0,0:0:0:0:
360,273,121797,1,0,0:0:0:0:
143,207,121951,2,0,P|100:178|80:152,1,71.9999978027344
322,68,122258,2,0,L|406:68,1,71.9999978027344
465,186,122566,5,0,0:0:0:0:
303,208,122720,1,0,0:0:0:0:
194,328,122874,1,0,0:0:0:0:
194,328,122951,1,0,0:0:0:0:
194,328,123028,2,0,P|141:308|53:307,1,143.999995605469
124,119,123489,2,0,B|134:61|134:61|133:40,1,71.9999978027344
257,126,123797,5,0,0:0:0:0:
410,175,123951,1,0,0:0:0:0:
361,328,124105,1,0,0:0:0:0:
208,279,124258,1,0,0:0:0:0:
280,122,124412,1,0,0:0:0:0:
423,194,124566,1,0,0:0:0:0:
429,205,124643,1,0,0:0:0:0:
436,214,124720,2,0,P|421:263|416:299,1,71.9999978027344
225,340,125028,6,0,P|246:296|253:257,1,71.9999978027344
323,214,125335,1,0,0:0:0:0:
280,122,125489,1,0,0:0:0:0:
52,75,125643,1,0,0:0:0:0:
95,167,125797,1,0,0:0:0:0:
190,215,125951,2,0,P|212:256|208:299,1,71.9999978027344
333,281,126258,5,0,0:0:0:0:
462,161,126412,1,0,0:0:0:0:
291,108,126566,1,0,0:0:0:0:
276,114,126643,1,0,0:0:0:0:
260,117,126720,2,0,P|171:114|121:88,1,143.999995605469
151,280,127181,5,0,0:0:0:0:
155,289,127258,1,0,0:0:0:0:
160,297,127335,1,0,0:0:0:0:
164,305,127412,1,0,0:0:0:0:
168,314,127489,1,0,0:0:0:0:
272,320,127643,2,0,P|326:308|359:315,1,71.9999978027344
468,203,127951,1,0,0:0:0:0:
218,74,128105,6,0,P|106:87|97:149,1,180
166,211,128720,1,0,0:0:0:0:
207,299,128874,2,0,P|257:308|293:306,1,60
381,144,129181,1,0,0:0:0:0:
461,235,129335,2,0,P|415:241|378:236,1,60
205,78,129643,1,0,0:0:0:0:
205,78,129720,1,0,0:0:0:0:
205,78,129797,1,0,0:0:0:0:
247,169,129951,6,0,B|204:217|204:217|176:276|176:276|126:327,1,180
358,273,130566,1,0,0:0:0:0:
368,280,130643,1,0,0:0:0:0:
380,285,130720,2,0,P|420:293|435:303,1,60
347,95,131028,2,0,L|313:43,1,60
141,67,131335,1,0,0:0:0:0:
185,195,131489,5,0,0:0:0:0:
129,302,131643,2,0,P|91:323|63:331,1,60
272,284,131951,1,0,0:0:0:0:
281,283,132028,1,0,0:0:0:0:
291,283,132105,1,0,0:0:0:0:
301,284,132181,1,0,0:0:0:0:
310,288,132258,2,0,P|354:314|365:330,1,60
404,223,132566,5,0,0:0:0:0:
401,207,132642,1,0,0:0:0:0:
399,192,132719,1,0,0:0:0:0:
397,177,132796,1,0,0:0:0:0:
394,163,132873,1,0,0:0:0:0:
297,119,133028,2,0,P|255:147|184:150,1,120
125,246,133489,6,0,L|150:301,1,60
188,115,133797,1,0,0:0:0:0:
411,185,133951,1,0,0:0:0:0:
411,185,134028,1,0,0:0:0:0:
407,182,134105,2,0,P|387:159|361:143,1,60
236,169,134412,2,0,B|192:205|192:205|163:209|118:197,1,120
73,126,134874,5,0,0:0:0:0:
280,49,135181,1,0,0:0:0:0:
414,206,135489,2,0,L|480:317,1,120
270,272,135951,2,0,L|208:168,1,120
310,133,136412,2,0,P|382:125|415:94,1,120
98,126,136874,2,0,B|130:143|130:143|171:150|171:150|210:171,1,120
318,72,137335,5,0,0:0:0:0:
428,277,137489,1,0,0:0:0:0:
394,169,137643,1,0,0:0:0:0:
201,298,137797,1,0,0:0:0:0:
105,224,137951,6,0,P|92:183|92:147,1,60
194,75,138258,1,0,0:0:0:0:
194,75,138335,1,0,0:0:0:0:
194,75,138412,1,0,0:0:0:0:
326,255,138566,2,0,P|281:237|245:234,1,60
114,290,138874,1,0,0:0:0:0:
103,303,138951,1,0,0:0:0:0:
91,317,139028,1,0,0:0:0:0:
270,236,139181,6,0,P|333:218|391:242,1,120
328,359,139643,2,0,L|329:295,1,60
240,117,139951,2,0,L|193:153,1,60
107,142,140258,1,0,0:0:0:0:
107,142,140335,1,0,0:0:0:0:
107,142,140412,2,0,P|126:208|186:235,1,120
270,236,140874,6,0,P|309:234|344:246,1,60
421,179,141181,1,0,0:0:0:0:
304,60,141335,1,0,0:0:0:0:
285,68,141412,1,0,0:0:0:0:
263,69,141489,1,0,0:0:0:0:
241,66,141566,1,0,0:0:0:0:
222,57,141643,2,0,P|168:49|141:56,1,60
333,177,141951,2,0,L|394:177,1,60
235,292,142258,5,0,0:0:0:0:
56,93,142412,2,0,L|116:93,1,60
238,180,142720,1,0,0:0:0:0:
336,314,142874,2,0,P|408:292|416:250,1,120
415,246,143258,1,0,0:0:0:0:
412,235,143335,1,0,0:0:0:0:
408,224,143412,1,0,0:0:0:0:
405,214,143489,1,0,0:0:0:0:
255,86,143643,6,0,P|207:103|178:101,1,60
184,101,143874,1,0,0:0:0:0:
170,97,143951,1,0,0:0:0:0:
107,227,144105,2,0,B|135:264|135:264|171:271|212:310,1,120
345,98,144720,2,0,P|287:138|234:152,1,120
325,255,145335,6,0,P|401:276|440:309,1,107.999996704102
281,132,145797,1,0,0:0:0:0:
167,201,145951,2,0,L|105:241,1,53.9999983520508
281,132,146258,1,0,0:0:0:0:
293,133,146335,1,0,0:0:0:0:
306,138,146412,1,0,0:0:0:0:
316,146,146489,1,0,0:0:0:0:
325,156,146566,6,0,L|336:177,5,13.4999995880127,0|0|0|0|0|0,0:0|0:0|0:0|0:0|0:0|0:0,0:0:0:0:
190,303,146874,1,0,0:0:0:0:
151,118,147028,1,0,0:0:0:0:
146,105,147105,1,0,0:0:0:0:
138,93,147181,2,0,L|124:76,8,13.4999995880127,0|0|0|0|0|0|0|0|0,0:0|0:0|0:0|0:0|0:0|0:0|0:0|0:0|0:0,0:0:0:0:
