osu file format v13

[General]
AudioFilename: little_game_star.mp3
AudioLeadIn: 0
PreviewTime: 77957
Countdown: 0
SampleSet: None
StackLeniency: 0.6
Mode: 3
LetterboxInBreaks: 0
SpecialStyle: 0
WidescreenStoryboard: 1

[Editor]
Bookmarks: 20538,38398,78584,96445
DistanceSpacing: 1
BeatDivisor: 4
GridSize: 4
TimelineZoom: 2.1

[Metadata]
Title:LittleGameStar
TitleUnicode:LittleGameStar
Artist:An
ArtistUnicode:An
Creator:Ichigaki
Version:ADVANCED Lv.11
Source:SOUND VOLTEX II -infinite infection-
Tags:SDVX II Konami Arcade Championship 2013 KAC2013 Original Song Contest ichia7x
BeatmapID:492852
BeatmapSetID:208999

[Difficulty]
HPDrainRate:8
CircleSize:4
OverallDifficulty:8
ApproachRate:8
SliderMultiplier:1
SliderTickRate:1

[Events]
//Background and Video events
0,0,"bg.jpg",0,0
//Break Periods
//Storyboard Layer 0 (Background)
//Storyboard Layer 1 (Fail)
//Storyboard Layer 2 (Pass)
//Storyboard Layer 3 (Foreground)
//Storyboard Sound Samples

[TimingPoints]
2678,279.06976744186,4,2,1,20,1,0
20538,-100,4,2,1,40,0,1
38398,-100,4,2,1,40,0,0
75654,-100,4,2,1,23,0,0
78584,-100,4,2,1,40,0,1
96445,-100,4,2,1,40,0,0

[Colours]
Combo1 : 255,255,70
Combo2 : 255,111,111
Combo3 : 255,111,40

[HitObjects]
192,192,584,128,0,2678:0:0:0:8:
448,192,2678,1,4,0:0:0:0:
64,192,2678,1,0,0:0:0:0:
320,192,2817,1,0,0:0:0:0:
192,192,2957,1,4,0:0:0:0:
64,192,2957,1,0,0:0:0:0:
320,192,3096,1,0,0:0:0:0:
192,192,3236,1,0,0:0:0:0:
64,192,3375,1,0,0:0:0:0:
448,192,3375,1,4,0:0:0:0:
192,192,3515,1,0,0:0:0:0:
320,192,3654,1,4,0:0:0:0:
448,192,3654,1,0,0:0:0:0:
192,192,3794,1,0,0:0:0:0:
320,192,3933,1,0,0:0:0:0:
192,192,4073,1,0,0:0:0:0:
64,192,4212,1,0,0:0:0:0:
448,192,4212,1,4,0:0:0:0:
320,192,4491,1,0,0:0:0:0:
448,192,4631,1,4,0:0:0:0:
192,192,4631,1,0,0:0:0:0:
192,192,4910,1,0,0:0:0:0:
448,192,4910,1,4,0:0:0:0:
192,192,5050,1,0,0:0:0:0:
448,192,5050,1,4,0:0:0:0:
64,192,5189,1,0,0:0:0:0:
320,192,5329,1,0,0:0:0:0:
448,192,5329,1,4,0:0:0:0:
192,192,5468,1,0,0:0:0:0:
320,192,5608,1,0,0:0:0:0:
64,192,5608,1,4,0:0:0:0:
448,192,5747,1,0,0:0:0:0:
320,192,5887,1,0,0:0:0:0:
64,192,5887,1,4,0:0:0:0:
192,192,6026,1,0,0:0:0:0:
320,192,6166,1,0,0:0:0:0:
192,192,6305,1,4,0:0:0:0:
448,192,6305,1,0,0:0:0:0:
64,192,6445,1,0,0:0:0:0:
192,192,6584,1,0,0:0:0:0:
320,192,6724,1,4,0:0:0:0:
448,192,6724,1,0,0:0:0:0:
192,192,6864,1,0,0:0:0:0:
448,192,7003,1,0,0:0:0:0:
320,192,7143,1,4,0:0:0:0:
64,192,7143,1,0,0:0:0:0:
320,192,7282,1,4,0:0:0:0:
64,192,7282,1,0,0:0:0:0:
192,192,7422,1,0,0:0:0:0:
64,192,7561,1,4,0:0:0:0:
448,192,7561,1,0,0:0:0:0:
192,192,7701,1,0,0:0:0:0:
320,192,7840,1,4,0:0:0:0:
64,192,7840,1,0,0:0:0:0:
448,192,7980,1,0,0:0:0:0:
320,192,8119,1,0,0:0:0:0:
64,192,8119,1,4,0:0:0:0:
192,192,8259,1,0,0:0:0:0:
320,192,8398,1,0,0:0:0:0:
448,192,8538,1,0,0:0:0:0:
320,192,8677,1,4,0:0:0:0:
64,192,8677,1,0,0:0:0:0:
64,192,8957,1,0,0:0:0:0:
192,192,9096,1,0,0:0:0:0:
448,192,9096,1,4,0:0:0:0:
192,192,9375,1,4,0:0:0:0:
64,192,9375,1,0,0:0:0:0:
320,192,9515,1,0,0:0:0:0:
448,192,9654,128,0,11608:0:0:0:0:
192,192,9654,1,4,0:0:0:0:
64,192,9794,1,0,0:0:0:0:
192,192,9933,1,0,0:0:0:0:
320,192,10073,1,0,0:0:0:0:
192,192,10212,1,0,0:0:0:0:
64,192,10352,1,0,0:0:0:0:
320,192,10352,1,4,0:0:0:0:
192,192,10631,1,0,0:0:0:0:
64,192,10631,1,4,0:0:0:0:
64,192,10910,1,4,0:0:0:0:
192,192,10910,1,0,0:0:0:0:
320,192,11189,1,4,0:0:0:0:
192,192,11189,1,0,0:0:0:0:
192,192,11468,1,4,0:0:0:0:
64,192,11468,1,0,0:0:0:0:
320,192,11608,1,8,0:0:0:0:
192,192,11608,1,4,0:0:0:0:
64,192,11608,1,0,0:0:0:0:
448,192,11747,1,0,0:0:0:0:
320,192,11887,1,4,0:0:0:0:
64,192,11887,1,0,0:0:0:0:
192,192,12026,1,0,0:0:0:0:
448,192,12166,1,8,0:0:0:0:
64,192,12166,1,4,0:0:0:0:
320,192,12305,1,0,0:0:0:0:
64,192,12584,1,0,0:0:0:0:
320,192,12584,1,4,0:0:0:0:
448,192,12724,1,0,0:0:0:0:
64,192,12864,1,0,0:0:0:0:
192,192,13003,1,0,0:0:0:0:
320,192,13003,1,4,0:0:0:0:
64,192,13143,1,0,0:0:0:0:
320,192,13282,1,8,0:0:0:0:
448,192,13282,1,4,0:0:0:0:
192,192,13422,1,0,0:0:0:0:
448,192,13561,1,0,0:0:0:0:
64,192,13701,1,0,0:0:0:0:
192,192,13701,1,4,0:0:0:0:
320,192,13840,1,4,0:0:0:0:
448,192,13840,1,0,0:0:0:0:
192,192,13980,1,0,0:0:0:0:
64,192,14119,1,4,0:0:0:0:
448,192,14119,1,0,0:0:0:0:
320,192,14259,1,0,0:0:0:0:
192,192,14398,1,4,0:0:0:0:
64,192,14398,1,8,0:0:0:0:
320,192,14538,1,0,0:0:0:0:
192,192,14817,1,0,0:0:0:0:
448,192,14817,1,4,0:0:0:0:
320,192,14957,1,0,0:0:0:0:
64,192,15096,1,0,0:0:0:0:
320,192,15236,1,4,0:0:0:0:
192,192,15236,1,0,0:0:0:0:
448,192,15375,1,0,0:0:0:0:
192,192,15515,1,8,0:0:0:0:
64,192,15515,1,4,0:0:0:0:
320,192,15654,1,0,0:0:0:0:
192,192,15794,1,0,0:0:0:0:
320,192,15933,1,4,0:0:0:0:
448,192,15933,1,0,0:0:0:0:
64,192,16073,1,0,0:0:0:0:
192,192,16073,1,4,0:0:0:0:
448,192,16212,1,0,0:0:0:0:
64,192,16352,1,0,0:0:0:0:
192,192,16352,1,4,0:0:0:0:
320,192,16491,1,0,0:0:0:0:
192,192,16631,1,8,0:0:0:0:
448,192,16631,1,4,0:0:0:0:
64,192,16771,1,0,0:0:0:0:
320,192,17050,1,0,0:0:0:0:
192,192,17050,1,4,0:0:0:0:
448,192,17189,1,0,0:0:0:0:
64,192,17329,1,0,0:0:0:0:
192,192,17468,1,0,0:0:0:0:
448,192,17468,1,4,0:0:0:0:
320,192,17608,1,0,0:0:0:0:
192,192,17747,1,4,0:0:0:0:
64,192,17747,1,8,0:0:0:0:
320,192,17887,1,0,0:0:0:0:
448,192,18026,1,0,0:0:0:0:
64,192,18166,1,4,0:0:0:0:
320,192,18166,1,0,0:0:0:0:
192,192,18305,1,4,0:0:0:0:
448,192,18305,128,0,19980:0:0:0:0:
64,192,18445,1,0,0:0:0:0:
192,192,18584,1,4,0:0:0:0:
320,192,18584,1,0,0:0:0:0:
64,192,18724,1,0,0:0:0:0:
192,192,18864,1,8,0:0:0:0:
320,192,19003,1,0,0:0:0:0:
64,192,19143,1,0,0:0:0:0:
192,192,19282,1,4,0:0:0:0:
320,192,19282,1,0,0:0:0:0:
192,192,19561,1,4,0:0:0:0:
192,192,19840,1,4,0:0:0:0:
64,192,19980,1,4,0:0:0:0:
192,192,20050,1,4,0:0:0:0:
320,192,20119,1,4,0:0:0:0:
448,192,20189,1,4,0:0:0:0:
64,192,20259,1,4,0:0:0:0:
192,192,20329,1,4,0:0:0:0:
320,192,20398,1,4,0:0:0:0:
448,192,20468,1,4,0:0:0:0:
192,192,20538,1,0,0:0:0:0:
64,192,20538,1,4,0:0:0:0:
320,192,20538,1,0,0:0:0:0:
448,192,20817,1,4,0:0:0:0:
192,192,20817,1,8,0:0:0:0:
320,192,21236,1,4,0:0:0:0:
64,192,21375,1,4,0:0:0:0:
448,192,21375,1,8,0:0:0:0:
320,192,21515,1,8,0:0:0:0:
192,192,21515,1,4,0:0:0:0:
320,192,21794,1,4,0:0:0:0:
448,192,21933,1,4,0:0:0:0:
64,192,21933,1,8,0:0:0:0:
448,192,22212,1,4,0:0:0:0:
320,192,22352,1,4,0:0:0:0:
64,192,22491,1,8,0:0:0:0:
192,192,22491,1,4,0:0:0:0:
320,192,22771,1,4,0:0:0:0:
192,192,22910,1,4,0:0:0:0:
320,192,23050,1,4,0:0:0:0:
448,192,23050,1,8,0:0:0:0:
64,192,23189,1,4,0:0:0:0:
192,192,23329,1,4,0:0:0:0:
448,192,23468,1,4,0:0:0:0:
192,192,23608,1,4,0:0:0:0:
64,192,23608,1,8,0:0:0:0:
320,192,23747,1,4,0:0:0:0:
192,192,24026,1,4,0:0:0:0:
448,192,24166,1,8,0:0:0:0:
64,192,24166,1,4,0:0:0:0:
192,192,24445,128,4,24724:0:0:0:0:
448,192,24584,1,4,0:0:0:0:
320,192,24724,1,4,0:0:0:0:
64,192,24724,128,0,25003:0:0:0:0:
448,192,24864,1,8,0:0:0:0:
320,192,25003,1,4,0:0:0:0:
64,192,25282,1,4,0:0:0:0:
448,192,25282,1,8,0:0:0:0:
192,192,25701,1,4,0:0:0:0:
320,192,25840,1,4,0:0:0:0:
64,192,25840,1,8,0:0:0:0:
192,192,25980,1,8,0:0:0:0:
448,192,25980,1,4,0:0:0:0:
448,192,26259,1,4,0:0:0:0:
320,192,26398,1,4,0:0:0:0:
64,192,26398,1,8,0:0:0:0:
192,192,26677,1,4,0:0:0:0:
448,192,26817,1,4,0:0:0:0:
320,192,26957,1,4,0:0:0:0:
64,192,26957,1,8,0:0:0:0:
192,192,27236,1,4,0:0:0:0:
64,192,27375,1,4,0:0:0:0:
320,192,27515,1,4,0:0:0:0:
448,192,27515,1,8,0:0:0:0:
320,192,27794,1,4,0:0:0:0:
64,192,27933,1,4,0:0:0:0:
192,192,28073,1,4,0:0:0:0:
448,192,28073,1,8,0:0:0:0:
320,192,28212,1,4,0:0:0:0:
192,192,28491,1,4,0:0:0:0:
448,192,28631,1,4,0:0:0:0:
64,192,28631,1,8,0:0:0:0:
448,192,29050,1,4,0:0:0:0:
320,192,29119,1,4,0:0:0:0:
192,192,29189,1,4,0:0:0:0:
64,192,29259,1,4,0:0:0:0:
192,192,29329,1,8,0:0:0:0:
320,192,29398,1,4,0:0:0:0:
448,192,29468,1,4,0:0:0:0:
64,192,29468,1,4,0:0:0:0:
192,192,29468,1,0,0:0:0:0:
64,192,29747,1,4,0:0:0:0:
320,192,29747,1,8,0:0:0:0:
192,192,30166,1,4,0:0:0:0:
64,192,30305,1,4,0:0:0:0:
320,192,30305,1,8,0:0:0:0:
448,192,30445,1,8,0:0:0:0:
192,192,30445,1,4,0:0:0:0:
320,192,30724,1,4,0:0:0:0:
448,192,30864,1,8,0:0:0:0:
64,192,30864,1,4,0:0:0:0:
192,192,31143,1,4,0:0:0:0:
448,192,31282,1,4,0:0:0:0:
64,192,31422,1,4,0:0:0:0:
320,192,31422,1,8,0:0:0:0:
320,192,31701,1,4,0:0:0:0:
192,192,31840,1,4,0:0:0:0:
448,192,31980,1,8,0:0:0:0:
64,192,31980,1,4,0:0:0:0:
320,192,32119,1,4,0:0:0:0:
192,192,32259,1,4,0:0:0:0:
448,192,32398,1,4,0:0:0:0:
64,192,32538,1,8,0:0:0:0:
192,192,32538,1,4,0:0:0:0:
320,192,32677,1,4,0:0:0:0:
192,192,32957,1,4,0:0:0:0:
64,192,33096,1,4,0:0:0:0:
448,192,33096,1,8,0:0:0:0:
320,192,33375,128,4,33654:0:0:0:0:
64,192,33515,1,4,0:0:0:0:
448,192,33654,128,0,33933:0:0:0:0:
192,192,33654,1,4,0:0:0:0:
64,192,33794,1,8,0:0:0:0:
192,192,33933,1,4,0:0:0:0:
448,192,34212,1,4,0:0:0:0:
64,192,34212,1,8,0:0:0:0:
192,192,34631,1,4,0:0:0:0:
320,192,34771,1,4,0:0:0:0:
64,192,34771,1,8,0:0:0:0:
192,192,34910,1,8,0:0:0:0:
448,192,34910,1,4,0:0:0:0:
320,192,35189,1,4,0:0:0:0:
448,192,35329,1,4,0:0:0:0:
64,192,35329,1,8,0:0:0:0:
192,192,35608,1,4,0:0:0:0:
64,192,35747,1,4,0:0:0:0:
448,192,35887,1,8,0:0:0:0:
320,192,35887,1,4,0:0:0:0:
192,192,36166,1,4,0:0:0:0:
448,192,36305,1,4,0:0:0:0:
320,192,36445,1,4,0:0:0:0:
64,192,36445,1,8,0:0:0:0:
192,192,36724,1,4,0:0:0:0:
320,192,36864,1,4,0:0:0:0:
192,192,37003,1,4,0:0:0:0:
448,192,37003,1,8,0:0:0:0:
64,192,37143,1,4,0:0:0:0:
320,192,37422,1,4,0:0:0:0:
64,192,37561,1,8,0:0:0:0:
448,192,37561,1,4,0:0:0:0:
64,192,37980,1,4,0:0:0:0:
192,192,38050,1,4,0:0:0:0:
320,192,38119,1,4,0:0:0:0:
448,192,38189,1,4,0:0:0:0:
320,192,38259,1,8,0:0:0:0:
192,192,38329,1,4,0:0:0:0:
320,192,38398,1,4,0:0:0:0:
64,192,38398,1,0,0:0:0:0:
448,192,38398,1,0,0:0:0:0:
192,192,38677,1,0,0:0:0:0:
320,192,38677,1,4,0:0:0:0:
448,192,38817,1,0,0:0:0:0:
192,192,38957,1,0,0:0:0:0:
320,192,38957,1,4,0:0:0:0:
192,192,39236,1,0,0:0:0:0:
320,192,39236,1,4,0:0:0:0:
192,192,39515,1,4,0:0:0:0:
320,192,39515,1,0,0:0:0:0:
64,192,39654,1,0,0:0:0:0:
192,192,39794,1,4,0:0:0:0:
320,192,39794,1,0,0:0:0:0:
448,192,39933,1,0,0:0:0:0:
192,192,40073,1,4,0:0:0:0:
320,192,40073,1,0,0:0:0:0:
64,192,40212,1,0,0:0:0:0:
192,192,40352,1,4,0:0:0:0:
320,192,40352,1,0,0:0:0:0:
64,192,40631,1,0,0:0:0:0:
448,192,40631,1,4,0:0:0:0:
320,192,40771,1,0,0:0:0:0:
64,192,40910,1,0,0:0:0:0:
448,192,40910,1,4,0:0:0:0:
192,192,41050,1,0,0:0:0:0:
448,192,41189,1,4,0:0:0:0:
64,192,41189,1,0,0:0:0:0:
320,192,41329,1,0,0:0:0:0:
64,192,41468,1,0,0:0:0:0:
448,192,41468,1,4,0:0:0:0:
192,192,41608,1,0,0:0:0:0:
64,192,41747,1,4,0:0:0:0:
448,192,41747,1,0,0:0:0:0:
320,192,41887,1,0,0:0:0:0:
64,192,42026,1,4,0:0:0:0:
448,192,42026,1,0,0:0:0:0:
192,192,42166,1,0,0:0:0:0:
64,192,42305,1,4,0:0:0:0:
448,192,42305,1,0,0:0:0:0:
320,192,42445,1,0,0:0:0:0:
64,192,42584,1,4,0:0:0:0:
448,192,42584,1,0,0:0:0:0:
192,192,42724,1,0,0:0:0:0:
320,192,42864,1,0,0:0:0:0:
448,192,42864,1,4,0:0:0:0:
64,192,43003,1,0,0:0:0:0:
320,192,43143,1,0,0:0:0:0:
448,192,43143,1,4,0:0:0:0:
192,192,43282,1,0,0:0:0:0:
320,192,43422,1,0,0:0:0:0:
448,192,43422,1,4,0:0:0:0:
64,192,43561,1,0,0:0:0:0:
320,192,43701,1,0,0:0:0:0:
448,192,43701,1,4,0:0:0:0:
192,192,43840,1,0,0:0:0:0:
448,192,43980,1,4,0:0:0:0:
64,192,43980,1,0,0:0:0:0:
320,192,44119,1,0,0:0:0:0:
64,192,44259,1,0,0:0:0:0:
448,192,44259,1,4,0:0:0:0:
192,192,44398,1,0,0:0:0:0:
64,192,44538,1,0,0:0:0:0:
448,192,44538,1,4,0:0:0:0:
320,192,44677,1,0,0:0:0:0:
448,192,44817,1,4,0:0:0:0:
64,192,44817,1,0,0:0:0:0:
192,192,44957,1,0,0:0:0:0:
64,192,45096,1,4,0:0:0:0:
320,192,45096,1,0,0:0:0:0:
448,192,45236,1,0,0:0:0:0:
64,192,45375,1,4,0:0:0:0:
320,192,45375,1,0,0:0:0:0:
192,192,45515,1,0,0:0:0:0:
64,192,45654,1,4,0:0:0:0:
320,192,45654,1,0,0:0:0:0:
448,192,45794,1,0,0:0:0:0:
64,192,45933,1,4,0:0:0:0:
320,192,45933,1,0,0:0:0:0:
192,192,46073,1,0,0:0:0:0:
320,192,46212,128,4,46771:0:0:0:0:
64,192,46771,1,0,0:0:0:0:
192,192,46840,1,0,0:0:0:0:
320,192,46910,1,0,0:0:0:0:
448,192,46980,1,0,0:0:0:0:
320,192,47050,1,0,0:0:0:0:
192,192,47189,1,0,0:0:0:0:
320,192,47329,1,0,0:0:0:0:
64,192,47329,1,4,0:0:0:0:
448,192,47329,1,0,0:0:0:0:
192,192,47608,1,8,0:0:0:0:
448,192,47608,1,0,0:0:0:0:
64,192,48026,1,0,0:0:0:0:
320,192,48026,1,4,0:0:0:0:
64,192,48166,1,0,0:0:0:0:
448,192,48166,1,8,0:0:0:0:
64,192,48584,1,4,0:0:0:0:
320,192,48584,1,0,0:0:0:0:
448,192,48724,1,0,0:0:0:0:
320,192,48724,1,8,0:0:0:0:
448,192,49003,1,4,0:0:0:0:
64,192,49003,1,0,0:0:0:0:
192,192,49143,1,0,0:0:0:0:
448,192,49143,1,4,0:0:0:0:
64,192,49282,1,8,0:0:0:0:
320,192,49282,1,0,0:0:0:0:
192,192,49561,1,4,0:0:0:0:
320,192,49561,1,0,0:0:0:0:
64,192,49701,1,0,0:0:0:0:
448,192,49701,1,4,0:0:0:0:
320,192,49840,1,8,0:0:0:0:
64,192,49840,1,4,0:0:0:0:
192,192,50119,1,0,0:0:0:0:
320,192,50119,1,4,0:0:0:0:
448,192,50259,1,4,0:0:0:0:
192,192,50259,1,0,0:0:0:0:
64,192,50398,1,8,0:0:0:0:
320,192,50398,1,0,0:0:0:0:
192,192,50538,1,0,0:0:0:0:
320,192,50538,1,4,0:0:0:0:
64,192,50817,1,4,0:0:0:0:
192,192,50817,1,0,0:0:0:0:
448,192,50957,1,0,0:0:0:0:
192,192,50957,1,8,0:0:0:0:
320,192,51375,1,0,0:0:0:0:
64,192,51375,1,4,0:0:0:0:
192,192,51515,1,4,0:0:0:0:
320,192,51515,1,0,0:0:0:0:
448,192,51654,1,8,0:0:0:0:
64,192,51654,1,0,0:0:0:0:
320,192,51794,1,0,0:0:0:0:
64,192,51794,1,4,0:0:0:0:
192,192,52073,1,0,0:0:0:0:
448,192,52073,1,8,0:0:0:0:
320,192,52491,1,0,0:0:0:0:
192,192,52491,1,4,0:0:0:0:
320,192,52631,1,0,0:0:0:0:
64,192,52631,1,8,0:0:0:0:
64,192,53050,1,4,0:0:0:0:
448,192,53050,1,0,0:0:0:0:
192,192,53189,1,8,0:0:0:0:
448,192,53189,1,0,0:0:0:0:
64,192,53468,1,4,0:0:0:0:
320,192,53468,1,0,0:0:0:0:
192,192,53608,1,4,0:0:0:0:
320,192,53608,1,0,0:0:0:0:
448,192,53747,1,0,0:0:0:0:
192,192,53747,1,8,0:0:0:0:
64,192,54026,1,4,0:0:0:0:
320,192,54026,1,0,0:0:0:0:
64,192,54166,1,4,0:0:0:0:
448,192,54166,1,0,0:0:0:0:
192,192,54305,1,0,0:0:0:0:
320,192,54305,1,8,0:0:0:0:
448,192,54584,1,4,0:0:0:0:
64,192,54584,1,0,0:0:0:0:
320,192,54724,1,4,0:0:0:0:
64,192,54724,1,0,0:0:0:0:
448,192,54864,1,0,0:0:0:0:
192,192,54864,1,8,0:0:0:0:
448,192,55003,1,0,0:0:0:0:
320,192,55003,1,4,0:0:0:0:
192,192,55282,1,0,0:0:0:0:
64,192,55282,1,4,0:0:0:0:
192,192,55422,1,8,0:0:0:0:
448,192,55422,1,0,0:0:0:0:
320,192,55840,1,4,0:0:0:0:
64,192,55840,1,0,0:0:0:0:
192,192,55980,1,0,0:0:0:0:
448,192,55980,1,4,0:0:0:0:
320,192,56119,1,8,0:0:0:0:
64,192,56119,1,0,0:0:0:0:
448,192,56259,1,0,0:0:0:0:
320,192,56259,1,0,0:0:0:0:
64,192,56259,1,4,0:0:0:0:
448,192,56538,1,0,0:0:0:0:
192,192,56538,1,8,0:0:0:0:
64,192,56957,1,4,0:0:0:0:
448,192,56957,1,0,0:0:0:0:
64,192,57096,1,8,0:0:0:0:
320,192,57096,1,0,0:0:0:0:
192,192,57515,1,4,0:0:0:0:
448,192,57515,1,0,0:0:0:0:
64,192,57654,1,0,0:0:0:0:
448,192,57654,1,8,0:0:0:0:
320,192,57933,1,4,0:0:0:0:
192,192,57933,1,0,0:0:0:0:
448,192,58073,1,4,0:0:0:0:
192,192,58073,1,0,0:0:0:0:
64,192,58212,1,8,0:0:0:0:
448,192,58212,1,0,0:0:0:0:
192,192,58491,1,0,0:0:0:0:
320,192,58491,1,4,0:0:0:0:
448,192,58631,1,4,0:0:0:0:
192,192,58631,1,0,0:0:0:0:
320,192,58771,1,8,0:0:0:0:
64,192,58771,1,0,0:0:0:0:
192,192,59050,1,0,0:0:0:0:
448,192,59050,1,4,0:0:0:0:
320,192,59189,1,4,0:0:0:0:
192,192,59189,1,0,0:0:0:0:
64,192,59329,1,0,0:0:0:0:
320,192,59329,1,8,0:0:0:0:
64,192,59468,1,0,0:0:0:0:
448,192,59468,1,4,0:0:0:0:
448,192,59747,1,0,0:0:0:0:
192,192,59747,1,4,0:0:0:0:
448,192,59887,1,12,0:0:0:0:
64,192,59887,1,0,0:0:0:0:
320,192,60305,1,4,0:0:0:0:
64,192,60305,1,0,0:0:0:0:
448,192,60445,1,4,0:0:0:0:
64,192,60445,1,0,0:0:0:0:
192,192,60584,1,0,0:0:0:0:
448,192,60584,1,8,0:0:0:0:
320,192,60724,1,0,0:0:0:0:
192,192,60724,1,4,0:0:0:0:
448,192,61003,1,8,0:0:0:0:
192,192,61003,1,4,0:0:0:0:
64,192,61422,1,4,0:0:0:0:
320,192,61422,1,0,0:0:0:0:
64,192,61561,1,8,0:0:0:0:
448,192,61561,1,0,0:0:0:0:
448,192,61980,1,0,0:0:0:0:
192,192,61980,1,4,0:0:0:0:
320,192,62119,1,8,0:0:0:0:
448,192,62119,1,0,0:0:0:0:
448,192,62398,1,0,0:0:0:0:
64,192,62398,1,4,0:0:0:0:
320,192,62538,1,0,0:0:0:0:
192,192,62538,1,4,0:0:0:0:
64,192,62677,1,0,0:0:0:0:
320,192,62677,1,8,0:0:0:0:
320,192,62957,1,0,0:0:0:0:
64,192,62957,1,4,0:0:0:0:
192,192,63096,1,4,0:0:0:0:
320,192,63096,1,0,0:0:0:0:
448,192,63236,1,0,0:0:0:0:
192,192,63236,1,8,0:0:0:0:
320,192,63515,1,0,0:0:0:0:
64,192,63515,1,4,0:0:0:0:
192,192,63654,1,0,0:0:0:0:
448,192,63654,1,4,0:0:0:0:
64,192,63794,1,0,0:0:0:0:
448,192,63794,1,8,0:0:0:0:
320,192,63933,1,4,0:0:0:0:
192,192,63933,1,0,0:0:0:0:
64,192,64073,128,0,65189:0:0:0:0:
448,192,64073,1,0,0:0:0:0:
320,192,64212,1,0,0:0:0:0:
192,192,64352,1,0,0:0:0:0:
320,192,64491,1,0,0:0:0:0:
448,192,64631,1,0,0:0:0:0:
192,192,64771,1,0,0:0:0:0:
448,192,64910,1,0,0:0:0:0:
192,192,65050,1,0,0:0:0:0:
320,192,65189,1,0,0:0:0:0:
448,192,65189,1,4,0:0:0:0:
192,192,65329,1,0,0:0:0:0:
320,192,65468,1,0,0:0:0:0:
448,192,65608,1,0,0:0:0:0:
192,192,65608,1,4,0:0:0:0:
64,192,65747,1,0,0:0:0:0:
192,192,65887,1,0,0:0:0:0:
64,192,66026,1,8,0:0:0:0:
320,192,66026,1,0,0:0:0:0:
192,192,66166,1,0,0:0:0:0:
320,192,66305,1,0,0:0:0:0:
448,192,66375,1,0,0:0:0:0:
320,192,66445,1,0,0:0:0:0:
192,192,66584,1,0,0:0:0:0:
64,192,66724,1,0,0:0:0:0:
192,192,66864,1,0,0:0:0:0:
320,192,66933,1,0,0:0:0:0:
448,192,67003,1,0,0:0:0:0:
320,192,67143,1,0,0:0:0:0:
192,192,67282,1,0,0:0:0:0:
320,192,67422,1,0,0:0:0:0:
448,192,67422,1,4,0:0:0:0:
192,192,67561,1,0,0:0:0:0:
64,192,67701,1,0,0:0:0:0:
320,192,67840,1,4,0:0:0:0:
192,192,67840,1,0,0:0:0:0:
448,192,67980,1,0,0:0:0:0:
320,192,68119,1,0,0:0:0:0:
64,192,68259,1,0,0:0:0:0:
192,192,68259,1,8,0:0:0:0:
320,192,68398,1,0,0:0:0:0:
448,192,68538,1,0,0:0:0:0:
320,192,68608,1,0,0:0:0:0:
192,192,68677,1,0,0:0:0:0:
64,192,68817,1,0,0:0:0:0:
192,192,68957,1,0,0:0:0:0:
320,192,69026,1,0,0:0:0:0:
448,192,69096,1,0,0:0:0:0:
320,192,69236,1,0,0:0:0:0:
192,192,69375,1,0,0:0:0:0:
64,192,69515,1,0,0:0:0:0:
192,192,69654,1,4,0:0:0:0:
320,192,69654,1,0,0:0:0:0:
64,192,69794,1,0,0:0:0:0:
448,192,69933,1,0,0:0:0:0:
64,192,70073,1,0,0:0:0:0:
192,192,70073,1,4,0:0:0:0:
448,192,70212,1,0,0:0:0:0:
192,192,70352,1,0,0:0:0:0:
64,192,70491,1,8,0:0:0:0:
448,192,70491,1,0,0:0:0:0:
192,192,70631,1,0,0:0:0:0:
320,192,70771,1,0,0:0:0:0:
448,192,70840,1,0,0:0:0:0:
320,192,70910,1,0,0:0:0:0:
192,192,71050,1,0,0:0:0:0:
64,192,71189,1,0,0:0:0:0:
192,192,71329,1,0,0:0:0:0:
320,192,71398,1,0,0:0:0:0:
448,192,71468,1,0,0:0:0:0:
320,192,71608,1,0,0:0:0:0:
192,192,71747,1,0,0:0:0:0:
320,192,71887,1,4,0:0:0:0:
64,192,71887,1,0,0:0:0:0:
448,192,72026,1,0,0:0:0:0:
320,192,72166,1,0,0:0:0:0:
192,192,72305,1,4,0:0:0:0:
448,192,72305,1,0,0:0:0:0:
64,192,72445,1,0,0:0:0:0:
192,192,72584,1,0,0:0:0:0:
320,192,72724,1,0,0:0:0:0:
448,192,72724,1,8,0:0:0:0:
192,192,72864,1,0,0:0:0:0:
64,192,73003,1,0,0:0:0:0:
192,192,73073,1,0,0:0:0:0:
320,192,73143,1,0,0:0:0:0:
448,192,73282,1,0,0:0:0:0:
320,192,73422,1,0,0:0:0:0:
192,192,73491,1,0,0:0:0:0:
64,192,73561,1,0,0:0:0:0:
192,192,73701,1,0,0:0:0:0:
320,192,73840,1,0,0:0:0:0:
448,192,73980,1,0,0:0:0:0:
192,192,74119,1,4,0:0:0:0:
448,192,74259,1,4,0:0:0:0:
192,192,74398,1,4,0:0:0:0:
448,192,74538,1,4,0:0:0:0:
64,192,74677,1,4,0:0:0:0:
320,192,74817,1,4,0:0:0:0:
64,192,74957,1,4,0:0:0:0:
320,192,75096,1,4,0:0:0:0:
192,192,75236,1,4,0:0:0:0:
448,192,75375,1,4,0:0:0:0:
192,192,75515,1,4,0:0:0:0:
320,192,75654,1,8,0:0:0:0:
64,192,75794,1,8,0:0:0:0:
320,192,75933,1,8,0:0:0:0:
64,192,76073,1,8,0:0:0:0:
320,192,76212,1,8,0:0:0:0:
64,192,76352,1,4,0:0:0:0:
448,192,76491,1,8,0:0:0:0:
320,192,76491,1,0,0:0:0:0:
192,192,76701,1,0,0:0:0:0:
64,192,76701,1,8,0:0:0:0:
320,192,76910,1,0,0:0:0:0:
448,192,76910,1,8,0:0:0:0:
64,192,77119,1,8,0:0:0:0:
192,192,77119,1,0,0:0:0:0:
448,192,77329,1,8,0:0:0:0:
320,192,77329,1,0,0:0:0:0:
192,192,77538,1,0,0:0:0:0:
64,192,77538,1,8,0:0:0:0:
320,192,77747,1,0,0:0:0:0:
448,192,77747,1,8,0:0:0:0:
64,192,77957,1,4,0:0:0:0:
192,192,77957,1,0,0:0:0:0:
320,192,78026,1,0,0:0:0:0:
448,192,78096,1,0,0:0:0:0:
320,192,78166,1,8,0:0:0:0:
192,192,78236,1,0,0:0:0:0:
64,192,78305,1,4,0:0:0:0:
192,192,78375,1,0,0:0:0:0:
320,192,78445,1,8,0:0:0:0:
448,192,78515,1,4,0:0:0:0:
64,192,78584,128,0,78864:0:0:0:0:
320,192,78584,1,8,0:0:0:0:
192,192,78584,1,4,0:1:0:0:
320,192,78864,1,4,0:0:0:0:
448,192,78864,128,8,79003:0:0:0:0:
192,192,79003,128,4,79143:0:0:0:0:
320,192,79282,128,4,79422:0:0:0:0:
448,192,79422,1,4,0:0:0:0:
64,192,79422,1,8,0:0:0:0:
192,192,79561,128,8,79701:0:0:0:0:
320,192,79561,1,4,0:0:0:0:
448,192,79840,128,4,79980:0:0:0:0:
320,192,79980,1,4,0:0:0:0:
64,192,79980,1,8,0:0:0:0:
192,192,80119,128,4,80398:0:0:0:0:
320,192,80259,1,4,0:0:0:0:
448,192,80398,128,4,80538:0:0:0:0:
64,192,80538,1,8,0:0:0:0:
320,192,80538,128,4,80677:0:0:0:0:
192,192,80677,128,4,80817:0:0:0:0:
320,192,80817,128,4,80957:0:0:0:0:
192,192,80957,1,4,0:0:0:0:
64,192,81096,128,4,81236:0:0:0:0:
448,192,81096,1,8,0:0:0:0:
320,192,81236,128,4,81375:0:0:0:0:
64,192,81375,1,4,0:2:0:0:
448,192,81515,128,4,81654:0:2:0:0:
320,192,81654,1,4,0:2:0:0:
64,192,81654,1,8,0:0:0:0:
192,192,81794,128,4,82491:0:2:0:0:
320,192,82073,1,4,0:0:0:0:
448,192,82212,1,4,0:0:0:0:
64,192,82212,1,8,0:0:0:0:
320,192,82491,128,4,82771:0:0:0:0:
64,192,82631,1,4,0:0:0:0:
448,192,82771,128,0,83050:0:0:0:0:
192,192,82771,1,4,0:0:0:0:
64,192,82840,1,4,0:0:0:0:
192,192,82910,1,8,0:0:0:0:
320,192,82980,1,4,0:0:0:0:
192,192,83050,1,4,0:0:0:0:
64,192,83189,1,4,0:0:0:0:
448,192,83329,1,8,0:0:0:0:
192,192,83329,128,4,83468:0:0:0:0:
320,192,83468,128,4,83608:0:0:0:0:
64,192,83747,128,4,83887:0:0:0:0:
448,192,83887,1,8,0:0:0:0:
192,192,83887,128,4,84026:0:0:0:0:
320,192,84026,128,4,84305:0:0:0:0:
64,192,84026,1,8,0:0:0:0:
448,192,84305,128,4,84445:0:0:0:0:
192,192,84445,1,8,0:0:0:0:
320,192,84445,128,4,84584:0:0:0:0:
64,192,84584,128,4,84864:0:0:0:0:
448,192,84724,1,4,0:0:0:0:
320,192,84864,128,4,85003:0:0:0:0:
64,192,85003,1,8,0:0:0:0:
448,192,85003,1,4,0:0:0:0:
448,192,85143,128,4,85282:0:0:0:0:
192,192,85282,128,4,85422:0:0:0:0:
64,192,85422,1,4,0:0:0:0:
320,192,85561,128,4,85701:0:0:0:0:
448,192,85561,1,8,0:0:0:0:
64,192,85701,128,4,85840:0:0:0:0:
320,192,85840,1,4,0:0:0:0:
192,192,85980,128,4,86119:0:0:0:0:
320,192,86119,1,4,0:0:0:0:
448,192,86119,1,8,0:0:0:0:
64,192,86259,128,4,86538:0:0:0:0:
320,192,86538,128,4,86677:0:0:0:0:
192,192,86677,1,8,0:0:0:0:
64,192,86677,1,4,0:0:0:0:
448,192,86817,128,4,87096:0:0:0:0:
64,192,87096,1,4,0:0:0:0:
320,192,87166,1,4,0:0:0:0:
64,192,87236,1,4,0:0:0:0:
320,192,87305,1,4,0:0:0:0:
64,192,87375,1,8,0:0:0:0:
320,192,87445,1,4,0:0:0:0:
448,192,87515,1,0,0:0:0:0:
64,192,87515,128,4,87794:0:0:0:0:
192,192,87515,1,0,0:0:0:0:
320,192,87654,1,4,0:0:0:0:
192,192,87794,1,8,0:0:0:0:
448,192,87794,128,4,87933:0:0:0:0:
320,192,87933,128,4,88073:0:0:0:0:
192,192,88212,128,4,88352:0:0:0:0:
64,192,88352,1,4,0:0:0:0:
320,192,88352,1,8,0:0:0:0:
448,192,88491,128,8,88631:0:0:0:0:
192,192,88491,1,4,0:0:0:0:
64,192,88771,128,4,88910:0:0:0:0:
192,192,88910,1,4,0:0:0:0:
320,192,88910,1,8,0:0:0:0:
448,192,89050,128,4,89329:0:0:0:0:
192,192,89189,1,4,0:0:0:0:
64,192,89329,128,4,89468:0:0:0:0:
448,192,89468,1,8,0:0:0:0:
192,192,89468,128,4,89608:0:0:0:0:
320,192,89608,128,4,89747:0:0:0:0:
64,192,89747,128,4,89887:0:0:0:0:
320,192,89887,1,4,0:0:0:0:
448,192,90026,128,4,90166:0:0:0:0:
64,192,90026,1,8,0:0:0:0:
192,192,90166,128,4,90305:0:0:0:0:
64,192,90305,1,4,0:0:0:0:
320,192,90445,128,4,90584:0:0:0:0:
64,192,90584,1,8,0:0:0:0:
192,192,90584,1,4,0:0:0:0:
448,192,90724,128,4,91422:0:0:0:0:
192,192,91003,1,4,0:0:0:0:
320,192,91143,1,8,0:0:0:0:
64,192,91143,1,4,0:0:0:0:
192,192,91422,128,4,91701:0:0:0:0:
448,192,91561,1,4,0:0:0:0:
64,192,91701,128,0,91980:0:0:0:0:
320,192,91701,1,4,0:0:0:0:
448,192,91771,1,4,0:0:0:0:
320,192,91840,1,8,0:0:0:0:
192,192,91910,1,4,0:0:0:0:
320,192,91980,1,4,0:0:0:0:
448,192,92259,1,4,0:0:0:0:
64,192,92259,128,8,92398:0:0:0:0:
320,192,92398,128,4,92538:0:0:0:0:
192,192,92677,128,4,92817:0:0:0:0:
320,192,92817,128,4,92957:0:0:0:0:
64,192,92817,1,8,0:0:0:0:
192,192,92957,1,8,0:0:0:0:
448,192,92957,128,4,93236:0:0:0:0:
192,192,93236,128,4,93375:0:0:0:0:
64,192,93375,128,4,93515:0:0:0:0:
448,192,93375,1,8,0:0:0:0:
320,192,93515,128,4,93794:0:0:0:0:
192,192,93654,1,4,0:0:0:0:
64,192,93794,128,4,93933:0:0:0:0:
448,192,93933,1,8,0:0:0:0:
320,192,93933,1,4,0:0:0:0:
192,192,94073,128,4,94212:0:0:0:0:
448,192,94212,128,4,94352:0:0:0:0:
64,192,94352,1,4,0:0:0:0:
320,192,94491,128,8,94631:0:0:0:0:
192,192,94491,1,4,0:0:0:0:
64,192,94631,128,4,94771:0:0:0:0:
448,192,94771,1,4,0:0:0:0:
320,192,94910,128,4,95050:0:0:0:0:
192,192,95050,1,4,0:0:0:0:
448,192,95050,1,8,0:0:0:0:
64,192,95189,128,4,95468:0:0:0:0:
320,192,95468,128,4,95608:0:0:0:0:
192,192,95608,1,8,0:0:0:0:
448,192,95608,1,4,0:0:0:0:
64,192,95747,128,4,96026:0:0:0:0:
192,192,96026,1,4,0:0:0:0:
448,192,96096,1,4,0:0:0:0:
192,192,96166,1,4,0:0:0:0:
448,192,96236,1,4,0:0:0:0:
192,192,96305,1,8,0:0:0:0:
448,192,96375,1,4,0:0:0:0:
320,192,96445,1,0,0:0:0:0:
64,192,96445,128,4,97003:0:0:0:0:
192,192,96445,1,0,0:0:0:0:
192,192,96724,1,4,0:0:0:0:
448,192,96724,1,0,0:0:0:0:
320,192,97003,1,8,0:0:0:0:
448,192,97003,128,4,97282:0:0:0:0:
64,192,97422,1,4,0:0:0:0:
320,192,97422,1,0,0:0:0:0:
192,192,97561,128,0,97840:0:0:0:0:
64,192,97840,128,4,98119:0:0:0:0:
448,192,97840,1,0,0:0:0:0:
320,192,98119,1,8,0:0:0:0:
448,192,98119,1,0,0:0:0:0:
192,192,98398,128,0,98957:0:0:0:0:
320,192,98538,1,0,0:0:0:0:
448,192,98538,1,4,0:0:0:0:
320,192,98677,1,0,0:0:0:0:
448,192,98677,1,4,0:0:0:0:
64,192,98957,1,0,0:0:0:0:
320,192,98957,128,0,99236:0:0:0:0:
192,192,99236,1,8,0:0:0:0:
448,192,99236,128,0,99515:0:0:0:0:
192,192,99515,128,0,100352:0:0:0:0:
64,192,99654,1,0,0:0:0:0:
448,192,99654,1,4,0:0:0:0:
64,192,100073,1,4,0:0:0:0:
320,192,100073,1,0,0:0:0:0:
64,192,100352,1,8,0:0:0:0:
448,192,100352,128,0,100910:0:0:0:0:
64,192,100771,1,4,0:0:0:0:
320,192,100771,1,0,0:0:0:0:
320,192,100910,1,0,0:0:0:0:
64,192,100910,128,4,101189:0:0:0:0:
192,192,101189,1,0,0:0:0:0:
320,192,101189,1,4,0:0:0:0:
192,192,101468,1,8,0:0:0:0:
448,192,101468,128,0,101747:0:0:0:0:
320,192,101887,1,0,0:0:0:0:
64,192,101887,1,4,0:0:0:0:
192,192,102026,128,0,102305:0:0:0:0:
64,192,102305,1,0,0:0:0:0:
320,192,102305,128,4,102584:0:0:0:0:
192,192,102584,1,8,0:0:0:0:
448,192,102584,1,0,0:0:0:0:
448,192,102864,128,0,103422:0:0:0:0:
64,192,103003,1,4,0:0:0:0:
192,192,103003,1,0,0:0:0:0:
192,192,103143,1,0,0:0:0:0:
64,192,103143,1,4,0:0:0:0:
320,192,103422,1,0,0:0:0:0:
192,192,103422,128,4,103701:0:0:0:0:
320,192,103701,1,8,0:0:0:0:
64,192,103701,128,0,103980:0:0:0:0:
448,192,103980,128,0,104817:0:0:0:0:
320,192,104119,1,0,0:0:0:0:
64,192,104119,1,4,0:0:0:0:
320,192,104538,1,0,0:0:0:0:
192,192,104538,1,4,0:0:0:0:
320,192,104817,1,8,0:0:0:0:
64,192,104817,128,0,105375:0:0:0:0:
192,192,105236,1,0,0:0:0:0:
448,192,105236,1,4,0:0:0:0:
192,192,105375,1,0,0:0:0:0:
448,192,105375,128,4,105654:0:0:0:0:
320,192,105654,1,4,0:0:0:0:
64,192,105654,1,0,0:0:0:0:
320,192,105933,1,8,0:0:0:0:
64,192,105933,128,0,106212:0:0:0:0:
448,192,106352,1,4,0:0:0:0:
192,192,106352,1,0,0:0:0:0:
320,192,106491,128,0,106771:0:0:0:0:
448,192,106771,1,0,0:0:0:0:
64,192,106771,128,4,107050:0:0:0:0:
192,192,107050,1,0,0:0:0:0:
448,192,107050,1,8,0:0:0:0:
448,192,107329,128,0,107887:0:0:0:0:
192,192,107468,1,0,0:0:0:0:
64,192,107468,1,4,0:0:0:0:
64,192,107608,1,4,0:0:0:0:
192,192,107608,1,0,0:0:0:0:
320,192,107887,1,0,0:0:0:0:
192,192,107887,128,4,108166:0:0:0:0:
448,192,108166,1,8,0:0:0:0:
64,192,108166,128,0,108445:0:0:0:0:
448,192,108445,128,0,109282:0:0:0:0:
192,192,108584,1,4,0:0:0:0:
64,192,108584,1,0,0:0:0:0:
320,192,109003,1,0,0:0:0:0:
192,192,109003,1,4,0:0:0:0:
64,192,109282,1,8,0:0:0:0:
320,192,109282,128,0,109840:0:0:0:0:
64,192,109701,1,0,0:0:0:0:
448,192,109701,1,4,0:0:0:0:
448,192,109840,1,4,0:0:0:0:
64,192,109840,128,0,110119:0:0:0:0:
320,192,110119,1,0,0:0:0:0:
448,192,110119,1,4,0:0:0:0:
320,192,110398,1,8,0:0:0:0:
192,192,110398,128,0,110677:0:0:0:0:
64,192,110817,1,0,0:0:0:0:
448,192,110817,1,4,0:0:0:0:
320,192,110957,128,0,111236:0:0:0:0:
448,192,111236,1,0,0:0:0:0:
64,192,111236,128,4,111515:0:0:0:0:
192,192,111515,1,0,0:0:0:0:
320,192,111515,1,8,0:0:0:0:
448,192,111794,128,0,112352:0:0:0:0:
64,192,111933,1,4,0:0:0:0:
192,192,111933,1,0,0:0:0:0:
192,192,112073,1,0,0:0:0:0:
64,192,112073,1,4,0:0:0:0:
64,192,112352,1,4,0:0:0:0:
320,192,112352,128,0,112631:0:0:0:0:
448,192,112631,1,8,0:0:0:0:
192,192,112631,128,0,112910:0:0:0:0:
448,192,112910,128,0,113747:0:0:0:0:
192,192,113050,1,0,0:0:0:0:
64,192,113050,1,4,0:0:0:0:
192,192,113468,1,4,0:0:0:0:
320,192,113468,1,0,0:0:0:0:
192,192,113747,128,0,114305:0:0:0:0:
64,192,114305,1,4,0:0:0:0:
448,192,114305,128,0,116538:0:0:0:0:
320,192,114305,128,0,116538:0:0:0:0:
