osu file format v12

[General]
AudioFilename: 5 ExaVid.mp3
AudioLeadIn: 0
PreviewTime: 160209
Countdown: 0
SampleSet: Normal
StackLeniency: 0.7
Mode: 1
LetterboxInBreaks: 0
WidescreenStoryboard: 0

[Editor]
Bookmarks: 0,10052,20104,30157,40209,50261,60314,70366,80418,90471,100523,110575,120628,130680,140732,150785,160837,170890,180942,190994,201047,211099,221151,231204,241256,251308,261361,271413,280209,291518,301570,311623,321675,331727,341780,351832,361884
DistanceSpacing: 0.8
BeatDivisor: 4
GridSize: 32
TimelineZoom: 2.2

[Metadata]
Title:ExaVid
TitleUnicode:ExaVid
Artist:An
ArtistUnicode:An
Creator:Dolphin
Version:Oni
Source:
Tags:191 acuticnotes an-fillnote sukima studio
BeatmapID:343428
BeatmapSetID:137393

[Difficulty]
HPDrainRate:5
CircleSize:5
OverallDifficulty:5
ApproachRate:5
SliderMultiplier:1.4
SliderTickRate:1

[Events]
//Background and Video events
0,0,"white-sky.jpg",0,0
//Break Periods
//Storyboard Layer 0 (Background)
//Storyboard Layer 1 (Fail)
//Storyboard Layer 2 (Pass)
//Storyboard Layer 3 (Foreground)
//Storyboard Sound Samples
//Background Colour Transformations
3,100,163,162,255

[TimingPoints]
0,314.13612565445,4,1,0,80,1,0
160837,-100,4,1,0,80,0,1
190994,-100,4,1,0,80,0,0
241256,-100,4,1,0,80,0,1
261361,-100,4,1,0,80,0,0
301413,-100,4,1,0,80,0,1
321675,-100,4,1,0,80,0,0

[HitObjects]
256,192,0,5,0,0:0:0:0:
256,192,157,1,8,0:0:0:0:
256,192,471,1,8,0:0:0:0:
256,192,628,1,0,0:0:0:0:
256,192,785,1,8,0:0:0:0:
256,192,942,1,0,0:0:0:0:
256,192,1099,1,0,0:0:0:0:
256,192,1256,1,8,0:0:0:0:
256,192,1413,1,8,0:0:0:0:
256,192,1570,1,0,0:0:0:0:
256,192,1727,1,0,0:0:0:0:
256,192,1884,1,0,0:0:0:0:
256,192,2041,1,8,0:0:0:0:
256,192,2198,1,8,0:0:0:0:
256,192,2356,1,0,0:0:0:0:
256,192,2513,1,0,0:0:0:0:
256,192,2670,1,0,0:0:0:0:
256,192,2827,1,8,0:0:0:0:
256,192,2984,1,8,0:0:0:0:
256,192,3298,1,8,0:0:0:0:
256,192,3455,1,0,0:0:0:0:
256,192,3612,1,8,0:0:0:0:
256,192,3769,1,0,0:0:0:0:
256,192,3926,1,0,0:0:0:0:
256,192,4083,1,8,0:0:0:0:
256,192,4240,1,0,0:0:0:0:
256,192,4397,1,8,0:0:0:0:
256,192,4554,1,0,0:0:0:0:
256,192,4712,1,8,0:0:0:0:
256,192,4869,1,0,0:0:0:0:
256,192,5026,1,0,0:0:0:0:
256,192,5183,1,8,0:0:0:0:
256,192,5497,1,8,0:0:0:0:
256,192,5654,1,0,0:0:0:0:
256,192,5811,1,8,0:0:0:0:
256,192,5968,1,0,0:0:0:0:
256,192,6125,1,0,0:0:0:0:
256,192,6282,1,8,0:0:0:0:
256,192,6439,1,8,0:0:0:0:
256,192,6596,1,0,0:0:0:0:
256,192,6753,1,0,0:0:0:0:
256,192,6910,1,0,0:0:0:0:
256,192,7067,1,8,0:0:0:0:
256,192,7224,1,8,0:0:0:0:
256,192,7382,1,0,0:0:0:0:
256,192,7539,1,0,0:0:0:0:
256,192,7696,1,0,0:0:0:0:
256,192,7853,1,8,0:0:0:0:
256,192,8010,1,8,0:0:0:0:
256,192,8324,1,8,0:0:0:0:
256,192,8481,1,0,0:0:0:0:
256,192,8638,1,8,0:0:0:0:
256,192,8795,1,0,0:0:0:0:
256,192,8952,1,0,0:0:0:0:
256,192,9109,1,8,0:0:0:0:
256,192,9266,1,8,0:0:0:0:
256,192,9423,1,0,0:0:0:0:
256,192,9580,1,8,0:0:0:0:
256,192,9738,1,0,0:0:0:0:
256,192,9895,1,8,0:0:0:0:
256,192,10052,1,0,0:0:0:0:
256,192,10209,1,8,0:0:0:0:
256,192,10445,1,0,0:0:0:0:
256,192,10523,1,8,0:0:0:0:
256,192,10680,1,0,0:0:0:0:
256,192,10837,1,0,0:0:0:0:
256,192,10916,1,0,0:0:0:0:
256,192,10994,1,0,0:0:0:0:
256,192,11230,1,0,0:0:0:0:
256,192,11308,1,0,0:0:0:0:
256,192,11465,1,8,0:0:0:0:
256,192,11623,1,8,0:0:0:0:
256,192,11701,1,8,0:0:0:0:
256,192,11780,1,0,0:0:0:0:
256,192,11858,1,0,0:0:0:0:
256,192,11937,1,0,0:0:0:0:
256,192,12015,1,0,0:0:0:0:
256,192,12094,1,0,0:0:0:0:
256,192,12251,1,8,0:0:0:0:
256,192,12408,1,0,0:0:0:0:
256,192,12565,1,0,0:0:0:0:
256,192,12722,1,0,0:0:0:0:
256,192,12958,1,0,0:0:0:0:
256,192,13036,1,8,0:0:0:0:
256,192,13193,1,8,0:0:0:0:
256,192,13350,1,0,0:0:0:0:
256,192,13429,1,0,0:0:0:0:
256,192,13507,1,8,0:0:0:0:
256,192,13743,1,0,0:0:0:0:
256,192,13821,1,0,0:0:0:0:
256,192,13979,1,8,0:0:0:0:
256,192,14136,1,8,0:0:0:0:
256,192,14214,1,8,0:0:0:0:
256,192,14293,1,0,0:0:0:0:
256,192,14371,1,0,0:0:0:0:
256,192,14450,1,0,0:0:0:0:
256,192,14528,1,0,0:0:0:0:
256,192,14607,1,0,0:0:0:0:
256,192,14764,1,8,0:0:0:0:
256,192,14921,1,0,0:0:0:0:
256,192,15078,1,0,0:0:0:0:
256,192,15235,1,0,0:0:0:0:
256,192,15471,1,0,0:0:0:0:
256,192,15549,1,8,0:0:0:0:
256,192,15706,1,0,0:0:0:0:
256,192,15863,1,0,0:0:0:0:
256,192,15942,1,0,0:0:0:0:
256,192,16020,1,8,0:0:0:0:
256,192,16256,1,0,0:0:0:0:
256,192,16335,1,0,0:0:0:0:
256,192,16492,1,8,0:0:0:0:
256,192,16649,1,8,0:0:0:0:
256,192,16727,1,8,0:0:0:0:
256,192,16806,1,0,0:0:0:0:
256,192,16884,1,0,0:0:0:0:
256,192,16963,1,0,0:0:0:0:
256,192,17041,1,0,0:0:0:0:
256,192,17120,1,0,0:0:0:0:
256,192,17277,1,8,0:0:0:0:
256,192,17434,1,0,0:0:0:0:
256,192,17591,1,0,0:0:0:0:
256,192,17748,1,0,0:0:0:0:
256,192,17984,1,0,0:0:0:0:
256,192,18062,1,8,0:0:0:0:
256,192,18219,1,8,0:0:0:0:
256,192,18376,1,0,0:0:0:0:
256,192,18455,1,0,0:0:0:0:
256,192,18534,1,8,0:0:0:0:
256,192,18769,1,0,0:0:0:0:
256,192,18848,1,0,0:0:0:0:
256,192,19005,1,8,0:0:0:0:
256,192,19162,1,8,0:0:0:0:
256,192,19240,1,8,0:0:0:0:
256,192,19319,1,0,0:0:0:0:
256,192,19397,1,0,0:0:0:0:
256,192,19476,1,0,0:0:0:0:
256,192,19554,1,0,0:0:0:0:
256,192,19633,1,0,0:0:0:0:
256,192,19790,1,8,0:0:0:0:
256,192,19947,1,0,0:0:0:0:
256,192,20104,1,0,0:0:0:0:
256,192,20261,1,8,0:0:0:0:
256,192,20497,1,0,0:0:0:0:
256,192,20575,1,8,0:0:0:0:
256,192,20732,1,0,0:0:0:0:
256,192,20889,1,0,0:0:0:0:
256,192,20968,1,0,0:0:0:0:
256,192,21046,1,0,0:0:0:0:
256,192,21204,1,0,0:0:0:0:
256,192,21282,1,0,0:0:0:0:
256,192,21360,1,0,0:0:0:0:
256,192,21517,1,8,0:0:0:0:
256,192,21675,1,8,0:0:0:0:
256,192,21753,1,8,0:0:0:0:
256,192,21832,1,0,0:0:0:0:
256,192,21910,1,0,0:0:0:0:
256,192,21989,1,0,0:0:0:0:
256,192,22067,1,0,0:0:0:0:
256,192,22146,1,0,0:0:0:0:
256,192,22303,1,8,0:0:0:0:
256,192,22460,1,0,0:0:0:0:
256,192,22617,1,0,0:0:0:0:
256,192,22774,1,0,0:0:0:0:
256,192,23010,1,0,0:0:0:0:
256,192,23088,1,8,0:0:0:0:
256,192,23245,1,8,0:0:0:0:
256,192,23402,1,0,0:0:0:0:
256,192,23481,1,0,0:0:0:0:
256,192,23559,1,8,0:0:0:0:
256,192,23795,1,0,0:0:0:0:
256,192,23873,1,0,0:0:0:0:
256,192,24031,1,8,0:0:0:0:
256,192,24188,1,8,0:0:0:0:
256,192,24266,1,8,0:0:0:0:
256,192,24345,1,0,0:0:0:0:
256,192,24423,1,0,0:0:0:0:
256,192,24502,1,0,0:0:0:0:
256,192,24580,1,0,0:0:0:0:
256,192,24659,1,0,0:0:0:0:
256,192,24816,1,8,0:0:0:0:
256,192,24973,1,0,0:0:0:0:
256,192,25130,1,0,0:0:0:0:
256,192,25287,1,0,0:0:0:0:
256,192,25523,1,0,0:0:0:0:
256,192,25601,1,8,0:0:0:0:
256,192,25758,1,0,0:0:0:0:
256,192,25915,1,0,0:0:0:0:
256,192,25994,1,0,0:0:0:0:
256,192,26072,1,8,0:0:0:0:
256,192,26230,1,0,0:0:0:0:
256,192,26308,1,0,0:0:0:0:
256,192,26387,1,0,0:0:0:0:
256,192,26544,1,8,0:0:0:0:
256,192,26701,1,8,0:0:0:0:
256,192,26779,1,8,0:0:0:0:
256,192,26858,1,0,0:0:0:0:
256,192,26936,1,0,0:0:0:0:
256,192,27015,1,0,0:0:0:0:
256,192,27093,1,0,0:0:0:0:
256,192,27172,1,0,0:0:0:0:
256,192,27329,1,8,0:0:0:0:
256,192,27486,1,0,0:0:0:0:
256,192,27643,1,0,0:0:0:0:
256,192,27800,1,0,0:0:0:0:
256,192,28036,1,0,0:0:0:0:
256,192,28114,1,8,0:0:0:0:
256,192,28271,1,8,0:0:0:0:
256,192,28428,1,0,0:0:0:0:
256,192,28507,1,0,0:0:0:0:
256,192,28586,1,8,0:0:0:0:
256,192,28821,1,0,0:0:0:0:
256,192,28900,1,0,0:0:0:0:
256,192,29057,1,8,0:0:0:0:
256,192,29214,1,0,0:0:0:0:
256,192,29371,1,8,0:0:0:0:
256,192,29528,1,0,0:0:0:0:
256,192,29685,1,8,0:0:0:0:
256,192,29842,1,0,0:0:0:0:
256,192,29999,1,0,0:0:0:0:
256,192,30157,1,0,0:0:0:0:
256,192,30314,1,8,0:0:0:0:
256,192,30550,1,0,0:0:0:0:
256,192,30628,1,8,0:0:0:0:
256,192,30785,1,0,0:0:0:0:
256,192,30942,1,0,0:0:0:0:
256,192,31021,1,0,0:0:0:0:
256,192,31099,1,0,0:0:0:0:
256,192,31256,1,0,0:0:0:0:
256,192,31335,1,0,0:0:0:0:
256,192,31413,1,0,0:0:0:0:
256,192,31570,1,8,0:0:0:0:
256,192,31728,1,8,0:0:0:0:
256,192,31806,1,8,0:0:0:0:
256,192,31885,1,0,0:0:0:0:
256,192,31963,1,0,0:0:0:0:
256,192,32042,1,0,0:0:0:0:
256,192,32120,1,0,0:0:0:0:
256,192,32199,1,0,0:0:0:0:
256,192,32356,1,8,0:0:0:0:
256,192,32513,1,0,0:0:0:0:
256,192,32670,1,0,0:0:0:0:
256,192,32827,1,0,0:0:0:0:
256,192,33063,1,0,0:0:0:0:
256,192,33141,1,8,0:0:0:0:
256,192,33298,1,0,0:0:0:0:
256,192,33455,1,0,0:0:0:0:
256,192,33534,1,0,0:0:0:0:
256,192,33612,1,8,0:0:0:0:
256,192,33848,1,0,0:0:0:0:
256,192,33926,1,0,0:0:0:0:
256,192,34084,1,8,0:0:0:0:
256,192,34241,1,8,0:0:0:0:
256,192,34319,1,8,0:0:0:0:
256,192,34398,1,0,0:0:0:0:
256,192,34476,1,0,0:0:0:0:
256,192,34555,1,0,0:0:0:0:
256,192,34633,1,0,0:0:0:0:
256,192,34712,1,0,0:0:0:0:
256,192,34869,1,8,0:0:0:0:
256,192,35026,1,0,0:0:0:0:
256,192,35183,1,0,0:0:0:0:
256,192,35340,1,0,0:0:0:0:
256,192,35576,1,0,0:0:0:0:
256,192,35654,1,8,0:0:0:0:
256,192,35811,1,0,0:0:0:0:
256,192,35968,1,0,0:0:0:0:
256,192,36047,1,0,0:0:0:0:
256,192,36125,1,8,0:0:0:0:
256,192,36282,1,0,0:0:0:0:
256,192,36361,1,0,0:0:0:0:
256,192,36440,1,0,0:0:0:0:
256,192,36597,1,8,0:0:0:0:
256,192,36754,1,8,0:0:0:0:
256,192,36832,1,8,0:0:0:0:
256,192,36911,1,0,0:0:0:0:
256,192,36989,1,0,0:0:0:0:
256,192,37068,1,0,0:0:0:0:
256,192,37146,1,0,0:0:0:0:
256,192,37225,1,0,0:0:0:0:
256,192,37382,1,8,0:0:0:0:
256,192,37539,1,0,0:0:0:0:
256,192,37696,1,0,0:0:0:0:
256,192,37853,1,0,0:0:0:0:
256,192,38089,1,0,0:0:0:0:
256,192,38167,1,8,0:0:0:0:
256,192,38324,1,8,0:0:0:0:
256,192,38481,1,0,0:0:0:0:
256,192,38560,1,0,0:0:0:0:
256,192,38639,1,8,0:0:0:0:
256,192,38874,1,0,0:0:0:0:
256,192,38953,1,0,0:0:0:0:
256,192,39110,1,8,0:0:0:0:
256,192,39267,1,8,0:0:0:0:
256,192,39345,1,8,0:0:0:0:
256,192,39424,1,0,0:0:0:0:
256,192,39502,1,0,0:0:0:0:
256,192,39581,1,0,0:0:0:0:
256,192,39659,1,0,0:0:0:0:
256,192,39738,1,0,0:0:0:0:
256,192,39895,1,8,0:0:0:0:
256,192,40052,1,0,0:0:0:0:
256,192,40209,1,0,0:0:0:0:
256,192,40366,1,8,0:0:0:0:
256,192,40523,1,8,0:0:0:0:
256,192,40680,1,0,0:0:0:0:
256,192,41308,1,0,0:0:0:0:
256,192,41387,1,0,0:0:0:0:
256,192,41465,1,8,0:0:0:0:
256,192,41623,1,8,0:0:0:0:
256,192,41780,1,0,0:0:0:0:
256,192,41937,1,8,0:0:0:0:
256,192,42251,1,8,0:0:0:0:
256,192,42408,1,0,0:0:0:0:
256,192,42565,1,8,0:0:0:0:
256,192,43193,1,0,0:0:0:0:
256,192,43664,1,8,0:0:0:0:
256,192,43821,1,8,0:0:0:0:
256,192,44450,1,8,0:0:0:0:
256,192,44607,1,0,0:0:0:0:
256,192,44764,1,8,0:0:0:0:
256,192,44921,1,0,0:0:0:0:
256,192,45078,1,8,0:0:0:0:
256,192,45235,1,0,0:0:0:0:
256,192,45392,1,8,0:0:0:0:
256,192,45549,1,0,0:0:0:0:
256,192,45706,1,0,0:0:0:0:
256,192,46335,1,0,0:0:0:0:
256,192,46413,1,0,0:0:0:0:
256,192,46492,1,8,0:0:0:0:
256,192,46649,1,8,0:0:0:0:
256,192,46806,1,0,0:0:0:0:
256,192,46963,1,8,0:0:0:0:
256,192,47277,1,8,0:0:0:0:
256,192,47434,1,0,0:0:0:0:
256,192,47591,1,8,0:0:0:0:
256,192,48219,1,0,0:0:0:0:
256,192,48691,1,8,0:0:0:0:
256,192,48848,1,8,0:0:0:0:
256,192,49476,1,8,0:0:0:0:
256,192,49633,1,0,0:0:0:0:
256,192,49790,1,8,0:0:0:0:
256,192,49947,1,0,0:0:0:0:
256,192,50104,1,8,0:0:0:0:
256,192,50261,1,0,0:0:0:0:
256,192,50418,1,8,0:0:0:0:
256,192,50497,1,8,0:0:0:0:
256,192,50575,1,0,0:0:0:0:
256,192,50732,1,0,0:0:0:0:
256,192,51361,1,0,0:0:0:0:
256,192,51439,1,0,0:0:0:0:
256,192,51518,1,8,0:0:0:0:
256,192,51675,1,8,0:0:0:0:
256,192,51832,1,0,0:0:0:0:
256,192,51989,1,8,0:0:0:0:
256,192,52303,1,8,0:0:0:0:
256,192,52460,1,0,0:0:0:0:
256,192,52617,1,8,0:0:0:0:
256,192,53246,1,0,0:0:0:0:
256,192,53717,1,8,0:0:0:0:
256,192,53874,1,8,0:0:0:0:
256,192,54502,1,8,0:0:0:0:
256,192,54659,1,0,0:0:0:0:
256,192,54816,1,8,0:0:0:0:
256,192,54973,1,0,0:0:0:0:
256,192,55130,1,8,0:0:0:0:
256,192,55287,1,0,0:0:0:0:
256,192,55445,1,8,0:0:0:0:
256,192,55602,1,8,0:0:0:0:
256,192,55759,1,0,0:0:0:0:
256,192,56387,1,0,0:0:0:0:
256,192,56465,1,0,0:0:0:0:
256,192,56544,1,8,0:0:0:0:
256,192,56701,1,8,0:0:0:0:
256,192,56858,1,0,0:0:0:0:
256,192,57015,1,8,0:0:0:0:
256,192,57329,1,8,0:0:0:0:
256,192,57486,1,0,0:0:0:0:
256,192,57643,1,8,0:0:0:0:
256,192,58272,1,0,0:0:0:0:
256,192,58743,1,8,0:0:0:0:
256,192,58900,1,8,0:0:0:0:
256,192,60314,1,0,0:0:0:0:
256,192,60471,1,8,0:0:0:0:
256,192,60706,1,0,0:0:0:0:
256,192,60785,1,0,0:0:0:0:
256,192,60942,1,8,0:0:0:0:
256,192,61099,1,8,0:0:0:0:
256,192,61178,1,8,0:0:0:0:
256,192,61256,1,0,0:0:0:0:
256,192,61335,1,0,0:0:0:0:
256,192,61413,1,0,0:0:0:0:
256,192,61570,1,0,0:0:0:0:
256,192,61727,1,8,0:0:0:0:
256,192,61806,1,0,0:0:0:0:
256,192,61884,1,8,0:0:0:0:
256,192,61963,1,8,0:0:0:0:
256,192,62041,1,0,0:0:0:0:
256,192,62198,1,8,0:0:0:0:
256,192,62356,1,8,0:0:0:0:
256,192,62434,1,8,0:0:0:0:
256,192,62513,1,8,0:0:0:0:
256,192,62670,1,8,0:0:0:0:
256,192,62827,1,0,0:0:0:0:
256,192,62984,1,8,0:0:0:0:
256,192,63219,1,8,0:0:0:0:
256,192,63298,1,0,0:0:0:0:
256,192,63455,1,8,0:0:0:0:
256,192,63612,1,0,0:0:0:0:
256,192,63691,1,0,0:0:0:0:
256,192,63926,1,8,0:0:0:0:
256,192,64083,1,0,0:0:0:0:
256,192,64319,1,0,0:0:0:0:
256,192,64397,1,8,0:0:0:0:
256,192,64476,1,8,0:0:0:0:
256,192,64554,1,0,0:0:0:0:
256,192,64712,1,8,0:0:0:0:
256,192,64869,1,0,0:0:0:0:
256,192,65026,1,0,0:0:0:0:
256,192,65183,1,8,0:0:0:0:
256,192,65340,1,0,0:0:0:0:
256,192,65497,1,8,0:0:0:0:
256,192,65732,1,0,0:0:0:0:
256,192,65811,1,0,0:0:0:0:
256,192,65968,1,8,0:0:0:0:
256,192,66125,1,8,0:0:0:0:
256,192,66204,1,8,0:0:0:0:
256,192,66282,1,0,0:0:0:0:
256,192,66361,1,0,0:0:0:0:
256,192,66439,1,0,0:0:0:0:
256,192,66596,1,0,0:0:0:0:
256,192,66753,1,8,0:0:0:0:
256,192,66832,1,0,0:0:0:0:
256,192,66910,1,8,0:0:0:0:
256,192,66989,1,8,0:0:0:0:
256,192,67067,1,0,0:0:0:0:
256,192,67224,1,8,0:0:0:0:
256,192,67382,1,8,0:0:0:0:
256,192,67460,1,8,0:0:0:0:
256,192,67539,1,8,0:0:0:0:
256,192,67696,1,8,0:0:0:0:
256,192,67853,1,0,0:0:0:0:
256,192,68010,1,8,0:0:0:0:
256,192,68245,1,8,0:0:0:0:
256,192,68324,1,0,0:0:0:0:
256,192,68481,1,8,0:0:0:0:
256,192,68638,1,0,0:0:0:0:
256,192,68717,1,0,0:0:0:0:
256,192,68952,1,8,0:0:0:0:
256,192,69109,1,0,0:0:0:0:
256,192,69345,1,0,0:0:0:0:
256,192,69423,1,8,0:0:0:0:
256,192,69502,1,8,0:0:0:0:
256,192,69580,1,0,0:0:0:0:
256,192,69738,1,8,0:0:0:0:
256,192,69895,1,0,0:0:0:0:
256,192,70052,1,0,0:0:0:0:
256,192,70209,1,8,0:0:0:0:
256,192,70366,1,0,0:0:0:0:
256,192,70837,1,0,0:0:0:0:
256,192,71623,1,0,0:0:0:0:
256,192,71780,1,8,0:0:0:0:
256,192,72015,1,8,0:0:0:0:
256,192,72094,1,0,0:0:0:0:
256,192,72251,1,8,0:0:0:0:
256,192,72408,1,8,0:0:0:0:
256,192,72486,1,8,0:0:0:0:
256,192,72565,1,8,0:0:0:0:
256,192,72722,1,8,0:0:0:0:
256,192,72879,1,0,0:0:0:0:
256,192,73036,1,8,0:0:0:0:
256,192,73271,1,0,0:0:0:0:
256,192,73350,1,0,0:0:0:0:
256,192,73507,1,8,0:0:0:0:
256,192,73664,1,8,0:0:0:0:
256,192,73743,1,8,0:0:0:0:
256,192,73821,1,0,0:0:0:0:
256,192,73978,1,0,0:0:0:0:
256,192,74135,1,0,0:0:0:0:
256,192,74292,1,8,0:0:0:0:
256,192,74371,1,0,0:0:0:0:
256,192,74449,1,8,0:0:0:0:
256,192,74528,1,8,0:0:0:0:
256,192,74606,1,0,0:0:0:0:
256,192,74763,1,8,0:0:0:0:
256,192,74921,1,8,0:0:0:0:
256,192,74999,1,8,0:0:0:0:
256,192,75078,1,8,0:0:0:0:
256,192,75235,1,8,0:0:0:0:
256,192,75392,1,0,0:0:0:0:
256,192,75549,1,8,0:0:0:0:
256,192,75784,1,8,0:0:0:0:
256,192,75863,1,0,0:0:0:0:
256,192,76020,1,8,0:0:0:0:
256,192,76177,1,0,0:0:0:0:
256,192,76256,1,0,0:0:0:0:
256,192,76335,1,0,0:0:0:0:
256,192,76413,1,0,0:0:0:0:
256,192,76491,1,8,0:0:0:0:
256,192,76648,1,0,0:0:0:0:
256,192,76884,1,0,0:0:0:0:
256,192,76962,1,8,0:0:0:0:
256,192,77041,1,8,0:0:0:0:
256,192,77119,1,0,0:0:0:0:
256,192,77277,1,8,0:0:0:0:
256,192,77434,1,0,0:0:0:0:
256,192,77591,1,0,0:0:0:0:
256,192,77748,1,8,0:0:0:0:
256,192,77905,1,0,0:0:0:0:
256,192,78062,1,8,0:0:0:0:
256,192,78297,1,0,0:0:0:0:
256,192,78376,1,0,0:0:0:0:
256,192,78533,1,8,0:0:0:0:
256,192,78690,1,8,0:0:0:0:
256,192,78769,1,8,0:0:0:0:
256,192,78847,1,0,0:0:0:0:
256,192,79004,1,0,0:0:0:0:
256,192,79161,1,0,0:0:0:0:
256,192,79318,1,8,0:0:0:0:
256,192,79397,1,0,0:0:0:0:
256,192,79475,1,8,0:0:0:0:
256,192,79554,1,8,0:0:0:0:
256,192,79632,1,0,0:0:0:0:
256,192,79789,1,8,0:0:0:0:
256,192,79947,1,8,0:0:0:0:
256,192,80025,1,8,0:0:0:0:
256,192,80104,1,8,0:0:0:0:
256,192,80261,1,8,0:0:0:0:
256,192,80418,1,0,0:0:0:0:
256,192,80575,1,8,0:0:0:0:
256,192,80890,1,8,0:0:0:0:
256,192,81047,1,8,0:0:0:0:
256,192,81125,1,8,0:0:0:0:
256,192,81204,1,0,0:0:0:0:
256,192,81282,1,0,0:0:0:0:
256,192,81361,1,0,0:0:0:0:
256,192,81518,1,8,0:0:0:0:
256,192,81675,1,8,0:0:0:0:
256,192,81832,1,0,0:0:0:0:
256,192,82146,1,0,0:0:0:0:
256,192,82303,1,0,0:0:0:0:
256,192,82460,1,0,0:0:0:0:
256,192,82539,1,0,0:0:0:0:
256,192,82617,1,8,0:0:0:0:
256,192,82696,1,8,0:0:0:0:
256,192,82774,1,0,0:0:0:0:
256,192,82853,1,0,0:0:0:0:
256,192,82931,1,0,0:0:0:0:
256,192,83089,1,0,0:0:0:0:
256,192,83246,1,0,0:0:0:0:
256,192,83403,1,8,0:0:0:0:
256,192,83560,1,0,0:0:0:0:
256,192,83717,1,8,0:0:0:0:
256,192,83874,1,0,0:0:0:0:
256,192,84031,1,8,0:0:0:0:
256,192,84188,1,0,0:0:0:0:
256,192,84345,1,0,0:0:0:0:
256,192,84502,1,8,0:0:0:0:
256,192,84659,1,8,0:0:0:0:
256,192,84816,1,0,0:0:0:0:
256,192,84895,1,0,0:0:0:0:
256,192,84973,1,8,0:0:0:0:
256,192,85052,1,8,0:0:0:0:
256,192,85130,1,0,0:0:0:0:
256,192,85209,1,0,0:0:0:0:
256,192,85287,1,8,0:0:0:0:
256,192,85445,1,0,0:0:0:0:
256,192,85602,1,8,0:0:0:0:
256,192,85916,1,8,0:0:0:0:
256,192,86073,1,8,0:0:0:0:
256,192,86151,1,8,0:0:0:0:
256,192,86230,1,0,0:0:0:0:
256,192,86308,1,0,0:0:0:0:
256,192,86387,1,0,0:0:0:0:
256,192,86544,1,8,0:0:0:0:
256,192,86701,1,8,0:0:0:0:
256,192,86858,1,0,0:0:0:0:
256,192,87172,1,0,0:0:0:0:
256,192,87329,1,0,0:0:0:0:
256,192,87486,1,8,0:0:0:0:
256,192,87643,1,8,0:0:0:0:
256,192,87722,1,8,0:0:0:0:
256,192,87801,1,0,0:0:0:0:
256,192,87879,1,0,0:0:0:0:
256,192,87958,1,0,0:0:0:0:
256,192,88115,1,0,0:0:0:0:
256,192,88272,1,8,0:0:0:0:
256,192,88429,1,8,0:0:0:0:
256,192,88586,1,0,0:0:0:0:
256,192,88743,1,8,0:0:0:0:
256,192,88900,1,0,0:0:0:0:
256,192,89057,1,8,0:0:0:0:
256,192,89214,1,0,0:0:0:0:
256,192,89371,1,0,0:0:0:0:
256,192,89528,1,8,0:0:0:0:
256,192,89685,1,8,0:0:0:0:
256,192,89842,1,0,0:0:0:0:
256,192,89999,1,8,0:0:0:0:
256,192,90157,1,0,0:0:0:0:
256,192,90314,1,8,0:0:0:0:
256,192,90471,1,0,0:0:0:0:
256,192,90628,1,0,0:0:0:0:
256,192,90785,1,8,0:0:0:0:
256,192,90863,1,8,0:0:0:0:
256,192,90942,1,0,0:0:0:0:
256,192,91020,1,0,0:0:0:0:
256,192,91099,1,0,0:0:0:0:
256,192,91178,1,0,0:0:0:0:
256,192,91256,1,0,0:0:0:0:
256,192,91570,1,8,0:0:0:0:
256,192,91649,1,0,0:0:0:0:
256,192,91727,1,0,0:0:0:0:
256,192,91884,1,0,0:0:0:0:
256,192,92041,1,8,0:0:0:0:
256,192,92120,1,8,0:0:0:0:
256,192,92198,1,0,0:0:0:0:
256,192,92277,1,0,0:0:0:0:
256,192,92356,1,0,0:0:0:0:
256,192,92434,1,0,0:0:0:0:
256,192,92513,1,8,0:0:0:0:
256,192,92670,1,0,0:0:0:0:
256,192,92827,1,8,0:0:0:0:
256,192,92984,1,0,0:0:0:0:
256,192,93141,1,8,0:0:0:0:
256,192,93298,1,8,0:0:0:0:
256,192,93376,1,8,0:0:0:0:
256,192,93455,1,0,0:0:0:0:
256,192,93534,1,0,0:0:0:0:
256,192,93612,1,0,0:0:0:0:
256,192,93691,1,0,0:0:0:0:
256,192,93769,1,0,0:0:0:0:
256,192,93926,1,8,0:0:0:0:
256,192,94083,1,8,0:0:0:0:
256,192,94240,1,0,0:0:0:0:
256,192,94397,1,0,0:0:0:0:
256,192,94554,1,8,0:0:0:0:
256,192,94633,1,8,0:0:0:0:
256,192,94712,1,0,0:0:0:0:
256,192,94790,1,0,0:0:0:0:
256,192,94869,1,0,0:0:0:0:
256,192,94947,1,0,0:0:0:0:
256,192,95026,1,8,0:0:0:0:
256,192,95340,1,8,0:0:0:0:
256,192,95497,1,0,0:0:0:0:
256,192,95654,1,0,0:0:0:0:
256,192,95811,1,8,0:0:0:0:
256,192,95889,1,8,0:0:0:0:
256,192,95968,1,0,0:0:0:0:
256,192,96046,1,0,0:0:0:0:
256,192,96125,1,0,0:0:0:0:
256,192,96204,1,0,0:0:0:0:
256,192,96282,1,0,0:0:0:0:
256,192,96596,1,8,0:0:0:0:
256,192,96675,1,0,0:0:0:0:
256,192,96753,1,0,0:0:0:0:
256,192,96910,1,0,0:0:0:0:
256,192,97067,1,8,0:0:0:0:
256,192,97146,1,8,0:0:0:0:
256,192,97224,1,0,0:0:0:0:
256,192,97303,1,0,0:0:0:0:
256,192,97382,1,0,0:0:0:0:
256,192,97460,1,0,0:0:0:0:
256,192,97539,1,8,0:0:0:0:
256,192,97696,1,0,0:0:0:0:
256,192,97853,1,8,0:0:0:0:
256,192,98010,1,0,0:0:0:0:
256,192,98167,1,8,0:0:0:0:
256,192,98324,1,8,0:0:0:0:
256,192,98402,1,8,0:0:0:0:
256,192,98481,1,0,0:0:0:0:
256,192,98560,1,0,0:0:0:0:
256,192,98638,1,0,0:0:0:0:
256,192,98717,1,0,0:0:0:0:
256,192,98795,1,0,0:0:0:0:
256,192,98952,1,8,0:0:0:0:
256,192,99109,1,8,0:0:0:0:
256,192,99266,1,0,0:0:0:0:
256,192,99423,1,0,0:0:0:0:
256,192,99580,1,8,0:0:0:0:
256,192,99659,1,8,0:0:0:0:
256,192,99738,1,0,0:0:0:0:
256,192,99816,1,0,0:0:0:0:
256,192,99895,1,0,0:0:0:0:
256,192,99973,1,0,0:0:0:0:
256,192,100052,1,8,0:0:0:0:
256,192,100366,1,8,0:0:0:0:
256,192,100523,1,0,0:0:0:0:
256,192,100680,1,0,0:0:0:0:
256,192,100837,1,8,0:0:0:0:
256,192,100915,1,8,0:0:0:0:
256,192,100994,1,0,0:0:0:0:
256,192,101072,1,0,0:0:0:0:
256,192,101151,1,0,0:0:0:0:
256,192,101230,1,0,0:0:0:0:
256,192,101308,1,0,0:0:0:0:
256,192,101622,1,8,0:0:0:0:
256,192,101701,1,0,0:0:0:0:
256,192,101779,1,0,0:0:0:0:
256,192,101936,1,0,0:0:0:0:
256,192,102093,1,8,0:0:0:0:
256,192,102172,1,8,0:0:0:0:
256,192,102250,1,0,0:0:0:0:
256,192,102329,1,0,0:0:0:0:
256,192,102408,1,0,0:0:0:0:
256,192,102486,1,0,0:0:0:0:
256,192,102565,1,8,0:0:0:0:
256,192,102879,1,8,0:0:0:0:
256,192,103036,1,0,0:0:0:0:
256,192,103193,1,8,0:0:0:0:
256,192,103350,1,8,0:0:0:0:
256,192,103428,1,8,0:0:0:0:
256,192,103507,1,0,0:0:0:0:
256,192,103586,1,0,0:0:0:0:
256,192,103664,1,0,0:0:0:0:
256,192,103743,1,0,0:0:0:0:
256,192,103821,1,0,0:0:0:0:
256,192,103979,1,8,0:0:0:0:
256,192,104135,1,8,0:0:0:0:
256,192,104292,1,0,0:0:0:0:
256,192,104449,1,0,0:0:0:0:
256,192,104606,1,8,0:0:0:0:
256,192,104685,1,8,0:0:0:0:
256,192,104764,1,0,0:0:0:0:
256,192,104842,1,0,0:0:0:0:
256,192,104921,1,0,0:0:0:0:
256,192,104999,1,0,0:0:0:0:
256,192,105078,1,8,0:0:0:0:
256,192,105392,1,8,0:0:0:0:
256,192,105549,1,0,0:0:0:0:
256,192,105706,1,0,0:0:0:0:
256,192,105863,1,8,0:0:0:0:
256,192,105941,1,8,0:0:0:0:
256,192,106020,1,0,0:0:0:0:
256,192,106098,1,0,0:0:0:0:
256,192,106177,1,0,0:0:0:0:
256,192,106256,1,0,0:0:0:0:
256,192,106334,1,0,0:0:0:0:
256,192,106648,1,8,0:0:0:0:
256,192,106727,1,0,0:0:0:0:
256,192,106805,1,0,0:0:0:0:
256,192,106962,1,0,0:0:0:0:
256,192,107119,1,8,0:0:0:0:
256,192,107198,1,8,0:0:0:0:
256,192,107276,1,0,0:0:0:0:
256,192,107355,1,0,0:0:0:0:
256,192,107434,1,0,0:0:0:0:
256,192,107512,1,0,0:0:0:0:
256,192,107591,1,8,0:0:0:0:
256,192,107905,1,8,0:0:0:0:
256,192,108062,1,0,0:0:0:0:
256,192,108219,1,8,0:0:0:0:
256,192,108376,1,8,0:0:0:0:
256,192,108454,1,8,0:0:0:0:
256,192,108533,1,0,0:0:0:0:
256,192,108612,1,0,0:0:0:0:
256,192,108690,1,0,0:0:0:0:
256,192,108769,1,0,0:0:0:0:
256,192,108847,1,0,0:0:0:0:
256,192,109005,1,8,0:0:0:0:
256,192,109161,1,8,0:0:0:0:
256,192,109318,1,0,0:0:0:0:
256,192,110575,1,0,0:0:0:0:
256,192,111047,1,8,0:0:0:0:
256,192,111518,1,0,0:0:0:0:
256,192,111989,1,8,0:0:0:0:
256,192,112460,1,0,0:0:0:0:
256,192,112774,1,8,0:0:0:0:
256,192,113089,1,0,0:0:0:0:
256,192,113246,1,0,0:0:0:0:
256,192,113560,1,0,0:0:0:0:
256,192,113717,1,0,0:0:0:0:
256,192,114031,1,0,0:0:0:0:
256,192,114188,1,0,0:0:0:0:
256,192,115602,1,0,0:0:0:0:
256,192,116073,1,8,0:0:0:0:
256,192,116544,1,0,0:0:0:0:
256,192,117015,1,8,0:0:0:0:
256,192,117486,1,8,0:0:0:0:
256,192,117801,1,0,0:0:0:0:
256,192,118115,1,8,0:0:0:0:
256,192,118272,1,8,0:0:0:0:
256,192,118586,1,8,0:0:0:0:
256,192,118743,1,8,0:0:0:0:
256,192,119057,1,8,0:0:0:0:
256,192,119214,1,8,0:0:0:0:
256,192,120628,1,0,0:0:0:0:
256,192,121100,1,8,0:0:0:0:
256,192,121571,1,0,0:0:0:0:
256,192,122042,1,8,0:0:0:0:
256,192,122513,1,0,0:0:0:0:
256,192,122827,1,8,0:0:0:0:
256,192,123142,1,0,0:0:0:0:
256,192,123298,1,0,0:0:0:0:
256,192,123612,1,0,0:0:0:0:
256,192,123769,1,0,0:0:0:0:
256,192,124083,1,0,0:0:0:0:
256,192,124240,1,0,0:0:0:0:
256,192,125655,1,0,0:0:0:0:
256,192,126126,1,8,0:0:0:0:
256,192,126597,1,0,0:0:0:0:
256,192,127068,1,8,0:0:0:0:
256,192,127539,1,8,0:0:0:0:
256,192,127854,1,0,0:0:0:0:
256,192,128168,1,8,0:0:0:0:
256,192,128324,1,8,0:0:0:0:
256,192,128638,1,8,0:0:0:0:
256,192,128795,1,8,0:0:0:0:
256,192,129109,1,8,0:0:0:0:
256,192,129267,1,8,0:0:0:0:
256,192,130680,1,0,0:0:0:0:
256,192,130837,1,8,0:0:0:0:
256,192,130994,1,8,0:0:0:0:
256,192,131151,1,0,0:0:0:0:
256,192,131308,1,8,0:0:0:0:
256,192,131387,1,8,0:0:0:0:
256,192,131465,1,0,0:0:0:0:
256,192,131544,1,0,0:0:0:0:
256,192,131623,1,0,0:0:0:0:
256,192,131701,1,0,0:0:0:0:
256,192,131780,1,0,0:0:0:0:
256,192,131937,1,0,0:0:0:0:
256,192,132015,1,0,0:0:0:0:
256,192,132094,1,8,0:0:0:0:
256,192,132172,1,0,0:0:0:0:
256,192,132251,1,0,0:0:0:0:
256,192,132408,1,0,0:0:0:0:
256,192,132565,1,8,0:0:0:0:
256,192,132722,1,8,0:0:0:0:
256,192,132879,1,0,0:0:0:0:
256,192,133036,1,8,0:0:0:0:
256,192,133193,1,0,0:0:0:0:
256,192,133350,1,8,0:0:0:0:
256,192,133507,1,8,0:0:0:0:
256,192,133664,1,0,0:0:0:0:
256,192,133821,1,8,0:0:0:0:
256,192,133900,1,8,0:0:0:0:
256,192,133979,1,0,0:0:0:0:
256,192,134057,1,0,0:0:0:0:
256,192,134136,1,0,0:0:0:0:
256,192,134214,1,0,0:0:0:0:
256,192,134293,1,0,0:0:0:0:
256,192,134450,1,0,0:0:0:0:
256,192,134528,1,0,0:0:0:0:
256,192,134607,1,8,0:0:0:0:
256,192,134685,1,8,0:0:0:0:
256,192,134764,1,0,0:0:0:0:
256,192,134921,1,0,0:0:0:0:
256,192,135078,1,8,0:0:0:0:
256,192,135235,1,8,0:0:0:0:
256,192,135392,1,8,0:0:0:0:
256,192,135549,1,8,0:0:0:0:
256,192,135706,1,0,0:0:0:0:
256,192,135863,1,8,0:0:0:0:
256,192,136020,1,8,0:0:0:0:
256,192,136177,1,0,0:0:0:0:
256,192,136334,1,8,0:0:0:0:
256,192,136413,1,8,0:0:0:0:
256,192,136491,1,0,0:0:0:0:
256,192,136570,1,0,0:0:0:0:
256,192,136649,1,0,0:0:0:0:
256,192,136727,1,0,0:0:0:0:
256,192,136806,1,0,0:0:0:0:
256,192,136963,1,0,0:0:0:0:
256,192,137041,1,0,0:0:0:0:
256,192,137120,1,8,0:0:0:0:
256,192,137198,1,0,0:0:0:0:
256,192,137277,1,0,0:0:0:0:
256,192,137434,1,0,0:0:0:0:
256,192,137591,1,8,0:0:0:0:
256,192,137748,1,8,0:0:0:0:
256,192,137905,1,0,0:0:0:0:
256,192,138062,1,8,0:0:0:0:
256,192,138219,1,0,0:0:0:0:
256,192,138376,1,8,0:0:0:0:
256,192,138533,1,8,0:0:0:0:
256,192,138690,1,0,0:0:0:0:
256,192,138847,1,8,0:0:0:0:
256,192,138926,1,8,0:0:0:0:
256,192,139005,1,0,0:0:0:0:
256,192,139083,1,0,0:0:0:0:
256,192,139162,1,0,0:0:0:0:
256,192,139240,1,0,0:0:0:0:
256,192,139319,1,0,0:0:0:0:
256,192,139476,1,0,0:0:0:0:
256,192,139554,1,0,0:0:0:0:
256,192,139633,1,8,0:0:0:0:
256,192,139711,1,8,0:0:0:0:
256,192,139790,1,0,0:0:0:0:
256,192,139947,1,0,0:0:0:0:
256,192,140104,1,8,0:0:0:0:
256,192,140261,1,8,0:0:0:0:
256,192,140418,1,8,0:0:0:0:
256,192,140575,1,8,0:0:0:0:
256,192,140732,1,0,0:0:0:0:
256,192,140889,1,8,0:0:0:0:
256,192,141046,1,8,0:0:0:0:
256,192,141203,1,0,0:0:0:0:
256,192,141360,1,8,0:0:0:0:
256,192,141439,1,8,0:0:0:0:
256,192,141517,1,0,0:0:0:0:
256,192,141596,1,0,0:0:0:0:
256,192,141675,1,0,0:0:0:0:
256,192,141753,1,0,0:0:0:0:
256,192,141832,1,0,0:0:0:0:
256,192,141989,1,0,0:0:0:0:
256,192,142067,1,0,0:0:0:0:
256,192,142146,1,8,0:0:0:0:
256,192,142224,1,0,0:0:0:0:
256,192,142303,1,0,0:0:0:0:
256,192,142460,1,0,0:0:0:0:
256,192,142617,1,8,0:0:0:0:
256,192,142774,1,8,0:0:0:0:
256,192,142931,1,0,0:0:0:0:
256,192,143088,1,8,0:0:0:0:
256,192,143245,1,0,0:0:0:0:
256,192,143402,1,8,0:0:0:0:
256,192,143559,1,8,0:0:0:0:
256,192,143716,1,0,0:0:0:0:
256,192,143873,1,8,0:0:0:0:
256,192,143952,1,8,0:0:0:0:
256,192,144031,1,0,0:0:0:0:
256,192,144109,1,0,0:0:0:0:
256,192,144188,1,0,0:0:0:0:
256,192,144266,1,0,0:0:0:0:
256,192,144345,1,0,0:0:0:0:
256,192,144502,1,0,0:0:0:0:
256,192,144580,1,0,0:0:0:0:
256,192,144659,1,8,0:0:0:0:
256,192,144737,1,8,0:0:0:0:
256,192,144816,1,0,0:0:0:0:
256,192,144973,1,0,0:0:0:0:
256,192,145130,1,8,0:0:0:0:
256,192,145287,1,8,0:0:0:0:
256,192,145444,1,8,0:0:0:0:
256,192,145601,1,8,0:0:0:0:
256,192,145759,1,0,0:0:0:0:
256,192,145916,1,8,0:0:0:0:
256,192,146073,1,8,0:0:0:0:
256,192,146230,1,0,0:0:0:0:
256,192,146387,1,8,0:0:0:0:
256,192,146466,1,8,0:0:0:0:
256,192,146544,1,0,0:0:0:0:
256,192,146623,1,0,0:0:0:0:
256,192,146702,1,0,0:0:0:0:
256,192,146780,1,0,0:0:0:0:
256,192,146859,1,0,0:0:0:0:
256,192,147016,1,0,0:0:0:0:
256,192,147094,1,0,0:0:0:0:
256,192,147173,1,8,0:0:0:0:
256,192,147251,1,0,0:0:0:0:
256,192,147330,1,0,0:0:0:0:
256,192,147487,1,0,0:0:0:0:
256,192,147644,1,8,0:0:0:0:
256,192,147801,1,8,0:0:0:0:
256,192,147958,1,0,0:0:0:0:
256,192,148115,1,8,0:0:0:0:
256,192,148272,1,0,0:0:0:0:
256,192,148429,1,8,0:0:0:0:
256,192,148586,1,8,0:0:0:0:
256,192,148743,1,0,0:0:0:0:
256,192,148900,1,8,0:0:0:0:
256,192,148979,1,8,0:0:0:0:
256,192,149058,1,0,0:0:0:0:
256,192,149136,1,0,0:0:0:0:
256,192,149215,1,0,0:0:0:0:
256,192,149293,1,0,0:0:0:0:
256,192,149372,1,0,0:0:0:0:
256,192,149529,1,0,0:0:0:0:
256,192,150785,1,12,0:0:0:0:
256,192,153298,1,0,0:0:0:0:
256,192,153455,1,0,0:0:0:0:
256,192,153769,1,0,0:0:0:0:
256,192,153926,1,0,0:0:0:0:
256,192,154240,1,0,0:0:0:0:
256,192,154397,1,0,0:0:0:0:
256,192,155811,1,0,0:0:0:0:
256,192,155968,1,0,0:0:0:0:
256,192,156282,1,0,0:0:0:0:
256,192,156439,1,0,0:0:0:0:
256,192,156753,1,0,0:0:0:0:
256,192,156910,1,0,0:0:0:0:
256,192,158324,1,0,0:0:0:0:
256,192,158481,1,0,0:0:0:0:
256,192,158795,1,0,0:0:0:0:
256,192,158952,1,0,0:0:0:0:
256,192,159267,1,0,0:0:0:0:
256,192,159424,1,0,0:0:0:0:
256,192,160837,1,0,0:0:0:0:
256,192,160994,1,8,0:0:0:0:
256,192,161151,1,8,0:0:0:0:
256,192,161308,1,0,0:0:0:0:
256,192,161465,1,8,0:0:0:0:
256,192,161544,1,8,0:0:0:0:
256,192,161623,1,0,0:0:0:0:
256,192,161701,1,0,0:0:0:0:
256,192,161780,1,0,0:0:0:0:
256,192,161858,1,0,0:0:0:0:
256,192,161937,1,0,0:0:0:0:
256,192,162094,1,0,0:0:0:0:
256,192,162172,1,0,0:0:0:0:
256,192,162251,1,8,0:0:0:0:
256,192,162329,1,0,0:0:0:0:
256,192,162408,1,0,0:0:0:0:
256,192,162565,1,0,0:0:0:0:
256,192,162722,1,8,0:0:0:0:
256,192,162879,1,8,0:0:0:0:
256,192,163036,1,0,0:0:0:0:
256,192,163193,1,0,0:0:0:0:
256,192,163350,1,0,0:0:0:0:
256,192,163507,1,8,0:0:0:0:
256,192,163664,1,8,0:0:0:0:
256,192,163821,1,0,0:0:0:0:
256,192,163979,1,8,0:0:0:0:
256,192,164057,1,8,0:0:0:0:
256,192,164136,1,0,0:0:0:0:
256,192,164214,1,0,0:0:0:0:
256,192,164293,1,0,0:0:0:0:
256,192,164371,1,0,0:0:0:0:
256,192,164450,1,0,0:0:0:0:
256,192,164607,1,0,0:0:0:0:
256,192,164685,1,0,0:0:0:0:
256,192,164764,1,8,0:0:0:0:
256,192,164842,1,8,0:0:0:0:
256,192,164921,1,0,0:0:0:0:
256,192,165078,1,0,0:0:0:0:
256,192,165235,1,8,0:0:0:0:
256,192,165392,1,8,0:0:0:0:
256,192,165549,1,0,0:0:0:0:
256,192,165706,1,8,0:0:0:0:
256,192,165863,1,0,0:0:0:0:
256,192,166020,1,8,0:0:0:0:
256,192,166178,1,8,0:0:0:0:
256,192,166335,1,0,0:0:0:0:
256,192,166492,1,8,0:0:0:0:
256,192,166570,1,8,0:0:0:0:
256,192,166649,1,0,0:0:0:0:
256,192,166727,1,0,0:0:0:0:
256,192,166806,1,0,0:0:0:0:
256,192,166884,1,0,0:0:0:0:
256,192,166963,1,0,0:0:0:0:
256,192,167120,1,0,0:0:0:0:
256,192,167198,1,0,0:0:0:0:
256,192,167277,1,8,0:0:0:0:
256,192,167356,1,0,0:0:0:0:
256,192,167434,1,0,0:0:0:0:
256,192,167591,1,0,0:0:0:0:
256,192,167748,1,8,0:0:0:0:
256,192,167905,1,8,0:0:0:0:
256,192,168062,1,0,0:0:0:0:
256,192,168219,1,0,0:0:0:0:
256,192,168376,1,0,0:0:0:0:
256,192,168534,1,8,0:0:0:0:
256,192,168691,1,8,0:0:0:0:
256,192,168848,1,0,0:0:0:0:
256,192,169005,1,8,0:0:0:0:
256,192,169083,1,8,0:0:0:0:
256,192,169162,1,0,0:0:0:0:
256,192,169240,1,0,0:0:0:0:
256,192,169319,1,0,0:0:0:0:
256,192,169397,1,0,0:0:0:0:
256,192,169476,1,0,0:0:0:0:
256,192,169633,1,0,0:0:0:0:
256,192,169712,1,0,0:0:0:0:
256,192,169790,1,8,0:0:0:0:
256,192,169869,1,8,0:0:0:0:
256,192,169947,1,0,0:0:0:0:
256,192,170104,1,0,0:0:0:0:
256,192,170261,1,8,0:0:0:0:
256,192,170418,1,8,0:0:0:0:
256,192,170575,1,0,0:0:0:0:
256,192,170732,1,8,0:0:0:0:
256,192,170890,1,0,0:0:0:0:
256,192,171047,1,0,0:0:0:0:
256,192,171204,1,8,0:0:0:0:
256,192,171282,1,8,0:0:0:0:
256,192,171361,1,8,0:0:0:0:
256,192,171439,1,8,0:0:0:0:
256,192,171518,1,8,0:0:0:0:
256,192,171596,1,8,0:0:0:0:
256,192,171675,1,0,0:0:0:0:
256,192,171832,1,0,0:0:0:0:
256,192,171989,1,8,0:0:0:0:
256,192,172146,1,0,0:0:0:0:
256,192,172303,1,0,0:0:0:0:
256,192,172460,1,8,0:0:0:0:
256,192,172617,1,0,0:0:0:0:
256,192,172696,1,8,0:0:0:0:
256,192,172774,1,8,0:0:0:0:
256,192,172853,1,8,0:0:0:0:
256,192,172931,1,0,0:0:0:0:
256,192,173089,1,8,0:0:0:0:
256,192,173246,1,8,0:0:0:0:
256,192,173403,1,0,0:0:0:0:
256,192,173560,1,0,0:0:0:0:
256,192,173717,1,8,0:0:0:0:
256,192,173795,1,8,0:0:0:0:
256,192,173874,1,8,0:0:0:0:
256,192,173952,1,8,0:0:0:0:
256,192,174031,1,8,0:0:0:0:
256,192,174109,1,8,0:0:0:0:
256,192,174188,1,0,0:0:0:0:
256,192,174345,1,0,0:0:0:0:
256,192,174502,1,8,0:0:0:0:
256,192,174659,1,0,0:0:0:0:
256,192,174816,1,0,0:0:0:0:
256,192,174973,1,8,0:0:0:0:
256,192,175052,1,0,0:0:0:0:
256,192,175130,1,0,0:0:0:0:
256,192,175209,1,8,0:0:0:0:
256,192,175287,1,8,0:0:0:0:
256,192,175366,1,8,0:0:0:0:
256,192,175445,1,0,0:0:0:0:
256,192,175602,1,8,0:0:0:0:
256,192,175759,1,8,0:0:0:0:
256,192,175916,1,0,0:0:0:0:
256,192,176073,1,0,0:0:0:0:
256,192,176230,1,8,0:0:0:0:
256,192,176308,1,8,0:0:0:0:
256,192,176387,1,8,0:0:0:0:
256,192,176465,1,8,0:0:0:0:
256,192,176544,1,8,0:0:0:0:
256,192,176622,1,8,0:0:0:0:
256,192,176701,1,0,0:0:0:0:
256,192,176858,1,8,0:0:0:0:
256,192,177015,1,8,0:0:0:0:
256,192,177172,1,0,0:0:0:0:
256,192,177329,1,0,0:0:0:0:
256,192,177486,1,8,0:0:0:0:
256,192,177643,1,0,0:0:0:0:
256,192,177722,1,8,0:0:0:0:
256,192,177800,1,8,0:0:0:0:
256,192,177879,1,8,0:0:0:0:
256,192,177957,1,0,0:0:0:0:
256,192,178115,1,8,0:0:0:0:
256,192,178272,1,8,0:0:0:0:
256,192,178429,1,0,0:0:0:0:
256,192,178586,1,0,0:0:0:0:
256,192,178743,1,8,0:0:0:0:
256,192,178821,1,8,0:0:0:0:
256,192,178900,1,8,0:0:0:0:
256,192,178978,1,8,0:0:0:0:
256,192,179057,1,8,0:0:0:0:
256,192,179135,1,8,0:0:0:0:
256,192,179214,1,0,0:0:0:0:
256,192,179371,1,8,0:0:0:0:
256,192,179528,1,8,0:0:0:0:
256,192,179685,1,0,0:0:0:0:
256,192,179842,1,0,0:0:0:0:
256,192,179999,1,8,0:0:0:0:
256,192,180078,1,8,0:0:0:0:
256,192,180156,1,0,0:0:0:0:
256,192,180235,1,0,0:0:0:0:
256,192,180313,1,8,0:0:0:0:
256,192,180392,1,8,0:0:0:0:
256,192,180471,1,0,0:0:0:0:
256,192,180628,1,8,0:0:0:0:
256,192,180785,1,8,0:0:0:0:
256,192,180942,1,0,0:0:0:0:
256,192,181099,1,0,0:0:0:0:
256,192,181256,1,8,0:0:0:0:
256,192,181334,1,8,0:0:0:0:
256,192,181413,1,8,0:0:0:0:
256,192,181491,1,8,0:0:0:0:
256,192,181570,1,8,0:0:0:0:
256,192,181648,1,8,0:0:0:0:
256,192,181727,1,0,0:0:0:0:
256,192,181884,1,8,0:0:0:0:
256,192,182041,1,8,0:0:0:0:
256,192,182198,1,0,0:0:0:0:
256,192,182355,1,0,0:0:0:0:
256,192,182512,1,8,0:0:0:0:
256,192,182669,1,0,0:0:0:0:
256,192,182748,1,8,0:0:0:0:
256,192,182826,1,8,0:0:0:0:
256,192,182905,1,8,0:0:0:0:
256,192,182983,1,0,0:0:0:0:
256,192,183141,1,8,0:0:0:0:
256,192,183298,1,8,0:0:0:0:
256,192,183455,1,0,0:0:0:0:
256,192,183612,1,0,0:0:0:0:
256,192,183769,1,8,0:0:0:0:
256,192,183847,1,8,0:0:0:0:
256,192,183926,1,8,0:0:0:0:
256,192,184004,1,8,0:0:0:0:
256,192,184083,1,8,0:0:0:0:
256,192,184161,1,8,0:0:0:0:
256,192,184240,1,0,0:0:0:0:
256,192,184397,1,8,0:0:0:0:
256,192,184554,1,8,0:0:0:0:
256,192,184711,1,0,0:0:0:0:
256,192,184868,1,0,0:0:0:0:
256,192,185025,1,8,0:0:0:0:
256,192,185104,1,8,0:0:0:0:
256,192,185182,1,0,0:0:0:0:
256,192,185261,1,8,0:0:0:0:
256,192,185339,1,8,0:0:0:0:
256,192,185418,1,0,0:0:0:0:
256,192,185497,1,0,0:0:0:0:
256,192,185654,1,8,0:0:0:0:
256,192,185811,1,8,0:0:0:0:
256,192,185968,1,0,0:0:0:0:
256,192,186125,1,0,0:0:0:0:
256,192,186282,1,8,0:0:0:0:
256,192,186360,1,8,0:0:0:0:
256,192,186439,1,8,0:0:0:0:
256,192,186517,1,8,0:0:0:0:
256,192,186596,1,8,0:0:0:0:
256,192,186674,1,8,0:0:0:0:
256,192,186753,1,0,0:0:0:0:
256,192,186910,1,8,0:0:0:0:
256,192,187067,1,8,0:0:0:0:
256,192,187224,1,0,0:0:0:0:
256,192,187381,1,0,0:0:0:0:
256,192,187538,1,8,0:0:0:0:
256,192,187695,1,0,0:0:0:0:
256,192,187774,1,8,0:0:0:0:
256,192,187852,1,8,0:0:0:0:
256,192,187931,1,8,0:0:0:0:
256,192,188009,1,0,0:0:0:0:
256,192,188167,1,8,0:0:0:0:
256,192,188324,1,8,0:0:0:0:
256,192,188481,1,0,0:0:0:0:
256,192,188638,1,0,0:0:0:0:
256,192,188795,1,8,0:0:0:0:
256,192,188873,1,8,0:0:0:0:
256,192,188952,1,8,0:0:0:0:
256,192,189030,1,8,0:0:0:0:
256,192,189109,1,8,0:0:0:0:
256,192,189187,1,8,0:0:0:0:
256,192,189266,1,0,0:0:0:0:
256,192,189423,1,8,0:0:0:0:
256,192,189580,1,8,0:0:0:0:
256,192,189737,1,0,0:0:0:0:
256,192,190994,1,12,0:0:0:0:
256,192,191308,1,0,0:0:0:0:
256,192,191465,1,0,0:0:0:0:
256,192,191780,1,8,0:0:0:0:
256,192,191937,1,0,0:0:0:0:
256,192,192015,1,0,0:0:0:0:
256,192,192094,1,0,0:0:0:0:
256,192,192251,1,8,0:0:0:0:
256,192,192408,1,0,0:0:0:0:
256,192,192565,1,0,0:0:0:0:
256,192,192722,1,8,0:0:0:0:
256,192,192879,1,0,0:0:0:0:
256,192,193036,1,0,0:0:0:0:
256,192,193193,1,8,0:0:0:0:
256,192,193350,1,8,0:0:0:0:
256,192,193664,1,0,0:0:0:0:
256,192,193979,1,0,0:0:0:0:
256,192,194293,1,0,0:0:0:0:
256,192,194450,1,8,0:0:0:0:
256,192,194764,1,0,0:0:0:0:
256,192,195078,1,8,0:0:0:0:
256,192,195392,1,8,0:0:0:0:
256,192,195549,1,8,0:0:0:0:
256,192,195863,1,8,0:0:0:0:
256,192,196020,1,8,0:0:0:0:
256,192,196649,1,8,0:0:0:0:
256,192,196963,1,0,0:0:0:0:
256,192,197120,1,8,0:0:0:0:
256,192,197434,1,8,0:0:0:0:
256,192,197748,1,0,0:0:0:0:
256,192,197905,1,8,0:0:0:0:
256,192,198062,1,8,0:0:0:0:
256,192,198219,1,8,0:0:0:0:
256,192,198376,1,8,0:0:0:0:
256,192,199162,1,0,0:0:0:0:
256,192,199319,1,8,0:0:0:0:
256,192,199633,1,0,0:0:0:0:
256,192,199790,1,8,0:0:0:0:
256,192,200418,1,8,0:0:0:0:
256,192,200575,1,0,0:0:0:0:
256,192,200890,1,0,0:0:0:0:
256,192,201047,1,0,0:0:0:0:
256,192,201204,1,8,0:0:0:0:
256,192,201440,1,0,0:0:0:0:
256,192,201518,1,8,0:0:0:0:
256,192,201675,1,0,0:0:0:0:
256,192,201832,1,0,0:0:0:0:
256,192,201911,1,0,0:0:0:0:
256,192,201989,1,0,0:0:0:0:
256,192,202225,1,0,0:0:0:0:
256,192,202303,1,0,0:0:0:0:
256,192,202460,1,8,0:0:0:0:
256,192,202539,1,0,0:0:0:0:
256,192,202618,1,8,0:0:0:0:
256,192,202696,1,8,0:0:0:0:
256,192,202775,1,0,0:0:0:0:
256,192,202853,1,0,0:0:0:0:
256,192,202932,1,0,0:0:0:0:
256,192,203010,1,0,0:0:0:0:
256,192,203089,1,0,0:0:0:0:
256,192,203246,1,8,0:0:0:0:
256,192,203403,1,0,0:0:0:0:
256,192,203560,1,0,0:0:0:0:
256,192,203717,1,0,0:0:0:0:
256,192,203953,1,0,0:0:0:0:
256,192,204031,1,8,0:0:0:0:
256,192,204188,1,8,0:0:0:0:
256,192,204345,1,0,0:0:0:0:
256,192,204424,1,0,0:0:0:0:
256,192,204502,1,8,0:0:0:0:
256,192,204738,1,0,0:0:0:0:
256,192,204816,1,0,0:0:0:0:
256,192,204974,1,8,0:0:0:0:
256,192,205052,1,0,0:0:0:0:
256,192,205131,1,8,0:0:0:0:
256,192,205209,1,8,0:0:0:0:
256,192,205288,1,0,0:0:0:0:
256,192,205366,1,0,0:0:0:0:
256,192,205445,1,0,0:0:0:0:
256,192,205523,1,0,0:0:0:0:
256,192,205602,1,0,0:0:0:0:
256,192,205759,1,8,0:0:0:0:
256,192,205916,1,0,0:0:0:0:
256,192,206073,1,0,0:0:0:0:
256,192,206230,1,0,0:0:0:0:
256,192,206466,1,0,0:0:0:0:
256,192,206544,1,8,0:0:0:0:
256,192,206701,1,0,0:0:0:0:
256,192,206858,1,0,0:0:0:0:
256,192,206937,1,0,0:0:0:0:
256,192,207015,1,8,0:0:0:0:
256,192,207251,1,0,0:0:0:0:
256,192,207330,1,0,0:0:0:0:
256,192,207487,1,8,0:0:0:0:
256,192,207565,1,0,0:0:0:0:
256,192,207644,1,8,0:0:0:0:
256,192,207722,1,8,0:0:0:0:
256,192,207801,1,0,0:0:0:0:
256,192,207879,1,0,0:0:0:0:
256,192,207958,1,0,0:0:0:0:
256,192,208036,1,0,0:0:0:0:
256,192,208115,1,0,0:0:0:0:
256,192,208272,1,8,0:0:0:0:
256,192,208429,1,0,0:0:0:0:
256,192,208586,1,0,0:0:0:0:
256,192,208743,1,0,0:0:0:0:
256,192,208979,1,0,0:0:0:0:
256,192,209057,1,8,0:0:0:0:
256,192,209214,1,8,0:0:0:0:
256,192,209371,1,0,0:0:0:0:
256,192,209450,1,0,0:0:0:0:
256,192,209529,1,8,0:0:0:0:
256,192,209764,1,0,0:0:0:0:
256,192,209843,1,0,0:0:0:0:
256,192,210000,1,8,0:0:0:0:
256,192,210078,1,0,0:0:0:0:
256,192,210157,1,8,0:0:0:0:
256,192,210235,1,8,0:0:0:0:
256,192,210314,1,0,0:0:0:0:
256,192,210392,1,0,0:0:0:0:
256,192,210471,1,0,0:0:0:0:
256,192,210549,1,0,0:0:0:0:
256,192,210628,1,0,0:0:0:0:
256,192,210785,1,8,0:0:0:0:
256,192,210942,1,0,0:0:0:0:
256,192,211099,1,0,0:0:0:0:
256,192,211256,1,8,0:0:0:0:
256,192,211492,1,0,0:0:0:0:
256,192,211570,1,8,0:0:0:0:
256,192,211727,1,0,0:0:0:0:
256,192,211884,1,0,0:0:0:0:
256,192,211963,1,0,0:0:0:0:
256,192,212041,1,0,0:0:0:0:
256,192,212277,1,0,0:0:0:0:
256,192,212355,1,0,0:0:0:0:
256,192,212512,1,8,0:0:0:0:
256,192,212591,1,0,0:0:0:0:
256,192,212670,1,8,0:0:0:0:
256,192,212748,1,8,0:0:0:0:
256,192,212827,1,0,0:0:0:0:
256,192,212905,1,0,0:0:0:0:
256,192,212984,1,0,0:0:0:0:
256,192,213062,1,0,0:0:0:0:
256,192,213141,1,0,0:0:0:0:
256,192,213298,1,8,0:0:0:0:
256,192,213455,1,0,0:0:0:0:
256,192,213612,1,0,0:0:0:0:
256,192,213769,1,0,0:0:0:0:
256,192,214005,1,0,0:0:0:0:
256,192,214083,1,8,0:0:0:0:
256,192,214240,1,8,0:0:0:0:
256,192,214397,1,0,0:0:0:0:
256,192,214476,1,0,0:0:0:0:
256,192,214554,1,8,0:0:0:0:
256,192,214790,1,0,0:0:0:0:
256,192,214868,1,0,0:0:0:0:
256,192,215026,1,8,0:0:0:0:
256,192,215104,1,0,0:0:0:0:
256,192,215183,1,8,0:0:0:0:
256,192,215261,1,8,0:0:0:0:
256,192,215340,1,0,0:0:0:0:
256,192,215418,1,0,0:0:0:0:
256,192,215497,1,0,0:0:0:0:
256,192,215575,1,0,0:0:0:0:
256,192,215654,1,0,0:0:0:0:
256,192,215811,1,8,0:0:0:0:
256,192,215968,1,0,0:0:0:0:
256,192,216125,1,0,0:0:0:0:
256,192,216282,1,0,0:0:0:0:
256,192,216518,1,0,0:0:0:0:
256,192,216596,1,8,0:0:0:0:
256,192,216753,1,0,0:0:0:0:
256,192,216910,1,0,0:0:0:0:
256,192,216989,1,0,0:0:0:0:
256,192,217067,1,8,0:0:0:0:
256,192,217303,1,0,0:0:0:0:
256,192,217382,1,0,0:0:0:0:
256,192,217539,1,8,0:0:0:0:
256,192,217617,1,0,0:0:0:0:
256,192,217696,1,8,0:0:0:0:
256,192,217774,1,8,0:0:0:0:
256,192,217853,1,0,0:0:0:0:
256,192,217931,1,0,0:0:0:0:
256,192,218010,1,0,0:0:0:0:
256,192,218088,1,0,0:0:0:0:
256,192,218167,1,0,0:0:0:0:
256,192,218324,1,8,0:0:0:0:
256,192,218481,1,0,0:0:0:0:
256,192,218638,1,0,0:0:0:0:
256,192,218795,1,0,0:0:0:0:
256,192,219031,1,0,0:0:0:0:
256,192,219109,1,8,0:0:0:0:
256,192,219266,1,8,0:0:0:0:
256,192,219423,1,0,0:0:0:0:
256,192,219502,1,0,0:0:0:0:
256,192,219581,1,8,0:0:0:0:
256,192,219816,1,0,0:0:0:0:
256,192,219895,1,0,0:0:0:0:
256,192,220837,1,8,0:0:0:0:
256,192,220994,1,4,0:0:0:0:
256,192,221308,1,0,0:0:0:0:
256,192,221465,1,8,0:0:0:0:
256,192,221780,1,8,0:0:0:0:
256,192,221937,1,0,0:0:0:0:
256,192,222094,1,8,0:0:0:0:
256,192,222251,1,0,0:0:0:0:
256,192,222565,1,0,0:0:0:0:
256,192,222722,1,8,0:0:0:0:
256,192,222879,1,8,0:0:0:0:
256,192,223036,1,0,0:0:0:0:
256,192,223193,1,0,0:0:0:0:
256,192,223350,1,8,0:0:0:0:
256,192,223507,1,0,0:0:0:0:
256,192,223664,1,0,0:0:0:0:
256,192,223821,1,0,0:0:0:0:
256,192,223979,1,8,0:0:0:0:
256,192,224293,1,0,0:0:0:0:
256,192,224450,1,0,0:0:0:0:
256,192,224607,1,8,0:0:0:0:
256,192,224764,1,0,0:0:0:0:
256,192,225078,1,0,0:0:0:0:
256,192,225235,1,8,0:0:0:0:
256,192,225392,1,8,0:0:0:0:
256,192,225549,1,0,0:0:0:0:
256,192,225706,1,0,0:0:0:0:
256,192,225863,1,8,0:0:0:0:
256,192,226020,1,8,0:0:0:0:
256,192,226178,1,0,0:0:0:0:
256,192,226335,1,0,0:0:0:0:
256,192,226492,1,8,0:0:0:0:
256,192,226806,1,8,0:0:0:0:
256,192,226963,1,0,0:0:0:0:
256,192,227120,1,8,0:0:0:0:
256,192,227277,1,0,0:0:0:0:
256,192,227591,1,0,0:0:0:0:
256,192,227748,1,8,0:0:0:0:
256,192,227905,1,8,0:0:0:0:
256,192,228062,1,0,0:0:0:0:
256,192,228219,1,0,0:0:0:0:
256,192,228376,1,8,0:0:0:0:
256,192,228534,1,0,0:0:0:0:
256,192,228691,1,0,0:0:0:0:
256,192,228848,1,0,0:0:0:0:
256,192,229005,1,8,0:0:0:0:
256,192,229319,1,0,0:0:0:0:
256,192,229476,1,0,0:0:0:0:
256,192,229633,1,8,0:0:0:0:
256,192,229790,1,0,0:0:0:0:
256,192,230104,1,0,0:0:0:0:
256,192,230261,1,8,0:0:0:0:
256,192,230418,1,8,0:0:0:0:
256,192,230732,1,0,0:0:0:0:
256,192,230890,1,8,0:0:0:0:
256,192,231047,1,0,0:0:0:0:
256,192,231361,1,0,0:0:0:0:
256,192,231518,1,8,0:0:0:0:
256,192,231833,1,8,0:0:0:0:
256,192,231990,1,0,0:0:0:0:
256,192,232147,1,8,0:0:0:0:
256,192,232304,1,0,0:0:0:0:
256,192,232618,1,0,0:0:0:0:
256,192,232775,1,8,0:0:0:0:
256,192,232932,1,8,0:0:0:0:
256,192,233089,1,0,0:0:0:0:
256,192,233246,1,0,0:0:0:0:
256,192,233403,1,8,0:0:0:0:
256,192,233560,1,0,0:0:0:0:
256,192,233717,1,0,0:0:0:0:
256,192,233874,1,0,0:0:0:0:
256,192,234032,1,8,0:0:0:0:
256,192,234346,1,0,0:0:0:0:
256,192,234503,1,0,0:0:0:0:
256,192,234660,1,8,0:0:0:0:
256,192,234817,1,0,0:0:0:0:
256,192,235131,1,0,0:0:0:0:
256,192,235288,1,8,0:0:0:0:
256,192,235445,1,8,0:0:0:0:
256,192,235602,1,0,0:0:0:0:
256,192,235759,1,0,0:0:0:0:
256,192,235916,1,8,0:0:0:0:
256,192,236073,1,8,0:0:0:0:
256,192,236231,1,0,0:0:0:0:
256,192,236388,1,8,0:0:0:0:
256,192,236545,1,0,0:0:0:0:
256,192,236859,1,8,0:0:0:0:
256,192,237016,1,0,0:0:0:0:
256,192,237173,1,8,0:0:0:0:
256,192,237330,1,0,0:0:0:0:
256,192,237644,1,0,0:0:0:0:
256,192,237801,1,8,0:0:0:0:
256,192,237958,1,8,0:0:0:0:
256,192,238115,1,0,0:0:0:0:
256,192,238272,1,0,0:0:0:0:
256,192,238429,1,8,0:0:0:0:
256,192,238587,1,0,0:0:0:0:
256,192,238744,1,0,0:0:0:0:
256,192,238901,1,0,0:0:0:0:
256,192,239058,1,8,0:0:0:0:
256,192,239372,1,0,0:0:0:0:
256,192,239529,1,0,0:0:0:0:
256,192,239686,1,8,0:0:0:0:
256,192,239843,1,0,0:0:0:0:
256,192,240314,1,0,0:0:0:0:
256,192,240785,1,0,0:0:0:0:
256,192,241256,1,0,0:0:0:0:
256,192,241413,1,8,0:0:0:0:
256,192,241492,1,8,0:0:0:0:
256,192,241570,1,0,0:0:0:0:
256,192,241649,1,0,0:0:0:0:
256,192,241727,1,8,0:0:0:0:
256,192,241806,1,8,0:0:0:0:
256,192,241884,1,0,0:0:0:0:
256,192,242041,1,8,0:0:0:0:
256,192,242356,1,0,0:0:0:0:
256,192,242434,1,8,0:0:0:0:
256,192,242513,1,8,0:0:0:0:
256,192,242591,1,8,0:0:0:0:
256,192,242670,1,8,0:0:0:0:
256,192,242748,1,8,0:0:0:0:
256,192,242827,1,0,0:0:0:0:
256,192,242984,1,0,0:0:0:0:
256,192,243141,1,8,0:0:0:0:
256,192,243298,1,8,0:0:0:0:
256,192,243612,1,8,0:0:0:0:
256,192,243769,1,0,0:0:0:0:
256,192,243926,1,8,0:0:0:0:
256,192,244005,1,8,0:0:0:0:
256,192,244083,1,0,0:0:0:0:
256,192,244162,1,8,0:0:0:0:
256,192,244240,1,8,0:0:0:0:
256,192,244319,1,8,0:0:0:0:
256,192,244397,1,0,0:0:0:0:
256,192,244554,1,8,0:0:0:0:
256,192,244869,1,0,0:0:0:0:
256,192,244947,1,8,0:0:0:0:
256,192,245026,1,8,0:0:0:0:
256,192,245104,1,8,0:0:0:0:
256,192,245183,1,8,0:0:0:0:
256,192,245261,1,8,0:0:0:0:
256,192,245340,1,0,0:0:0:0:
256,192,245497,1,0,0:0:0:0:
256,192,245654,1,8,0:0:0:0:
256,192,245811,1,8,0:0:0:0:
256,192,246125,1,8,0:0:0:0:
256,192,246282,1,0,0:0:0:0:
256,192,246439,1,8,0:0:0:0:
256,192,246518,1,8,0:0:0:0:
256,192,246596,1,0,0:0:0:0:
256,192,246675,1,0,0:0:0:0:
256,192,246753,1,8,0:0:0:0:
256,192,246832,1,8,0:0:0:0:
256,192,246910,1,0,0:0:0:0:
256,192,247067,1,8,0:0:0:0:
256,192,247382,1,0,0:0:0:0:
256,192,247460,1,8,0:0:0:0:
256,192,247539,1,8,0:0:0:0:
256,192,247617,1,8,0:0:0:0:
256,192,247696,1,8,0:0:0:0:
256,192,247774,1,8,0:0:0:0:
256,192,247853,1,0,0:0:0:0:
256,192,248010,1,0,0:0:0:0:
256,192,248167,1,8,0:0:0:0:
256,192,248324,1,8,0:0:0:0:
256,192,248638,1,8,0:0:0:0:
256,192,248795,1,0,0:0:0:0:
256,192,248952,1,8,0:0:0:0:
256,192,249031,1,8,0:0:0:0:
256,192,249109,1,0,0:0:0:0:
256,192,249188,1,8,0:0:0:0:
256,192,249266,1,8,0:0:0:0:
256,192,249345,1,8,0:0:0:0:
256,192,249423,1,0,0:0:0:0:
256,192,249580,1,8,0:0:0:0:
256,192,249738,1,0,0:0:0:0:
256,192,249895,1,0,0:0:0:0:
256,192,249973,1,8,0:0:0:0:
256,192,250052,1,8,0:0:0:0:
256,192,250130,1,0,0:0:0:0:
256,192,250209,1,8,0:0:0:0:
256,192,250287,1,8,0:0:0:0:
256,192,250366,1,0,0:0:0:0:
256,192,250445,1,8,0:0:0:0:
256,192,250523,1,0,0:0:0:0:
256,192,250680,1,8,0:0:0:0:
256,192,250837,1,8,0:0:0:0:
256,192,250994,1,0,0:0:0:0:
256,192,251151,1,8,0:0:0:0:
256,192,251308,1,0,0:0:0:0:
256,192,251387,1,0,0:0:0:0:
256,192,251465,1,8,0:0:0:0:
256,192,251544,1,8,0:0:0:0:
256,192,251622,1,0,0:0:0:0:
256,192,251701,1,0,0:0:0:0:
256,192,251779,1,8,0:0:0:0:
256,192,251858,1,8,0:0:0:0:
256,192,251936,1,0,0:0:0:0:
256,192,252093,1,8,0:0:0:0:
256,192,252408,1,0,0:0:0:0:
256,192,252486,1,8,0:0:0:0:
256,192,252565,1,8,0:0:0:0:
256,192,252643,1,8,0:0:0:0:
256,192,252722,1,8,0:0:0:0:
256,192,252800,1,8,0:0:0:0:
256,192,252879,1,0,0:0:0:0:
256,192,253036,1,0,0:0:0:0:
256,192,253193,1,8,0:0:0:0:
256,192,253350,1,8,0:0:0:0:
256,192,253664,1,8,0:0:0:0:
256,192,253821,1,0,0:0:0:0:
256,192,253900,1,8,0:0:0:0:
256,192,253978,1,8,0:0:0:0:
256,192,254057,1,8,0:0:0:0:
256,192,254135,1,0,0:0:0:0:
256,192,254214,1,8,0:0:0:0:
256,192,254292,1,8,0:0:0:0:
256,192,254371,1,8,0:0:0:0:
256,192,254449,1,0,0:0:0:0:
256,192,254606,1,8,0:0:0:0:
256,192,254921,1,0,0:0:0:0:
256,192,254999,1,8,0:0:0:0:
256,192,255078,1,8,0:0:0:0:
256,192,255156,1,8,0:0:0:0:
256,192,255235,1,8,0:0:0:0:
256,192,255313,1,8,0:0:0:0:
256,192,255392,1,0,0:0:0:0:
256,192,255549,1,0,0:0:0:0:
256,192,255706,1,8,0:0:0:0:
256,192,255863,1,8,0:0:0:0:
256,192,256177,1,8,0:0:0:0:
256,192,256334,1,0,0:0:0:0:
256,192,256413,1,0,0:0:0:0:
256,192,256491,1,8,0:0:0:0:
256,192,256570,1,8,0:0:0:0:
256,192,256648,1,0,0:0:0:0:
256,192,256727,1,8,0:0:0:0:
256,192,256805,1,8,0:0:0:0:
256,192,256884,1,8,0:0:0:0:
256,192,256962,1,0,0:0:0:0:
256,192,257119,1,8,0:0:0:0:
256,192,257434,1,0,0:0:0:0:
256,192,257512,1,8,0:0:0:0:
256,192,257591,1,8,0:0:0:0:
256,192,257669,1,8,0:0:0:0:
256,192,257748,1,8,0:0:0:0:
256,192,257826,1,8,0:0:0:0:
256,192,257905,1,0,0:0:0:0:
256,192,258062,1,0,0:0:0:0:
256,192,258219,1,8,0:0:0:0:
256,192,258376,1,8,0:0:0:0:
256,192,258690,1,8,0:0:0:0:
256,192,258847,1,0,0:0:0:0:
256,192,258926,1,8,0:0:0:0:
256,192,259004,1,8,0:0:0:0:
256,192,259083,1,8,0:0:0:0:
256,192,259161,1,0,0:0:0:0:
256,192,259240,1,0,0:0:0:0:
256,192,259318,1,8,0:0:0:0:
256,192,259397,1,8,0:0:0:0:
256,192,259475,1,0,0:0:0:0:
256,192,259632,1,8,0:0:0:0:
256,192,259947,1,0,0:0:0:0:
256,192,260025,1,8,0:0:0:0:
256,192,260104,1,8,0:0:0:0:
256,192,260182,1,8,0:0:0:0:
256,192,260261,1,8,0:0:0:0:
256,192,260339,1,8,0:0:0:0:
256,192,260418,1,0,0:0:0:0:
256,192,260575,1,0,0:0:0:0:
256,192,260732,1,8,0:0:0:0:
256,192,260811,1,8,0:0:0:0:
256,192,260889,1,8,0:0:0:0:
256,192,260968,1,8,0:0:0:0:
256,192,261047,1,8,0:0:0:0:
256,192,261125,1,8,0:0:0:0:
256,192,261203,1,8,0:0:0:0:
256,192,261282,1,8,0:0:0:0:
256,192,261361,1,0,0:0:0:0:
256,192,261675,1,0,0:0:0:0:
256,192,261753,1,8,0:0:0:0:
256,192,261832,1,8,0:0:0:0:
256,192,261910,1,8,0:0:0:0:
256,192,261989,1,0,0:0:0:0:
256,192,262225,1,0,0:0:0:0:
256,192,262303,1,0,0:0:0:0:
256,192,262617,1,0,0:0:0:0:
256,192,262931,1,0,0:0:0:0:
256,192,263010,1,8,0:0:0:0:
256,192,263089,1,8,0:0:0:0:
256,192,263167,1,8,0:0:0:0:
256,192,263246,1,0,0:0:0:0:
256,192,263403,1,8,0:0:0:0:
256,192,263560,1,0,0:0:0:0:
256,192,263717,1,8,0:0:0:0:
256,192,263874,1,0,0:0:0:0:
256,192,264188,1,0,0:0:0:0:
256,192,264266,1,8,0:0:0:0:
256,192,264345,1,8,0:0:0:0:
256,192,264423,1,8,0:0:0:0:
256,192,264502,1,0,0:0:0:0:
256,192,264738,1,0,0:0:0:0:
256,192,264816,1,0,0:0:0:0:
256,192,265130,1,0,0:0:0:0:
256,192,265444,1,0,0:0:0:0:
256,192,265523,1,8,0:0:0:0:
256,192,265602,1,8,0:0:0:0:
256,192,265680,1,8,0:0:0:0:
256,192,265759,1,0,0:0:0:0:
256,192,265916,1,8,0:0:0:0:
256,192,266073,1,0,0:0:0:0:
256,192,266230,1,8,0:0:0:0:
256,192,266387,1,0,0:0:0:0:
256,192,266701,1,0,0:0:0:0:
256,192,266779,1,8,0:0:0:0:
256,192,266858,1,8,0:0:0:0:
256,192,266936,1,8,0:0:0:0:
256,192,267015,1,0,0:0:0:0:
256,192,267251,1,0,0:0:0:0:
256,192,267329,1,0,0:0:0:0:
256,192,267643,1,0,0:0:0:0:
256,192,267957,1,0,0:0:0:0:
256,192,268036,1,8,0:0:0:0:
256,192,268115,1,8,0:0:0:0:
256,192,268193,1,8,0:0:0:0:
256,192,268272,1,0,0:0:0:0:
256,192,268429,1,8,0:0:0:0:
256,192,268586,1,0,0:0:0:0:
256,192,268743,1,8,0:0:0:0:
256,192,268900,1,0,0:0:0:0:
256,192,269214,1,0,0:0:0:0:
256,192,269292,1,8,0:0:0:0:
256,192,269371,1,8,0:0:0:0:
256,192,269449,1,8,0:0:0:0:
256,192,269528,1,0,0:0:0:0:
256,192,269764,1,0,0:0:0:0:
256,192,269842,1,0,0:0:0:0:
256,192,270156,1,0,0:0:0:0:
256,192,270470,1,0,0:0:0:0:
256,192,270549,1,8,0:0:0:0:
256,192,270628,1,8,0:0:0:0:
256,192,270706,1,8,0:0:0:0:
256,192,270785,1,0,0:0:0:0:
256,192,270942,1,8,0:0:0:0:
256,192,271099,1,0,0:0:0:0:
256,192,271256,1,8,0:0:0:0:
256,192,271413,1,0,0:0:0:0:
256,192,271727,1,0,0:0:0:0:
256,192,271805,1,8,0:0:0:0:
256,192,271884,1,8,0:0:0:0:
256,192,271962,1,8,0:0:0:0:
256,192,272041,1,0,0:0:0:0:
256,192,272277,1,0,0:0:0:0:
256,192,272355,1,0,0:0:0:0:
256,192,272669,1,0,0:0:0:0:
256,192,272983,1,0,0:0:0:0:
256,192,273062,1,8,0:0:0:0:
256,192,273141,1,8,0:0:0:0:
256,192,273219,1,8,0:0:0:0:
256,192,273298,1,0,0:0:0:0:
256,192,273455,1,8,0:0:0:0:
256,192,273612,1,0,0:0:0:0:
256,192,273769,1,8,0:0:0:0:
256,192,273926,1,0,0:0:0:0:
256,192,274240,1,0,0:0:0:0:
256,192,274318,1,8,0:0:0:0:
256,192,274397,1,8,0:0:0:0:
256,192,274475,1,8,0:0:0:0:
256,192,274554,1,0,0:0:0:0:
256,192,274790,1,0,0:0:0:0:
256,192,274868,1,0,0:0:0:0:
256,192,275182,1,0,0:0:0:0:
256,192,275496,1,0,0:0:0:0:
256,192,275575,1,8,0:0:0:0:
256,192,275654,1,8,0:0:0:0:
256,192,275732,1,8,0:0:0:0:
256,192,275811,1,0,0:0:0:0:
256,192,275968,1,8,0:0:0:0:
256,192,276125,1,0,0:0:0:0:
256,192,276282,1,8,0:0:0:0:
256,192,276439,1,0,0:0:0:0:
256,192,276753,1,0,0:0:0:0:
256,192,276831,1,8,0:0:0:0:
256,192,276910,1,8,0:0:0:0:
256,192,276988,1,8,0:0:0:0:
256,192,277067,1,0,0:0:0:0:
256,192,277303,1,0,0:0:0:0:
256,192,277381,1,0,0:0:0:0:
256,192,277695,1,0,0:0:0:0:
256,192,278009,1,0,0:0:0:0:
256,192,278088,1,8,0:0:0:0:
256,192,278167,1,8,0:0:0:0:
256,192,278245,1,8,0:0:0:0:
256,192,278324,1,0,0:0:0:0:
256,192,278481,1,8,0:0:0:0:
256,192,278638,1,0,0:0:0:0:
256,192,278795,1,8,0:0:0:0:
256,192,278952,1,0,0:0:0:0:
256,192,280209,1,0,0:0:0:0:
256,192,280523,1,8,0:0:0:0:
256,192,280837,1,8,0:0:0:0:
256,192,280994,1,8,0:0:0:0:
256,192,281151,1,0,0:0:0:0:
256,192,281308,1,12,0:0:0:0:
256,192,281780,1,12,0:0:0:0:
256,192,282251,1,0,0:0:0:0:
256,192,282408,1,0,0:0:0:0:
256,192,282565,1,12,0:0:0:0:
256,192,283036,1,12,0:0:0:0:
256,192,283193,1,0,0:0:0:0:
256,192,283350,1,0,0:0:0:0:
256,192,283507,1,0,0:0:0:0:
256,192,283664,1,8,0:0:0:0:
256,192,283821,1,12,0:0:0:0:
256,192,284293,1,12,0:0:0:0:
256,192,284607,1,0,0:0:0:0:
256,192,284764,1,0,0:0:0:0:
256,192,284921,1,0,0:0:0:0:
256,192,285078,1,12,0:0:0:0:
256,192,285549,1,12,0:0:0:0:
256,192,286178,1,0,0:0:0:0:
256,192,286335,1,12,0:0:0:0:
256,192,286806,1,12,0:0:0:0:
256,192,287120,1,8,0:0:0:0:
256,192,287198,1,8,0:0:0:0:
256,192,287277,1,8,0:0:0:0:
256,192,287356,1,8,0:0:0:0:
256,192,287434,1,0,0:0:0:0:
256,192,287591,1,12,0:0:0:0:
256,192,288062,1,12,0:0:0:0:
256,192,288376,1,8,0:0:0:0:
256,192,288455,1,8,0:0:0:0:
256,192,288534,1,8,0:0:0:0:
256,192,288612,1,8,0:0:0:0:
256,192,288691,1,0,0:0:0:0:
256,192,288848,1,12,0:0:0:0:
256,192,289319,1,12,0:0:0:0:
256,192,289633,1,8,0:0:0:0:
256,192,289712,1,8,0:0:0:0:
256,192,289790,1,8,0:0:0:0:
256,192,289869,1,8,0:0:0:0:
256,192,289947,1,0,0:0:0:0:
256,192,290104,1,12,0:0:0:0:
256,192,290575,1,12,0:0:0:0:
256,192,290890,1,8,0:0:0:0:
256,192,290968,1,8,0:0:0:0:
256,192,291047,1,8,0:0:0:0:
256,192,291125,1,8,0:0:0:0:
256,192,291204,1,0,0:0:0:0:
256,192,291361,1,0,0:0:0:0:
256,192,291675,1,0,0:0:0:0:
256,192,291832,1,8,0:0:0:0:
256,192,291910,1,8,0:0:0:0:
256,192,291989,1,8,0:0:0:0:
256,192,292068,1,8,0:0:0:0:
256,192,292146,1,8,0:0:0:0:
256,192,292225,1,8,0:0:0:0:
256,192,292303,1,0,0:0:0:0:
256,192,292460,1,8,0:0:0:0:
256,192,292617,1,0,0:0:0:0:
256,192,292774,1,0,0:0:0:0:
256,192,292931,1,0,0:0:0:0:
256,192,293089,1,8,0:0:0:0:
256,192,293167,1,8,0:0:0:0:
256,192,293246,1,8,0:0:0:0:
256,192,293324,1,8,0:0:0:0:
256,192,293403,1,8,0:0:0:0:
256,192,293481,1,8,0:0:0:0:
256,192,293560,1,0,0:0:0:0:
256,192,293717,1,8,0:0:0:0:
256,192,293874,1,0,0:0:0:0:
256,192,294188,1,0,0:0:0:0:
256,192,294345,1,8,0:0:0:0:
256,192,294423,1,8,0:0:0:0:
256,192,294502,1,8,0:0:0:0:
256,192,294581,1,8,0:0:0:0:
256,192,294659,1,8,0:0:0:0:
256,192,294738,1,8,0:0:0:0:
256,192,294816,1,0,0:0:0:0:
256,192,294973,1,8,0:0:0:0:
256,192,295130,1,0,0:0:0:0:
256,192,295287,1,0,0:0:0:0:
256,192,295444,1,0,0:0:0:0:
256,192,295602,1,8,0:0:0:0:
256,192,295680,1,8,0:0:0:0:
256,192,295759,1,8,0:0:0:0:
256,192,295837,1,8,0:0:0:0:
256,192,295916,1,8,0:0:0:0:
256,192,295994,1,8,0:0:0:0:
256,192,296073,1,0,0:0:0:0:
256,192,296230,1,8,0:0:0:0:
256,192,296387,1,0,0:0:0:0:
256,192,296701,1,0,0:0:0:0:
256,192,296858,1,8,0:0:0:0:
256,192,296936,1,8,0:0:0:0:
256,192,297015,1,8,0:0:0:0:
256,192,297094,1,8,0:0:0:0:
256,192,297172,1,8,0:0:0:0:
256,192,297251,1,8,0:0:0:0:
256,192,297329,1,0,0:0:0:0:
256,192,297486,1,8,0:0:0:0:
256,192,297643,1,0,0:0:0:0:
256,192,297800,1,0,0:0:0:0:
256,192,297957,1,0,0:0:0:0:
256,192,298115,1,8,0:0:0:0:
256,192,298193,1,8,0:0:0:0:
256,192,298272,1,8,0:0:0:0:
256,192,298350,1,8,0:0:0:0:
256,192,298429,1,8,0:0:0:0:
256,192,298507,1,8,0:0:0:0:
256,192,298586,1,0,0:0:0:0:
256,192,298743,1,8,0:0:0:0:
256,192,298900,1,0,0:0:0:0:
256,192,299214,1,0,0:0:0:0:
256,192,299371,1,8,0:0:0:0:
256,192,299449,1,8,0:0:0:0:
256,192,299528,1,8,0:0:0:0:
256,192,299607,1,8,0:0:0:0:
256,192,299685,1,8,0:0:0:0:
256,192,299764,1,8,0:0:0:0:
256,192,299842,1,0,0:0:0:0:
256,192,299999,1,8,0:0:0:0:
256,192,300157,1,0,0:0:0:0:
256,192,300313,1,0,0:0:0:0:
256,192,300628,1,0,0:0:0:0:
256,192,301099,1,0,0:0:0:0:
256,192,301256,1,8,0:0:0:0:
256,192,301413,1,0,0:0:0:0:
256,192,301570,1,8,0:0:0:0:
256,192,301727,1,0,0:0:0:0:
256,192,301884,1,8,0:0:0:0:
256,192,301962,1,8,0:0:0:0:
256,192,302041,1,8,0:0:0:0:
256,192,302120,1,8,0:0:0:0:
256,192,302198,1,8,0:0:0:0:
256,192,302277,1,8,0:0:0:0:
256,192,302355,1,0,0:0:0:0:
256,192,302512,1,8,0:0:0:0:
256,192,302826,1,0,0:0:0:0:
256,192,302983,1,0,0:0:0:0:
256,192,303141,1,8,0:0:0:0:
256,192,303219,1,8,0:0:0:0:
256,192,303298,1,8,0:0:0:0:
256,192,303376,1,8,0:0:0:0:
256,192,303455,1,8,0:0:0:0:
256,192,303534,1,8,0:0:0:0:
256,192,303612,1,0,0:0:0:0:
256,192,303769,1,8,0:0:0:0:
256,192,303926,1,0,0:0:0:0:
256,192,304083,1,8,0:0:0:0:
256,192,304240,1,0,0:0:0:0:
256,192,304397,1,8,0:0:0:0:
256,192,304475,1,8,0:0:0:0:
256,192,304554,1,8,0:0:0:0:
256,192,304633,1,8,0:0:0:0:
256,192,304711,1,8,0:0:0:0:
256,192,304790,1,8,0:0:0:0:
256,192,304868,1,0,0:0:0:0:
256,192,305025,1,8,0:0:0:0:
256,192,305339,1,0,0:0:0:0:
256,192,305496,1,0,0:0:0:0:
256,192,305654,1,8,0:0:0:0:
256,192,305732,1,8,0:0:0:0:
256,192,305811,1,8,0:0:0:0:
256,192,305889,1,8,0:0:0:0:
256,192,305968,1,8,0:0:0:0:
256,192,306047,1,8,0:0:0:0:
256,192,306125,1,0,0:0:0:0:
256,192,306282,1,8,0:0:0:0:
256,192,306439,1,0,0:0:0:0:
256,192,306596,1,0,0:0:0:0:
256,192,306753,1,0,0:0:0:0:
256,192,306910,1,8,0:0:0:0:
256,192,306988,1,8,0:0:0:0:
256,192,307067,1,8,0:0:0:0:
256,192,307146,1,8,0:0:0:0:
256,192,307224,1,8,0:0:0:0:
256,192,307303,1,8,0:0:0:0:
256,192,307381,1,0,0:0:0:0:
256,192,307538,1,8,0:0:0:0:
256,192,307852,1,0,0:0:0:0:
256,192,308009,1,0,0:0:0:0:
256,192,308167,1,8,0:0:0:0:
256,192,308245,1,8,0:0:0:0:
256,192,308324,1,8,0:0:0:0:
256,192,308402,1,8,0:0:0:0:
256,192,308481,1,8,0:0:0:0:
256,192,308560,1,8,0:0:0:0:
256,192,308638,1,0,0:0:0:0:
256,192,308795,1,8,0:0:0:0:
256,192,308952,1,0,0:0:0:0:
256,192,309266,1,0,0:0:0:0:
256,192,309423,1,8,0:0:0:0:
256,192,309501,1,8,0:0:0:0:
256,192,309580,1,8,0:0:0:0:
256,192,309659,1,8,0:0:0:0:
256,192,309737,1,8,0:0:0:0:
256,192,309816,1,8,0:0:0:0:
256,192,309894,1,0,0:0:0:0:
256,192,310051,1,8,0:0:0:0:
256,192,310209,1,8,0:0:0:0:
256,192,310365,1,0,0:0:0:0:
256,192,310523,1,0,0:0:0:0:
256,192,310680,1,8,0:0:0:0:
256,192,310759,1,8,0:0:0:0:
256,192,310837,1,8,0:0:0:0:
256,192,310916,1,8,0:0:0:0:
256,192,310994,1,8,0:0:0:0:
256,192,311073,1,8,0:0:0:0:
256,192,311151,1,0,0:0:0:0:
256,192,311308,1,8,0:0:0:0:
256,192,311465,1,0,0:0:0:0:
256,192,311780,1,0,0:0:0:0:
256,192,311937,1,8,0:0:0:0:
256,192,312015,1,8,0:0:0:0:
256,192,312094,1,8,0:0:0:0:
256,192,312173,1,8,0:0:0:0:
256,192,312251,1,8,0:0:0:0:
256,192,312329,1,8,0:0:0:0:
256,192,312408,1,0,0:0:0:0:
256,192,312565,1,8,0:0:0:0:
256,192,312879,1,0,0:0:0:0:
256,192,313036,1,0,0:0:0:0:
256,192,313194,1,8,0:0:0:0:
256,192,313272,1,8,0:0:0:0:
256,192,313351,1,8,0:0:0:0:
256,192,313429,1,8,0:0:0:0:
256,192,313508,1,8,0:0:0:0:
256,192,313586,1,8,0:0:0:0:
256,192,313665,1,0,0:0:0:0:
256,192,313822,1,8,0:0:0:0:
256,192,313979,1,0,0:0:0:0:
256,192,314136,1,8,0:0:0:0:
256,192,314293,1,0,0:0:0:0:
256,192,314450,1,8,0:0:0:0:
256,192,314528,1,8,0:0:0:0:
256,192,314607,1,8,0:0:0:0:
256,192,314686,1,8,0:0:0:0:
256,192,314764,1,8,0:0:0:0:
256,192,314842,1,8,0:0:0:0:
256,192,314921,1,0,0:0:0:0:
256,192,315078,1,8,0:0:0:0:
256,192,315392,1,0,0:0:0:0:
256,192,315549,1,0,0:0:0:0:
256,192,315707,1,8,0:0:0:0:
256,192,315785,1,8,0:0:0:0:
256,192,315864,1,8,0:0:0:0:
256,192,315942,1,8,0:0:0:0:
256,192,316021,1,8,0:0:0:0:
256,192,316099,1,8,0:0:0:0:
256,192,316178,1,0,0:0:0:0:
256,192,316335,1,8,0:0:0:0:
256,192,316492,1,0,0:0:0:0:
256,192,316649,1,8,0:0:0:0:
256,192,316806,1,0,0:0:0:0:
256,192,316963,1,8,0:0:0:0:
256,192,317041,1,8,0:0:0:0:
256,192,317120,1,8,0:0:0:0:
256,192,317199,1,8,0:0:0:0:
256,192,317277,1,8,0:0:0:0:
256,192,317356,1,8,0:0:0:0:
256,192,317434,1,0,0:0:0:0:
256,192,317591,1,8,0:0:0:0:
256,192,317905,1,0,0:0:0:0:
256,192,318062,1,0,0:0:0:0:
256,192,318220,1,8,0:0:0:0:
256,192,318298,1,8,0:0:0:0:
256,192,318377,1,8,0:0:0:0:
256,192,318455,1,8,0:0:0:0:
256,192,318534,1,8,0:0:0:0:
256,192,318612,1,8,0:0:0:0:
256,192,318691,1,0,0:0:0:0:
256,192,318848,1,8,0:0:0:0:
256,192,319005,1,0,0:0:0:0:
256,192,319319,1,0,0:0:0:0:
256,192,319476,1,8,0:0:0:0:
256,192,319554,1,8,0:0:0:0:
256,192,319633,1,8,0:0:0:0:
256,192,319712,1,8,0:0:0:0:
256,192,319790,1,8,0:0:0:0:
256,192,319869,1,8,0:0:0:0:
256,192,319947,1,0,0:0:0:0:
256,192,320104,1,8,0:0:0:0:
256,192,320418,1,0,0:0:0:0:
256,192,320890,1,8,0:0:0:0:
256,192,321204,1,0,0:0:0:0:
256,192,321361,1,8,0:0:0:0:
256,192,321675,1,0,0:0:0:0:
256,192,321989,1,8,0:0:0:0:
256,192,322068,1,8,0:0:0:0:
256,192,322146,1,8,0:0:0:0:
256,192,322225,1,8,0:0:0:0:
256,192,322303,1,8,0:0:0:0:
256,192,322460,1,0,0:0:0:0:
256,192,322539,1,8,0:0:0:0:
256,192,322617,1,0,0:0:0:0:
256,192,322774,1,8,0:0:0:0:
256,192,323089,1,8,0:0:0:0:
256,192,323246,1,8,0:0:0:0:
256,192,323324,1,8,0:0:0:0:
256,192,323403,1,8,0:0:0:0:
256,192,323481,1,8,0:0:0:0:
256,192,323560,1,8,0:0:0:0:
256,192,323717,1,0,0:0:0:0:
256,192,323874,1,8,0:0:0:0:
256,192,324031,1,8,0:0:0:0:
256,192,324188,1,0,0:0:0:0:
256,192,324502,1,8,0:0:0:0:
256,192,324581,1,8,0:0:0:0:
256,192,324659,1,8,0:0:0:0:
256,192,324738,1,8,0:0:0:0:
256,192,324816,1,8,0:0:0:0:
256,192,324973,1,0,0:0:0:0:
256,192,325052,1,8,0:0:0:0:
256,192,325130,1,0,0:0:0:0:
256,192,325287,1,8,0:0:0:0:
256,192,325602,1,8,0:0:0:0:
256,192,325759,1,8,0:0:0:0:
256,192,325837,1,8,0:0:0:0:
256,192,325916,1,8,0:0:0:0:
256,192,325994,1,8,0:0:0:0:
256,192,326073,1,8,0:0:0:0:
256,192,326230,1,0,0:0:0:0:
256,192,326387,1,8,0:0:0:0:
256,192,326544,1,8,0:0:0:0:
256,192,326701,1,0,0:0:0:0:
256,192,327015,1,8,0:0:0:0:
256,192,327094,1,8,0:0:0:0:
256,192,327172,1,8,0:0:0:0:
256,192,327251,1,8,0:0:0:0:
256,192,327329,1,8,0:0:0:0:
256,192,327486,1,0,0:0:0:0:
256,192,327565,1,8,0:0:0:0:
256,192,327643,1,0,0:0:0:0:
256,192,327800,1,8,0:0:0:0:
256,192,328115,1,8,0:0:0:0:
256,192,328272,1,8,0:0:0:0:
256,192,328350,1,8,0:0:0:0:
256,192,328429,1,8,0:0:0:0:
256,192,328507,1,8,0:0:0:0:
256,192,328586,1,8,0:0:0:0:
256,192,328743,1,0,0:0:0:0:
256,192,328900,1,8,0:0:0:0:
256,192,329057,1,8,0:0:0:0:
256,192,329214,1,0,0:0:0:0:
256,192,329371,1,8,0:0:0:0:
256,192,329528,1,8,0:0:0:0:
256,192,329607,1,8,0:0:0:0:
256,192,329685,1,8,0:0:0:0:
256,192,329764,1,8,0:0:0:0:
256,192,329842,1,8,0:0:0:0:
256,192,329999,1,0,0:0:0:0:
256,192,330078,1,8,0:0:0:0:
256,192,330156,1,0,0:0:0:0:
256,192,330313,1,8,0:0:0:0:
256,192,330628,1,8,0:0:0:0:
256,192,330785,1,8,0:0:0:0:
256,192,330863,1,8,0:0:0:0:
256,192,330942,1,8,0:0:0:0:
256,192,331020,1,8,0:0:0:0:
256,192,331099,1,8,0:0:0:0:
256,192,331256,1,0,0:0:0:0:
256,192,331413,1,8,0:0:0:0:
256,192,331570,1,8,0:0:0:0:
256,192,331727,1,0,0:0:0:0:
256,192,332041,1,8,0:0:0:0:
256,192,332120,1,8,0:0:0:0:
256,192,332198,1,8,0:0:0:0:
256,192,332277,1,8,0:0:0:0:
256,192,332355,1,8,0:0:0:0:
256,192,332512,1,0,0:0:0:0:
256,192,332591,1,8,0:0:0:0:
256,192,332669,1,0,0:0:0:0:
256,192,332826,1,8,0:0:0:0:
256,192,333141,1,8,0:0:0:0:
256,192,333298,1,8,0:0:0:0:
256,192,333376,1,8,0:0:0:0:
256,192,333455,1,8,0:0:0:0:
256,192,333533,1,8,0:0:0:0:
256,192,333612,1,8,0:0:0:0:
256,192,333769,1,0,0:0:0:0:
256,192,333926,1,8,0:0:0:0:
256,192,334083,1,8,0:0:0:0:
256,192,334240,1,0,0:0:0:0:
256,192,334554,1,8,0:0:0:0:
256,192,334633,1,8,0:0:0:0:
256,192,334711,1,8,0:0:0:0:
256,192,334790,1,8,0:0:0:0:
256,192,334868,1,8,0:0:0:0:
256,192,335025,1,0,0:0:0:0:
256,192,335104,1,8,0:0:0:0:
256,192,335182,1,0,0:0:0:0:
256,192,335339,1,8,0:0:0:0:
256,192,335654,1,8,0:0:0:0:
256,192,335811,1,8,0:0:0:0:
256,192,335889,1,8,0:0:0:0:
256,192,335968,1,8,0:0:0:0:
256,192,336046,1,8,0:0:0:0:
256,192,336125,1,8,0:0:0:0:
256,192,336282,1,0,0:0:0:0:
256,192,336439,1,8,0:0:0:0:
256,192,336596,1,8,0:0:0:0:
256,192,336753,1,0,0:0:0:0:
256,192,337067,1,8,0:0:0:0:
256,192,337146,1,8,0:0:0:0:
256,192,337224,1,8,0:0:0:0:
256,192,337303,1,8,0:0:0:0:
256,192,337381,1,8,0:0:0:0:
256,192,337538,1,0,0:0:0:0:
256,192,337617,1,8,0:0:0:0:
256,192,337695,1,0,0:0:0:0:
256,192,337852,1,8,0:0:0:0:
256,192,338167,1,8,0:0:0:0:
256,192,338324,1,8,0:0:0:0:
256,192,338402,1,8,0:0:0:0:
256,192,338481,1,8,0:0:0:0:
256,192,338559,1,8,0:0:0:0:
256,192,338638,1,8,0:0:0:0:
256,192,338795,1,0,0:0:0:0:
256,192,338952,1,8,0:0:0:0:
256,192,339109,1,8,0:0:0:0:
256,192,339266,1,0,0:0:0:0:
256,192,339424,1,8,0:0:0:0:
256,192,339580,1,8,0:0:0:0:
256,192,339659,1,8,0:0:0:0:
256,192,339737,1,8,0:0:0:0:
256,192,339816,1,8,0:0:0:0:
256,192,339894,1,8,0:0:0:0:
256,192,340051,1,0,0:0:0:0:
256,192,340130,1,8,0:0:0:0:
256,192,340208,1,0,0:0:0:0:
256,192,340365,1,8,0:0:0:0:
256,192,340680,1,8,0:0:0:0:
256,192,340837,1,8,0:0:0:0:
256,192,340915,1,8,0:0:0:0:
256,192,340994,1,8,0:0:0:0:
256,192,341072,1,8,0:0:0:0:
256,192,341151,1,8,0:0:0:0:
256,192,341308,1,0,0:0:0:0:
256,192,341465,1,8,0:0:0:0:
256,192,341622,1,8,0:0:0:0:
256,192,341780,1,0,0:0:0:0:
256,192,341937,1,8,0:0:0:0:
256,192,342094,1,8,0:0:0:0:
256,192,342173,1,8,0:0:0:0:
256,192,342251,1,8,0:0:0:0:
256,192,342330,1,8,0:0:0:0:
256,192,342408,1,8,0:0:0:0:
256,192,342565,1,0,0:0:0:0:
256,192,342644,1,8,0:0:0:0:
256,192,342722,1,0,0:0:0:0:
256,192,342879,1,0,0:0:0:0:
256,192,343036,1,8,0:0:0:0:
256,192,343193,1,8,0:0:0:0:
256,192,343351,1,8,0:0:0:0:
256,192,343429,1,8,0:0:0:0:
256,192,343508,1,8,0:0:0:0:
256,192,343586,1,8,0:0:0:0:
256,192,343665,1,8,0:0:0:0:
256,192,343822,1,0,0:0:0:0:
256,192,343979,1,8,0:0:0:0:
256,192,344136,1,0,0:0:0:0:
256,192,344293,1,0,0:0:0:0:
256,192,344450,1,0,0:0:0:0:
256,192,344607,1,8,0:0:0:0:
256,192,344686,1,8,0:0:0:0:
256,192,344764,1,8,0:0:0:0:
256,192,344843,1,8,0:0:0:0:
256,192,344921,1,8,0:0:0:0:
256,192,345078,1,0,0:0:0:0:
256,192,345157,1,8,0:0:0:0:
256,192,345235,1,0,0:0:0:0:
256,192,345392,1,8,0:0:0:0:
256,192,345549,1,0,0:0:0:0:
256,192,345707,1,0,0:0:0:0:
256,192,345864,1,8,0:0:0:0:
256,192,345942,1,8,0:0:0:0:
256,192,346021,1,8,0:0:0:0:
256,192,346099,1,8,0:0:0:0:
256,192,346178,1,8,0:0:0:0:
256,192,346335,1,0,0:0:0:0:
256,192,346492,1,8,0:0:0:0:
256,192,346649,1,0,0:0:0:0:
256,192,346806,1,0,0:0:0:0:
256,192,346963,1,8,0:0:0:0:
256,192,347120,1,8,0:0:0:0:
256,192,347199,1,8,0:0:0:0:
256,192,347277,1,8,0:0:0:0:
256,192,347356,1,8,0:0:0:0:
256,192,347434,1,8,0:0:0:0:
256,192,347591,1,0,0:0:0:0:
256,192,347670,1,8,0:0:0:0:
256,192,347748,1,0,0:0:0:0:
256,192,347905,1,0,0:0:0:0:
256,192,348062,1,8,0:0:0:0:
256,192,348220,1,0,0:0:0:0:
256,192,348377,1,8,0:0:0:0:
256,192,348455,1,8,0:0:0:0:
256,192,348534,1,8,0:0:0:0:
256,192,348612,1,8,0:0:0:0:
256,192,348691,1,8,0:0:0:0:
256,192,348848,1,0,0:0:0:0:
256,192,349005,1,8,0:0:0:0:
256,192,349162,1,8,0:0:0:0:
256,192,349319,1,0,0:0:0:0:
256,192,349476,1,0,0:0:0:0:
256,192,349633,1,8,0:0:0:0:
256,192,349712,1,8,0:0:0:0:
256,192,349790,1,8,0:0:0:0:
256,192,349869,1,8,0:0:0:0:
256,192,349947,1,8,0:0:0:0:
256,192,350104,1,0,0:0:0:0:
256,192,350183,1,8,0:0:0:0:
256,192,350261,1,0,0:0:0:0:
256,192,350418,1,8,0:0:0:0:
256,192,350575,1,0,0:0:0:0:
256,192,350733,1,8,0:0:0:0:
256,192,350890,1,8,0:0:0:0:
256,192,350968,1,8,0:0:0:0:
256,192,351047,1,8,0:0:0:0:
256,192,351125,1,8,0:0:0:0:
256,192,351204,1,8,0:0:0:0:
256,192,351361,1,0,0:0:0:0:
256,192,351518,1,8,0:0:0:0:
256,192,351675,1,0,0:0:0:0:
256,192,351832,1,0,0:0:0:0:
256,192,351989,1,8,0:0:0:0:
256,192,352146,1,8,0:0:0:0:
256,192,352225,1,8,0:0:0:0:
256,192,352303,1,8,0:0:0:0:
256,192,352382,1,8,0:0:0:0:
256,192,352460,1,8,0:0:0:0:
256,192,352617,1,0,0:0:0:0:
256,192,352696,1,8,0:0:0:0:
256,192,352774,1,0,0:0:0:0:
256,192,352931,1,0,0:0:0:0:
256,192,353088,1,8,0:0:0:0:
256,192,353245,1,8,0:0:0:0:
256,192,353403,1,8,0:0:0:0:
256,192,353481,1,8,0:0:0:0:
256,192,353560,1,8,0:0:0:0:
256,192,353638,1,8,0:0:0:0:
256,192,353717,1,8,0:0:0:0:
256,192,353874,1,0,0:0:0:0:
256,192,354031,1,8,0:0:0:0:
256,192,354188,1,0,0:0:0:0:
256,192,354345,1,0,0:0:0:0:
256,192,354502,1,0,0:0:0:0:
256,192,354659,1,8,0:0:0:0:
256,192,354738,1,8,0:0:0:0:
256,192,354816,1,8,0:0:0:0:
256,192,354895,1,8,0:0:0:0:
256,192,354973,1,8,0:0:0:0:
256,192,355130,1,0,0:0:0:0:
256,192,355209,1,8,0:0:0:0:
256,192,355287,1,0,0:0:0:0:
256,192,355444,1,8,0:0:0:0:
256,192,355601,1,0,0:0:0:0:
256,192,355759,1,0,0:0:0:0:
256,192,355916,1,8,0:0:0:0:
256,192,355994,1,8,0:0:0:0:
256,192,356073,1,8,0:0:0:0:
256,192,356151,1,8,0:0:0:0:
256,192,356230,1,8,0:0:0:0:
256,192,356387,1,0,0:0:0:0:
256,192,356544,1,8,0:0:0:0:
256,192,356701,1,0,0:0:0:0:
256,192,356858,1,0,0:0:0:0:
256,192,357015,1,8,0:0:0:0:
256,192,357172,1,8,0:0:0:0:
256,192,357251,1,8,0:0:0:0:
256,192,357329,1,8,0:0:0:0:
256,192,357408,1,8,0:0:0:0:
256,192,357486,1,8,0:0:0:0:
256,192,357643,1,0,0:0:0:0:
256,192,357722,1,8,0:0:0:0:
256,192,357800,1,0,0:0:0:0:
256,192,357957,1,0,0:0:0:0:
256,192,358114,1,8,0:0:0:0:
256,192,358272,1,0,0:0:0:0:
256,192,358429,1,8,0:0:0:0:
256,192,358507,1,8,0:0:0:0:
256,192,358586,1,8,0:0:0:0:
256,192,358664,1,8,0:0:0:0:
256,192,358743,1,8,0:0:0:0:
256,192,358900,1,0,0:0:0:0:
256,192,359057,1,8,0:0:0:0:
256,192,359214,1,8,0:0:0:0:
256,192,359371,1,0,0:0:0:0:
256,192,359528,1,0,0:0:0:0:
256,192,359685,1,8,0:0:0:0:
256,192,359764,1,8,0:0:0:0:
256,192,359842,1,8,0:0:0:0:
256,192,359921,1,8,0:0:0:0:
256,192,359999,1,8,0:0:0:0:
256,192,360156,1,0,0:0:0:0:
256,192,360235,1,8,0:0:0:0:
256,192,360313,1,0,0:0:0:0:
256,192,360470,1,8,0:0:0:0:
256,192,360627,1,0,0:0:0:0:
256,192,360785,1,8,0:0:0:0:
256,192,360942,1,8,0:0:0:0:
256,192,361020,1,8,0:0:0:0:
256,192,361099,1,8,0:0:0:0:
256,192,361177,1,8,0:0:0:0:
256,192,361256,1,8,0:0:0:0:
256,192,361413,1,0,0:0:0:0:
256,192,361570,1,8,0:0:0:0:
256,192,361727,1,0,0:0:0:0:
256,192,361884,1,12,0:0:0:0:
