osu file format v12

[General]
AudioFilename: 04 Encryption.mp3
AudioLeadIn: 2500
PreviewTime: 29543
Countdown: 0
SampleSet: Soft
StackLeniency: 0.7
Mode: 0
LetterboxInBreaks: 0
WidescreenStoryboard: 0

[Editor]
DistanceSpacing: 1
BeatDivisor: 2
GridSize: 4
TimelineZoom: 1

[Metadata]
Title:Encryption
TitleUnicode:Encryption
Artist:An
ArtistUnicode:An
Creator:HelloSCV
Version:Standard
Source:
Tags:Kloyd Acuticnotes An-fillnote dnb happy623 drum and bass Spectator
BeatmapID:265852
BeatmapSetID:96368

[Difficulty]
HPDrainRate:3
CircleSize:3
OverallDifficulty:4
ApproachRate:6
SliderMultiplier:1.1
SliderTickRate:1

[Events]
//Background and Video events
0,0,"Uncrypted bg.jpg",0,0
//Break Periods
//Storyboard Layer 0 (Background)
//Storyboard Layer 1 (Fail)
//Storyboard Layer 2 (Pass)
//Storyboard Layer 3 (Foreground)
//Storyboard Sound Samples
//Background Colour Transformations
3,100,163,162,255

[TimingPoints]
15,314.13612565445,4,1,1,50,1,0
15,-125,4,2,1,50,0,0
5041,-100,4,1,1,70,0,0
5669,-100,4,1,2,70,0,0
5826,-100,4,1,1,70,0,0
8810,-100,4,1,2,60,0,0
8967,-100,4,1,1,70,0,0
10067,-100,4,1,1,55,0,0
10145,-100,4,1,1,70,0,0
11166,-100,4,1,1,55,0,0
11245,-100,4,1,1,70,0,0
11638,-100,4,1,1,55,0,0
11716,-100,4,1,1,70,0,0
12580,-100,4,1,1,50,0,0
12658,-100,4,1,1,70,0,0
13679,-100,4,1,1,50,0,0
13758,-100,4,1,1,70,0,0
14151,-100,4,1,1,50,0,0
14229,-100,4,1,1,70,0,0
14622,-100,4,1,1,50,0,0
14700,-100,4,1,1,70,0,0
15093,-100,4,1,1,50,0,0
15172,-100,4,1,1,70,0,0
16193,-100,4,1,1,50,0,0
16271,-100,4,1,1,70,0,0
16664,-100,4,1,1,50,0,0
16742,-100,4,1,1,70,0,0
17606,-100,4,1,1,50,0,0
17685,-100,4,1,1,70,0,0
18706,-100,4,1,1,50,0,0
18784,-100,4,1,1,70,0,0
19177,-100,4,1,1,50,0,0
19255,-100,4,1,1,70,0,0
19648,-100,4,1,1,50,0,0
19805,-100,4,1,1,70,0,0
20119,-100,4,1,1,50,0,0
20198,-100,4,1,1,70,0,0
21219,-100,4,1,1,50,0,0
21297,-100,4,1,1,70,0,0
21690,-100,4,1,1,50,0,0
21768,-100,4,1,1,70,0,0
22632,-100,4,1,1,50,0,0
22711,-100,4,1,1,70,0,0
23732,-100,4,1,1,50,0,0
23810,-100,4,1,1,70,0,0
24203,-100,4,1,1,50,0,0
24282,-100,4,1,1,70,0,0
24674,-100,4,1,1,50,0,0
24831,-100,4,1,1,70,0,0
25145,-100,4,1,1,50,0,0
25224,-100,4,1,1,70,0,0
26245,-100,4,1,1,50,0,0
26323,-100,4,1,1,70,0,0
26716,-100,4,1,1,50,0,0
26795,-100,4,1,1,70,0,0
27658,-100,4,1,1,50,0,0
27737,-100,4,1,1,70,0,0
29543,-100,4,2,1,40,0,0
30172,-100,4,2,1,80,0,1
40224,-100,4,1,1,80,0,0
40538,-100,4,1,1,80,0,1
42423,-100,4,1,2,70,0,1
42580,-100,4,1,1,80,0,1
44936,-100,4,1,2,70,0,1
45093,-100,4,1,1,70,0,1
46193,-100,4,1,2,70,0,1
46350,-100,4,1,1,80,0,1
48077,-100,4,1,2,70,0,1
48234,-100,4,1,1,80,0,1
49020,-100,4,2,1,65,0,1
50276,-125,4,2,1,30,0,0
59700,-125,4,1,1,40,0,0
60329,-125,4,1,1,50,0,0
62213,-125,4,1,2,50,0,0
62371,-125,4,1,1,50,0,0
68496,-125,4,1,2,40,0,0
68653,-125,4,1,1,50,0,0
69124,-125,4,2,1,40,0,0
70381,-100,4,1,1,80,0,1
80433,-100,4,1,1,80,0,0
80747,-100,4,1,1,80,0,1
82632,-100,4,1,2,70,0,1
82789,-100,4,1,1,80,0,1
85145,-100,4,1,2,70,0,1
85302,-100,4,1,1,80,0,1
86402,-100,4,1,2,70,0,1
86559,-100,4,1,1,80,0,1
88287,-100,4,1,2,70,0,1
88444,-100,4,1,1,80,0,1
89229,-100,4,2,1,50,0,1
90486,-125,4,2,1,50,0,0
100538,-125,4,2,1,30,0,0
110590,-125,4,2,1,55,0,0
111219,-125,4,2,1,50,0,0
111847,-125,4,2,1,45,0,0
112475,-125,4,2,1,40,0,0
113104,-125,4,2,1,35,0,0
113732,-125,4,2,1,30,0,0
114360,-125,4,2,1,25,0,0
114988,-125,4,2,1,20,0,0
115617,-125,4,2,1,15,0,0
116245,-125,4,2,1,10,0,0
116873,-125,4,2,1,5,0,0

[Colours]
Combo1 : 130,130,130
Combo2 : 196,238,238
Combo3 : 68,0,136

[HitObjects]
304,172,15,6,0,P|348:168|408:100,2,132,6|2|2,0:0|0:0|0:0,0:0:0:0:
260,164,1114,1,0,0:0:0:0:
204,96,1428,2,0,L|192:48,2,44,2|0|2,0:0|0:0|0:0,0:0:0:0:
164,116,1899,2,0,L|148:216,1,88,2|0,0:0|0:0,0:0:0:0:
200,276,2528,6,0,P|256:308|320:288,2,132,2|2|2,0:0|0:0|0:0,0:0:0:0:
180,236,3627,1,0,0:0:0:0:
108,184,3941,2,0,P|99:159|80:140,2,44,2|0|2,0:0|0:0|0:0,0:0:0:0:
96,228,4412,2,0,P|92:276|112:312,1,88,2|8,0:0|1:0,0:0:0:0:
200,312,5041,6,0,P|252:296|304:312,1,110,8|0,0:0|0:0,0:0:0:0:
356,332,5512,2,0,P|420:324|448:292,1,110
460,236,5983,2,0,L|464:180,1,55,0|0,0:0|0:0,0:0:0:0:
356,192,6454,2,0,L|360:136,1,55,0|0,0:0|0:0,0:0:0:0:
344,28,6925,1,8,0:0:0:0:
232,32,7240,1,0,0:0:0:0:
216,140,7554,6,0,P|172:176|120:180,1,110,8|0,0:0|0:0,0:0:0:0:
36,112,8182,2,0,P|12:164|20:240,1,110,8|0,0:0|0:0,0:0:0:0:
28,268,8653,2,0,P|84:264|128:292,1,110
164,332,9124,1,0,0:0:0:0:
272,348,9439,1,8,0:0:0:0:
324,252,9753,1,0,0:0:0:0:
320,144,10067,6,0,P|376:152|420:200,2,110,12|0|8,0:0|0:0|0:0,0:0:0:0:
212,148,11009,2,0,L|184:100,1,55,0|4,0:0|0:0,0:0:0:0:
76,116,11480,2,0,L|104:164,1,55,0|4,0:0|0:0,0:0:0:0:
172,252,11952,1,8,0:0:0:0:
280,268,12266,1,0,0:0:0:0:
384,232,12580,6,0,P|432:216|492:228,2,110,12|0|8,0:0|0:0|0:0,0:0:0:0:
344,336,13522,2,0,L|296:364,1,55,0|4,0:0|0:0,0:0:0:0:
204,304,13994,2,0,L|140:296,1,55,0|4,0:0|0:0,0:0:0:0:
124,192,14465,2,0,L|72:144,2,55,8|4|0,0:0|0:0|0:0,0:0:0:0:
188,104,15093,6,0,P|224:64|284:48,1,110,12|0,0:0|0:0,0:0:0:0:
384,72,15721,1,8,0:0:0:0:
444,164,16035,2,0,P|459:186|468:216,1,55,0|4,0:0|0:0,0:0:0:0:
360,240,16507,2,0,P|360:272|348:300,1,55,0|4,0:0|0:0,0:0:0:0:
248,332,16978,1,8,0:0:0:0:
184,240,17292,1,0,0:0:0:0:
92,300,17606,6,0,L|64:184,1,110,12|0,0:0|0:0,0:0:0:0:
48,84,18234,1,8,0:0:0:0:
152,44,18549,2,0,L|204:60,1,55,0|4,0:0|0:0,0:0:0:0:
228,168,19020,2,0,L|280:148,1,55,0|4,0:0|0:0,0:0:0:0:
336,52,19491,2,0,L|392:76,1,55,8|4,0:0|0:0,0:0:0:0:
432,104,19805,1,0,0:0:0:0:
360,188,20119,6,0,P|336:240|340:292,1,110,12|0,0:0|0:0,0:0:0:0:
244,344,20747,2,0,P|192:364|132:352,1,110,8|0,0:0|0:0,0:0:0:0:
92,328,21219,1,4,0:0:0:0:
100,220,21533,2,0,L|116:164,1,55,0|4,0:0|0:0,0:0:0:0:
108,56,22004,2,0,P|163:65|200:108,1,110,8|0,0:0|0:0,0:0:0:0:
272,184,22632,6,0,P|324:204|384:188,2,110,12|0|8,0:0|0:0|0:0,0:0:0:0:
336,96,23575,2,0,L|372:48,1,55,0|4,0:0|0:0,0:0:0:0:
460,112,24046,2,0,L|488:180,1,55,0|4,0:0|0:0,0:0:0:0:
472,272,24517,2,0,L|436:340,1,55,8|4,0:0|0:0,0:0:0:0:
416,364,24831,1,0,0:0:0:0:
316,316,25145,6,0,P|272:280|208:280,1,110,12|0,0:0|0:0,0:0:0:0:
112,296,25774,1,8,0:0:0:0:
84,188,26088,2,0,L|68:132,1,55,0|4,0:0|0:0,0:0:0:0:
156,68,26559,2,0,L|171:120,1,55,0|4,0:0|0:0,0:0:0:0:
252,196,27030,2,0,P|304:180|340:140,1,110,8|0,0:0|0:0,0:0:0:0:
376,36,27658,6,0,P|448:120|412:224,1,220
288,316,28758,1,0,0:0:0:0:
264,44,29543,2,0,P|210:39|163:67,1,110,2|0,0:0|0:0,0:0:0:0:
56,92,30172,6,0,L|36:200,1,110,4|8,0:0|0:0,0:0:0:0:
24,256,30643,2,0,P|88:272|128:356,1,165,0|8,0:0|0:0,0:0:0:0:
236,348,31428,1,0,0:0:0:0:
340,316,31742,2,0,P|380:280|396:224,2,110,8|0|8,0:0|0:0|0:0,0:0:0:0:
288,220,32685,6,0,L|272:164,2,55,0|0|8,0:0|0:0|0:0,0:0:0:0:
236,204,33156,2,0,L|108:88,1,165,0|8,0:0|0:0,0:0:0:0:
56,188,33941,1,0,0:0:0:0:
68,296,34255,1,8,0:0:0:0:
172,332,34569,1,0,0:0:0:0:
272,284,34884,1,8,0:0:0:0:
276,176,35198,6,0,P|328:188|364:232,1,110,0|8,0:0|0:0,0:0:0:0:
408,328,35826,2,0,P|432:344|464:352,2,55,0|0|8,0:0|0:0|0:0,0:0:0:0:
468,236,36454,1,0,0:0:0:0:
436,132,36768,1,8,0:0:0:0:
332,92,37083,2,0,P|288:120|224:124,1,110,0|8,0:0|0:0,0:0:0:0:
152,48,37711,6,0,P|128:88|128:156,1,110,4|0,0:0|0:0,0:0:0:0:
144,204,38182,1,8,0:0:0:0:
280,296,38653,2,0,P|332:272|360:224,1,110,4|0,0:0|0:0,0:0:0:0:
364,172,39124,1,8,0:0:0:0:
248,52,39596,1,12,0:0:0:0:
140,72,39910,1,2,0:2:0:0:
68,156,40224,6,0,L|60:272,1,110,0|4,0:0|0:0,0:0:0:0:
156,316,40852,2,0,L|120:360,2,55,0|0|8,0:0|0:0|0:0,0:0:0:0:
240,248,41480,2,0,L|336:176,1,110,0|8,0:0|0:0,0:0:0:0:
368,144,41952,2,0,L|396:24,2,110
380,196,42737,6,0,L|436:292,1,110,0|8,0:0|0:0,0:0:0:0:
424,344,43208,2,0,P|360:364|260:332,1,165,0|8,0:0|0:0,0:0:0:0:
160,316,43994,1,0,0:0:0:0:
112,216,44308,1,8,0:0:0:0:
124,108,44622,2,0,P|168:72|272:88,1,165,0|0,0:0|0:0,0:0:0:0:
316,116,45250,6,0,L|432:92,1,110,4|12,0:0|0:0,0:0:0:0:
476,192,46035,2,0,P|416:192|368:216,1,110,4|0,0:0|0:0,0:0:0:0:
324,240,46507,2,0,P|296:252|264:256,2,55,0|0|8,0:0|0:0|0:0,0:0:0:0:
268,144,47135,1,0,0:0:0:0:
160,160,47449,1,8,0:0:0:0:
132,268,47763,6,0,P|72:224|56:132,2,165,0|0|8,0:0|0:0|0:0,0:0:0:0:
240,240,49020,2,0,P|296:220|368:232,1,110,4|0,0:0|0:0,0:0:0:0:
448,268,49648,1,2,0:0:0:0:
504,172,49962,1,2,0:0:0:0:
408,120,50276,6,0,P|460:72|520:64,2,132,6|2|2,0:0|0:0|0:0,0:0:0:0:
304,152,51533,1,0,0:0:0:0:
200,120,51847,2,0,L|116:68,2,88,2|2|2,0:0|0:0|0:0,0:0:0:0:
216,228,52789,2,0,L|212:280,2,44,2|0|2,0:0|0:0|0:0,0:0:0:0:
256,192,53261,2,0,P|281:161|288:108,1,88,2|0,0:0|0:0,0:0:0:0:
276,60,53732,1,2,0:0:0:0:
380,96,54046,6,0,P|409:127|421:169,1,88,2|2,0:0|0:0,0:0:0:0:
360,261,54674,2,0,P|330:229|318:187,1,88,2|2,0:0|0:0,0:0:0:0:
380,96,55302,1,2,0:0:0:0:
284,40,55617,1,2,0:0:0:0:
184,80,55931,2,0,L|128:84,2,44,0|2|0,0:0|0:0|0:0,0:0:0:0:
180,188,56559,6,0,P|132:216|114:301,2,132,2|2|2,0:0|0:0|0:0,0:0:0:0:
276,136,57816,2,0,L|284:92,2,44,2|0|2,0:0|0:0|0:0,0:0:0:0:
292,188,58287,2,0,L|324:292,1,88,2|0,0:0|0:0,0:0:0:0:
336,324,58758,2,0,P|272:308|216:336,1,132,2|2,0:0|0:0,0:0:0:0:
64,276,59700,5,8,0:0:0:0:
168,248,60014,1,0,0:0:0:0:
236,164,60329,2,0,P|228:120|204:76,1,88,12|0,0:0|0:0,0:0:0:0:
316,92,60957,2,0,P|356:108|412:100,1,88,8|0,0:0|0:0,0:0:0:0:
364,208,61585,2,0,P|352:228|344:252,2,44,0|0|0,0:0|0:0|0:0,0:0:0:0:
420,208,62056,2,0,P|464:204|500:172,2,88
376,172,62842,6,0,P|292:152|200:184,1,176,0|8,0:0|0:0,0:0:0:0:
116,236,63784,1,0,0:0:0:0:
104,128,64098,2,0,L|192:72,1,88,0|0,0:0|0:0,0:0:0:0:
288,60,64727,1,8,0:0:0:0:
392,96,65041,1,0,0:0:0:0:
388,204,65355,6,0,P|392:244|416:288,1,88,4|4,0:0|0:0,0:0:0:0:
264,216,66140,2,0,P|240:192|176:180,1,88,4|0,0:0|0:0,0:0:0:0:
136,184,66611,1,8,0:0:0:0:
48,120,66925,1,0,0:0:0:0:
152,80,67240,2,0,P|192:96|248:92,1,88,8|0,0:0|0:0,0:0:0:0:
348,96,67868,6,0,P|408:120|444:184,2,132,8|0|0,0:0|0:0|0:0,0:0:0:0:
340,204,69124,2,0,L|240:240,1,88,4|0,0:0|0:0,0:0:0:0:
196,324,69753,1,2,0:0:0:0:
88,312,70067,1,2,0:0:0:0:
60,204,70381,6,0,L|48:92,1,110,4|8,0:0|0:0,0:0:0:0:
40,40,70852,2,0,P|84:72|144:68,1,110
192,60,71323,1,8,0:0:0:0:
300,88,71638,2,0,P|344:124|356:176,1,110,0|8,0:0|0:0,0:0:0:0:
444,240,72266,2,0,P|408:276|348:284,1,110,0|8,0:0|0:0,0:0:0:0:
264,216,72894,6,0,P|248:192|224:176,2,55,0|0|8,0:0|0:0|0:0,0:0:0:0:
260,272,73365,2,0,P|269:327|308:364,1,110
360,372,73836,1,8,0:0:0:0:
436,292,74151,2,0,L|472:184,1,110,0|8,0:0|0:0,0:0:0:0:
364,160,74779,2,0,L|340:44,1,110,0|8,0:0|0:0,0:0:0:0:
248,108,75407,5,0,0:0:0:0:
140,92,75721,1,8,0:0:0:0:
48,152,76035,2,0,L|20:208,2,55,0|0|8,0:0|0:0|0:0,0:0:0:0:
124,232,76664,2,0,P|144:284|192:312,1,110,0|8,0:0|0:0,0:0:0:0:
288,264,77292,1,0,0:0:0:0:
396,292,77606,1,8,0:0:0:0:
484,224,77920,6,0,L|488:108,1,110,4|0,0:0|0:0,0:0:0:0:
488,60,78391,1,8,0:0:0:0:
360,168,78863,2,0,L|248:204,1,110,4|0,0:0|0:0,0:0:0:0:
204,220,79334,1,8,0:0:0:0:
84,104,79805,2,0,L|64:212,1,110,4|0,0:0|0:0,0:0:0:0:
48,320,80433,6,0,P|96:292|152:292,1,110,0|12,0:0|0:0,0:0:0:0:
256,324,81062,1,0,0:0:0:0:
364,308,81376,1,8,0:0:0:0:
416,212,81690,2,0,P|436:192|464:184,2,55,0|0|8,0:0|0:0|0:0,0:0:0:0:
364,224,82161,2,0,P|316:212|272:164,2,110
408,256,82946,6,0,P|432:308|424:364,1,110,0|8,0:0|0:0,0:0:0:0:
376,340,83418,2,0,P|320:316|212:348,1,165,0|8,0:0|0:0,0:0:0:0:
112,332,84203,1,0,0:0:0:0:
52,240,84517,1,8,0:0:0:0:
140,176,84831,2,0,P|192:180|252:92,1,165,0|0,0:0|0:0,0:0:0:0:
244,40,85460,6,0,L|336:112,1,110,4|4,0:0|0:0,0:0:0:0:
464,204,86245,2,0,P|412:220|372:268,1,110,4|0,0:0|0:0,0:0:0:0:
360,312,86716,2,0,P|352:340|324:364,2,55,0|0|8,0:0|0:0|0:0,0:0:0:0:
256,276,87344,1,0,0:0:0:0:
236,168,87658,1,8,0:0:0:0:
316,92,87973,6,0,L|148:68,2,165,0|0|8,0:0|0:0|0:0,0:0:0:0:
424,112,89229,1,4,0:0:0:0:
476,208,89543,2,0,L|500:280,2,55
364,212,90172,1,0,0:0:0:0:
280,144,90486,6,0,L|192:172,1,88,4|0,0:0|0:0,0:0:0:0:
184,280,91114,2,0,L|116:264,2,44,0|0|2,0:0|0:0|0:0,0:0:0:0:
236,256,91585,2,0,L|280:392,1,132,0|2,0:0|0:0,0:0:0:0:
388,368,92371,1,0,0:0:0:0:
460,284,92685,1,2,0:0:0:0:
396,196,92999,6,0,P|380:152|388:108,1,88,0|2,0:0|0:0,0:0:0:0:
468,40,93627,2,0,P|492:40|516:48,2,44,0|0|2,0:0|0:0|0:0,0:0:0:0:
472,96,94098,2,0,L|340:24,1,132,0|2,0:0|0:0,0:0:0:0:
248,44,94884,1,2,0:0:0:0:
156,100,95198,1,0,0:0:0:0:
108,200,95512,6,0,P|116:244|148:280,1,88,0|2,0:0|0:0,0:0:0:0:
252,272,96140,2,0,P|272:264|296:264,2,44,0|0|2,0:0|0:0|0:0,0:0:0:0:
236,324,96611,2,0,L|204:196,1,132,0|2,0:0|0:0,0:0:0:0:
272,108,97397,1,0,0:0:0:0:
380,112,97711,1,2,0:0:0:0:
428,212,98025,6,0,L|460:308,1,88,0|2,0:0|0:0,0:0:0:0:
348,284,98653,2,0,L|320:200,1,88,0|2,0:0|0:0,0:0:0:0:
304,148,99124,2,0,P|256:192|184:176,1,132,0|2,0:0|0:0,0:0:0:0:
104,124,99910,1,2,0:0:0:0:
36,208,100224,1,0,0:0:0:0:
104,296,100538,6,0,L|200:316,1,88,0|2,0:0|0:0,0:0:0:0:
228,212,101166,2,0,L|316:176,1,88,0|2,0:0|0:0,0:0:0:0:
316,124,101638,2,0,L|404:152,2,88,0|0|2,0:0|0:0|0:0,0:0:0:0:
260,116,102423,1,0,0:0:0:0:
180,40,102737,1,2,0:0:0:0:
76,76,103051,6,0,P|40:108|28:144,1,88,0|2,0:0|0:0,0:0:0:0:
84,240,103679,2,0,P|120:208|132:172,1,88,0|2,0:0|0:0,0:0:0:0:
132,116,104151,2,0,P|216:80|292:120,1,176,0|0,0:0|0:0,0:0:0:0:
320,160,104936,1,2,0:0:0:0:
320,268,105250,1,0,0:0:0:0:
416,324,105564,6,0,P|456:304|488:268,1,88,0|2,0:0|0:0,0:0:0:0:
440,172,106193,2,0,P|420:132|424:80,1,88,0|2,0:0|0:0,0:0:0:0:
448,44,106664,2,0,P|384:72|288:40,1,176,0|2,0:0|0:0,0:0:0:0:
236,16,107449,1,0,0:0:0:0:
140,72,107763,1,2,0:0:0:0:
208,160,108077,6,0,P|228:200|232:244,1,88,0|2,0:0|0:0,0:0:0:0:
168,332,108706,2,0,P|212:348|256:344,1,88,0|2,0:0|0:0,0:0:0:0:
288,304,109177,2,0,P|352:240|432:260,1,176
468,292,109962,1,2,0:0:0:0:
256,192,110590,12,0,116873,0:0:0:0:
