osu file format v13

[General]
AudioFilename: 04 Encryption.mp3
AudioLeadIn: 2500
PreviewTime: 29543
Countdown: 0
SampleSet: Normal
StackLeniency: 0.7
Mode: 0
LetterboxInBreaks: 0
WidescreenStoryboard: 0

[Editor]
DistanceSpacing: 1
BeatDivisor: 4
GridSize: 4
TimelineZoom: 3.099999

[Metadata]
Title:Encryption
TitleUnicode:Encryption
Artist:An
ArtistUnicode:An
Creator:HelloSCV
Version:Hyper
Source:
Tags:Kloyd Acuticnotes An-fillnote dnb happy623 drum and bass Spectator
BeatmapID:258595
BeatmapSetID:96368

[Difficulty]
HPDrainRate:5
CircleSize:4
OverallDifficulty:6
ApproachRate:8
SliderMultiplier:1.5
SliderTickRate:1

[Events]
//Background and Video events
0,0,"Uncrypted bg.jpg",0,0
//Break Periods
//Storyboard Layer 0 (Background)
//Storyboard Layer 1 (Fail)
//Storyboard Layer 2 (Pass)
//Storyboard Layer 3 (Foreground)
//Storyboard Sound Samples
//Background Colour Transformations
3,100,163,162,255

[TimingPoints]
15,314.13612565445,4,1,1,50,1,0
15,-125,4,2,1,50,0,0
1271,-125,4,2,1,25,0,0
1428,-125,4,2,1,50,0,0
2371,-125,4,2,1,25,0,0
2528,-125,4,2,1,50,0,0
3313,-125,4,2,1,25,0,0
3470,-125,4,2,1,50,0,0
5041,-100,4,1,1,70,0,0
5669,-100,4,1,2,70,0,0
5826,-100,4,1,1,70,0,0
8810,-100,4,1,2,70,0,0
8967,-100,4,1,1,70,0,0
10067,-100,4,1,1,55,0,0
10145,-100,4,1,1,70,0,0
11166,-100,4,1,1,55,0,0
11245,-100,4,1,1,70,0,0
11638,-100,4,1,1,55,0,0
11716,-100,4,1,1,70,0,0
12580,-100,4,1,1,50,0,0
12658,-100,4,1,1,70,0,0
13679,-100,4,1,1,50,0,0
13758,-100,4,1,1,70,0,0
14151,-100,4,1,1,50,0,0
14229,-100,4,1,1,70,0,0
14622,-100,4,1,1,50,0,0
14700,-100,4,1,1,70,0,0
15093,-100,4,1,1,50,0,0
15172,-100,4,1,1,70,0,0
16193,-100,4,1,1,50,0,0
16271,-100,4,1,1,70,0,0
16664,-100,4,1,1,50,0,0
16742,-100,4,1,1,70,0,0
17606,-100,4,1,1,50,0,0
17685,-100,4,1,1,70,0,0
18706,-100,4,1,1,50,0,0
18784,-100,4,1,1,70,0,0
19177,-100,4,1,1,50,0,0
19255,-100,4,1,1,70,0,0
19648,-100,4,1,1,50,0,0
19805,-100,4,1,2,70,0,0
19962,-100,4,1,1,70,0,0
20119,-100,4,1,1,50,0,0
20198,-100,4,1,1,70,0,0
21219,-100,4,1,1,50,0,0
21297,-100,4,1,1,70,0,0
21690,-100,4,1,1,50,0,0
21768,-100,4,1,1,70,0,0
22632,-100,4,1,1,50,0,0
22711,-100,4,1,1,70,0,0
23732,-100,4,1,1,50,0,0
23810,-100,4,1,1,70,0,0
24203,-100,4,1,1,50,0,0
24282,-100,4,1,1,70,0,0
24674,-100,4,1,1,50,0,0
24831,-100,4,1,2,70,0,0
24988,-100,4,1,1,70,0,0
25145,-100,4,1,1,50,0,0
25224,-100,4,1,1,70,0,0
26245,-100,4,1,1,50,0,0
26323,-100,4,1,1,70,0,0
26716,-100,4,1,1,50,0,0
26795,-100,4,1,1,70,0,0
27658,-100,4,1,1,50,0,0
27737,-100,4,1,1,70,0,0
28758,-100,4,1,1,50,0,0
28836,-100,4,1,1,70,0,0
29543,-166.666666666667,4,2,1,20,0,0
30172,-100,4,1,1,80,0,1
39596,-100,4,1,1,65,0,1
39753,-100,4,1,1,80,0,1
39910,-100,4,1,1,65,0,1
40067,-100,4,1,1,80,0,1
40224,-100,4,1,1,80,0,0
40538,-100,4,1,1,80,0,1
42423,-100,4,1,2,80,0,1
42580,-100,4,1,1,80,0,1
46193,-100,4,1,2,80,0,1
46350,-100,4,1,1,80,0,1
49020,-100,4,2,1,65,0,1
50276,-166.666666666667,4,2,1,30,0,0
59700,-166.666666666667,4,1,1,40,0,0
60329,-125,4,1,1,50,0,0
62213,-125,4,1,2,50,0,0
62371,-125,4,1,1,50,0,0
63470,-125,4,1,2,50,0,0
63627,-125,4,1,1,50,0,0
69753,-166.666666666667,4,1,1,50,0,0
70381,-100,4,1,1,80,0,1
80433,-100,4,1,1,80,0,0
80747,-100,4,1,1,80,0,1
82632,-100,4,1,2,80,0,1
82789,-100,4,1,1,80,0,1
89229,-100,4,2,1,50,0,1
90486,-125,4,2,1,50,0,0
100538,-166.666666666667,4,2,1,30,0,0
110590,-166.666666666667,4,2,1,55,0,0
111219,-166.666666666667,4,2,1,50,0,0
111847,-166.666666666667,4,2,1,45,0,0
112475,-166.666666666667,4,2,1,40,0,0
113104,-166.666666666667,4,2,1,35,0,0
113732,-166.666666666667,4,2,1,30,0,0
114360,-166.666666666667,4,2,1,25,0,0
114988,-166.666666666667,4,2,1,20,0,0
115617,-166.666666666667,4,2,1,15,0,0
116245,-166.666666666667,4,2,1,10,0,0
116873,-166.666666666667,4,2,1,5,0,0

[Colours]
Combo1 : 130,130,130
Combo2 : 196,238,238
Combo3 : 68,0,136

[HitObjects]
204,212,15,6,0,P|236:208|264:192,2,60,4|0|2,0:0|0:0|0:0,0:0:0:0:
144,156,486,2,0,P|124:200|152:272,1,120,2|2,0:0|0:0,0:0:0:0:
224,288,957,1,0,0:0:0:0:
304,288,1114,2,0,L|352:252,1,60,2|0,0:0|0:0,0:0:0:0:
432,272,1428,2,0,L|424:200,2,60,2|2|2,0:0|0:0|0:0,0:0:0:0:
420,352,1899,1,2,0:0:0:0:
340,360,2056,1,0,0:0:0:0:
304,288,2213,1,2,0:0:0:0:
96,176,2528,6,0,L|108:236,2,60,2|0|2,0:0|0:0|0:0,0:0:0:0:
80,96,2999,1,2,0:0:0:0:
144,48,3156,1,0,0:0:0:0:
144,48,3313,2,0,P|172:88|244:92,1,120,2|2,0:0|0:0,0:0:0:0:
376,184,3941,2,0,P|344:168|312:164,2,60,2|0|2,0:0|0:0|0:0,0:0:0:0:
324,244,4412,2,0,P|292:256|268:276,1,60,2|0,0:0|0:0,0:0:0:0:
248,348,4727,1,10,1:2:0:0:
20,252,5041,6,0,P|56:256|92:240,1,75,0|0,0:0|0:0,0:0:0:0:
48,180,5355,1,8,0:0:0:0:
80,112,5512,2,0,P|132:76|216:96,1,150
276,130,5983,2,0,P|251:157|216:168,1,75,8|0,0:0|0:0,0:0:0:0:
276,56,6297,1,8,0:0:0:0:
348,68,6454,2,0,L|432:64,2,75,0|8|0,0:0|0:0|0:0,0:0:0:0:
340,144,6925,1,8,0:0:0:0:
360,216,7083,1,0,0:0:0:0:
428,248,7240,2,0,P|356:216|292:240,1,150,8|8,0:0|0:0,0:0:0:0:
236,288,7711,5,0,0:0:0:0:
168,320,7868,2,0,P|132:324|92:308,1,75,8|0,0:0|0:0,0:0:0:0:
72,240,8182,2,0,P|108:236|148:252,1,75,8|0,0:0|0:0,0:0:0:0:
24,300,8496,1,8,0:0:0:0:
24,300,8653,2,0,P|-4:228|36:172,1,150
108,156,9124,2,0,P|144:144|172:116,1,75,8|0,0:0|0:0,0:0:0:0:
196,48,9439,1,8,0:0:0:0:
170,118,9596,1,0,0:0:0:0:
216,176,9753,1,8,0:0:0:0:
292,172,9910,1,0,0:0:0:0:
344,116,10067,6,0,L|264:244,1,150,4|8,0:0|0:0,0:0:0:0:
164,280,10538,2,0,L|120:276,2,37.5,0|0|0,0:0|0:0|0:0,0:0:0:0:
232,308,10852,2,0,L|276:368,1,75,0|8,0:0|0:0,0:0:0:0:
328,316,11166,2,0,P|360:252|436:244,1,150,4|0,0:0|0:0,0:0:0:0:
508,236,11638,2,0,P|476:300|400:308,1,150,12|0,0:0|0:0,0:0:0:0:
328,316,12109,1,0,0:0:0:0:
268,268,12266,1,8,0:0:0:0:
248,120,12580,6,0,L|256:200,2,75,4|0|8,0:0|0:0|0:0,0:0:0:0:
184,44,13051,1,0,0:0:0:0:
184,44,13130,1,0,0:0:0:0:
184,44,13208,2,0,P|160:72|124:88,1,75
56,112,13522,1,8,0:0:0:0:
88,180,13679,2,0,P|120:232|88:320,1,150,4|0,0:0|0:0,0:0:0:0:
156,360,14151,2,0,P|193:360|227:345,1,75,12|0,0:0|0:0,0:0:0:0:
240,272,14465,1,0,0:0:0:0:
314,269,14622,2,0,P|331:236|334:199,1,75,4|8,0:0|0:0,0:0:0:0:
267,160,14936,1,0,0:0:0:0:
196,136,15093,6,0,P|164:116|116:112,1,75,4|0,0:0|0:0,0:0:0:0:
36,176,15407,2,0,L|16:216,2,37.5,8|0|0,0:0|0:0|0:0,0:0:0:0:
96,224,15721,2,0,L|112:300,1,75
128,372,16035,1,8,0:0:0:0:
56,344,16193,2,0,P|112:296|184:316,1,150,4|0,0:0|0:0,0:0:0:0:
248,348,16664,2,0,P|316:365|372:317,1,150,12|0,0:0|0:0,0:0:0:0:
372,244,17135,1,0,0:0:0:0:
424,188,17292,1,8,0:0:0:0:
236,64,17606,6,0,P|200:128|128:128,1,150,4|8,0:0|0:0,0:0:0:0:
48,80,18077,1,0,0:0:0:0:
48,80,18156,1,0,0:0:0:0:
48,80,18234,2,0,P|32:116|32:156,1,75
56,224,18549,1,8,0:0:0:0:
128,248,18706,2,0,L|284:208,1,150,4|0,0:0|0:0,0:0:0:0:
321,122,19177,2,0,L|176:160,1,150,4|0,0:0|0:0,0:0:0:0:
88,104,19648,2,0,L|233:66,1,150,4|0,0:0|0:0,0:0:0:0:
344,44,20119,6,0,P|376:64|400:104,1,75,4|0,0:0|0:0,0:0:0:0:
436,184,20433,2,0,L|472:196,2,37.5,8|0|0,0:0|0:0|0:0,0:0:0:0:
364,164,20747,2,0,L|312:240,1,75
280,288,21062,1,8,0:0:0:0:
284,364,21219,2,0,P|228:344|212:256,1,150,4|0,0:0|0:0,0:0:0:0:
244,196,21690,2,0,P|196:188|132:272,1,150,12|0,0:0|0:0,0:0:0:0:
120,332,22161,1,0,0:0:0:0:
56,368,22318,1,8,0:0:0:0:
24,128,22632,6,0,L|108:140,1,75,4|0,0:0|0:0,0:0:0:0:
176,80,22946,1,8,0:0:0:0:
176,80,23025,1,0,0:0:0:0:
176,80,23104,2,0,P|212:96|256:92,1,75,0|0,0:0|0:0,0:0:0:0:
320,72,23418,1,0,0:0:0:0:
388,104,23575,1,8,0:0:0:0:
408,176,23732,2,0,P|424:244|496:264,1,150,4|0,0:0|0:0,0:0:0:0:
480,192,24203,2,0,L|372:308,1,150,12|0,0:0|0:0,0:0:0:0:
304,316,24674,2,0,P|248:268|168:288,1,150,4|0,0:0|0:0,0:0:0:0:
116,320,25145,5,4,0:0:0:0:
44,296,25302,1,0,0:0:0:0:
32,220,25460,1,8,0:0:0:0:
76,160,25617,1,0,0:0:0:0:
148,184,25774,1,0,0:0:0:0:
208,140,25931,1,0,0:0:0:0:
192,68,26088,1,8,0:0:0:0:
264,88,26245,6,0,L|335:109,1,75,4|0,0:0|0:0,0:0:0:0:
408,132,26559,1,0,0:0:0:0:
352,184,26716,2,0,L|300:256,1,75,12|0,0:0|0:0,0:0:0:0:
264,304,27030,1,0,0:0:0:0:
204,256,27187,1,0,0:0:0:0:
128,256,27344,2,0,P|108:288|72:304,1,75,8|0,0:0|0:0,0:0:0:0:
60,232,27658,6,0,L|56:188,3,37.5,12|0|0|0,0:0|0:0|0:0|0:0,0:0:0:0:
96,188,27973,2,0,L|121:151,3,37.5,8|0|0|0,0:0|0:0|0:0|0:0,0:0:0:0:
152,172,28287,2,0,L|194:160,3,37.5,8|0|0|0,0:0|0:0|0:0|0:0,0:0:0:0:
196,200,28601,2,0,L|236:218,3,37.5,8|0|4|0,0:0|0:0|0:0|0:0,0:0:0:0:
216,252,28915,1,0,0:0:0:0:
388,352,29543,6,0,P|315:352|267:316,1,134.999995880127
216,252,30172,6,0,P|192:284|184:320,1,75,4|0,0:0|0:0,0:0:0:0:
104,340,30486,1,8,0:0:0:0:
60,240,30643,2,0,L|64:200,2,37.5
140,220,30957,1,0,0:0:0:0:
72,132,31114,2,0,P|36:136|4:160,1,75,8|0,0:0|0:0,0:0:0:0:
48,56,31428,6,0,L|132:56,1,75
224,96,31742,1,8,0:0:0:0:
224,96,31821,1,0,0:0:0:0:
224,96,31899,2,0,L|268:80,2,37.5
148,132,32213,1,0,0:0:0:0:
216,180,32371,2,0,P|240:212|248:248,1,75,8|0,0:0|0:0,0:0:0:0:
280,320,32685,6,0,P|245:328|209:316,2,75,0|0|8,0:0|0:0|0:0,0:0:0:0:
344,268,33156,2,0,P|384:212|464:212,1,150
424,284,33627,1,8,0:0:0:0:
344,268,33784,1,0,0:0:0:0:
280,216,33941,2,0,L|260:136,1,75,0|0,0:0|0:0,0:0:0:0:
161,83,34255,2,0,L|180:156,1,75,8|0,0:0|0:0,0:0:0:0:
128,272,34569,2,0,L|108:192,1,75,0|0,0:0|0:0,0:0:0:0:
9,139,34884,2,0,L|27:211,1,75,8|0,0:0|0:0,0:0:0:0:
48,292,35198,5,0,0:0:0:0:
104,352,35355,1,0,0:0:0:0:
184,332,35512,2,0,P|220:320|256:324,1,75,8|0,0:0|0:0,0:0:0:0:
332,352,35826,1,0,0:0:0:0:
356,272,35983,2,0,L|388:248,2,37.5,0|0|8,0:0|0:0|0:0,0:0:0:0:
276,48,36454,6,0,L|283:197,1,150,0|8,0:0|0:0,0:0:0:0:
252,272,36925,1,0,0:0:0:0:
252,272,37004,1,0,0:0:0:0:
252,272,37083,2,0,P|224:248|208:208,1,75
320,236,37397,2,0,P|328:271|317:312,1,75,8|0,0:0|0:0,0:0:0:0:
248,348,37711,6,0,B|208:340|184:312|184:312|112:364,1,150,4|0,0:0|0:0,0:0:0:0:
40,356,38182,1,8,0:0:0:0:
108,120,38653,2,0,B|140:140|176:128|176:128|192:216,1,150,4|0,0:0|0:0,0:0:0:0:
260,252,39124,1,8,0:0:0:0:
476,244,39596,2,0,L|392:252,1,75,4|0,0:0|0:0,0:0:0:0:
280,236,39910,2,0,L|340:188,1,75,0|0,0:0|0:0,0:0:0:0:
404,140,40224,5,4,0:0:0:0:
404,140,40538,5,12,0:0:0:0:
324,112,40695,2,0,L|272:96,2,37.5,0|0|0,0:0|0:0|0:0,0:0:0:0:
228,152,41009,2,0,L|172:88,2,75,0|8|0,0:0|0:0|0:0,0:0:0:0:
260,252,41480,5,0,0:0:0:0:
260,252,41638,2,0,L|244:336,1,75,0|8,0:0|0:0,0:0:0:0:
184,244,41952,2,0,P|204:200|300:188,2,150
156,320,42737,6,0,L|128:164,1,150,0|8,0:0|0:0,0:0:0:0:
76,108,43208,2,0,L|228:172,1,150
292,192,43679,1,8,0:0:0:0:
292,192,43758,1,0,0:0:0:0:
292,192,43836,1,0,0:0:0:0:
364,232,43994,6,0,P|372:196|360:156,1,75
300,108,44308,1,8,0:0:0:0:
380,80,44465,1,0,0:0:0:0:
296,76,44622,2,0,P|256:72|220:52,1,75
140,160,44936,2,0,P|173:137|206:129,1,75,8|0,0:0|0:0,0:0:0:0:
160,228,45250,6,0,P|120:232|88:212,1,75,4|0,0:0|0:0,0:0:0:0:
90,215,45564,1,12,0:0:0:0:
307,256,46035,6,0,L|160:228,1,150,4|0,0:0|0:0,0:0:0:0:
108,292,46507,1,0,0:0:0:0:
28,272,46664,1,0,0:0:0:0:
12,192,46821,2,0,L|4:140,2,37.5,8|0|0,0:0|0:0|0:0,0:0:0:0:
92,168,47135,2,0,P|124:152|144:120,1,75
76,15,47449,2,0,P|64:59|68:88,1,75,8|0,0:0|0:0,0:0:0:0:
92,168,47763,5,4,0:0:0:0:
164,212,47920,1,0,0:0:0:0:
248,204,48077,1,8,0:0:0:0:
312,152,48234,2,0,L|344:124,2,37.5
284,232,48549,1,0,0:0:0:0:
320,308,48706,2,0,L|400:324,2,75,8|0|4,0:0|0:0|0:0,0:0:0:0:
156,324,49334,5,2,0:0:0:0:
136,160,49648,2,0,L|128:80,1,75,2|0,0:0|0:0,0:0:0:0:
56,128,49962,2,0,L|63:202,1,75,2|0,0:0|0:0,0:0:0:0:
28,272,50276,6,0,P|76:280|112:264,1,89.9999972534181,4|2,0:0|0:0,0:0:0:0:
184,228,50747,2,0,P|224:212|272:216,1,89.9999972534181,0|2,0:0|0:0,0:0:0:0:
348,236,51219,1,2,0:0:0:0:
348,236,51847,6,0,L|380:152,2,89.9999972534181,2|2|2,0:0|0:0|0:0,0:0:0:0:
188,272,52789,1,2,0:0:0:0:
156,200,52946,1,0,0:0:0:0:
80,176,53104,1,2,0:0:0:0:
12,216,53261,1,2,0:0:0:0:
136,120,53575,2,0,L|160:80,2,44.999998626709,2|0|2,0:0|0:0|0:0,0:0:0:0:
80,176,54046,5,2,0:0:0:0:
144,340,54360,1,2,0:0:0:0:
308,276,54674,1,2,0:0:0:0:
244,112,54988,1,2,0:0:0:0:
80,176,55302,6,0,L|100:232,1,44.999998626709,2|0,0:0|0:0,0:0:0:0:
124,292,55617,2,0,P|168:272|208:280,1,89.9999972534181,2|0,0:0|0:0,0:0:0:0:
272,324,56088,1,2,0:0:0:0:
272,324,56559,6,0,P|312:304|344:216,2,134.999995880127,2|2|2,0:0|0:0|0:0,0:0:0:0:
196,184,57816,2,0,L|236:224,2,44.999998626709,2|0|2,0:0|0:0|0:0,0:0:0:0:
128,224,58287,2,0,L|112:124,1,89.9999972534181,2|0,0:0|0:0,0:0:0:0:
76,68,58758,2,0,L|16:148,1,89.9999972534181,2|0,0:0|0:0,0:0:0:0:
4,216,59229,1,2,0:0:0:0:
256,276,59700,6,0,L|212:256,1,44.999998626709,8|0,0:0|0:0,0:0:0:0:
144,224,60014,1,8,0:0:0:0:
168,208,60093,1,0,0:0:0:0:
184,184,60172,1,8,0:0:0:0:
184,156,60250,1,0,0:0:0:0:
176,132,60329,6,0,L|232:104,1,60,4|0,0:0|0:0,0:0:0:0:
304,80,60643,2,0,P|300:140|344:184,1,120,0|8,0:0|0:0,0:0:0:0:
416,184,61114,1,0,0:0:0:0:
492,196,61271,2,0,P|496:228|484:260,1,60
340,272,61585,5,0,0:0:0:0:
416,292,61742,1,0,0:0:0:0:
456,356,61899,1,0,0:0:0:0:
380,364,62056,2,0,P|316:348|256:376,1,120
188,364,62528,2,0,P|156:360|132:340,1,60
136,240,62842,6,0,P|104:276|32:276,1,120
8,204,63313,2,0,P|40:168|112:168,1,120
188,168,63784,1,0,0:0:0:0:
216,160,63863,1,0,0:0:0:0:
232,136,63941,6,0,L|280:260,1,120
316,144,64412,2,0,L|340:206,1,60
380,268,64727,2,0,L|416:272,3,30,8|0|0|0,0:0|0:0|0:0|0:0,0:0:0:0:
396,308,65041,2,0,L|421:334,3,30
384,348,65355,6,0,L|312:348,1,60,4|0,0:0|0:0,0:0:0:0:
224,344,65669,1,4,0:0:0:0:
207,225,66140,2,0,L|224:344,1,120,4|0,0:0|0:0,0:0:0:0:
112,360,66611,2,0,L|76:292,2,60,4|0|0,0:0|0:0|0:0,0:0:0:0:
92,204,67240,1,12,0:0:0:0:
184,80,67554,1,0,0:0:0:0:
332,124,67868,6,0,P|364:172|436:184,1,120,4|0,0:0|0:0,0:0:0:0:
480,136,68339,2,0,P|452:192|476:248,1,120,4|0,0:0|0:0,0:0:0:0:
504,312,68810,2,0,L|476:376,2,60,0|0|4,0:0|0:0|0:0,0:0:0:0:
356,264,69439,1,2,2:0:0:0:
216,312,69753,6,0,L|252:272,1,44.999998626709,8|8,0:0|0:0,0:0:0:0:
140,268,70067,1,8,0:0:0:0:
116,256,70145,1,0,0:0:0:0:
88,256,70224,1,8,0:0:0:0:
64,268,70302,1,0,0:0:0:0:
52,292,70381,6,0,L|24:220,1,75,4|0,0:0|0:0,0:0:0:0:
32,120,70695,1,8,0:0:0:0:
92,176,70852,2,0,L|136:164,2,37.5
24,222,71166,1,0,0:0:0:0:
116,256,71323,2,0,L|192:232,1,75,8|0,0:0|0:0,0:0:0:0:
216,140,71638,2,0,P|216:204|288:244,1,150,0|8,0:0|0:0,0:0:0:0:
364,228,72109,1,0,0:0:0:0:
424,172,72266,2,0,P|448:240|396:308,1,150,0|8,0:0|0:0,0:0:0:0:
340,348,72737,1,0,0:0:0:0:
340,348,72894,6,0,P|304:368|260:372,2,75,0|0|8,0:0|0:0|0:0,0:0:0:0:
276,300,73365,2,0,B|228:296|204:336|204:336|168:276,1,150
124,212,73836,1,8,0:0:0:0:
136,132,73994,1,0,0:0:0:0:
212,96,74151,2,0,L|256:108,3,37.5,0|0|0|0,1:0|2:0|1:0|2:0,0:0:0:0:
288,88,74465,2,0,L|312:128,3,37.5,8|0|0|0,2:0|2:0|2:0|1:0,0:0:0:0:
348,132,74779,2,0,L|344:176,3,37.5,0|0|0|0,1:0|2:0|1:0|2:0,0:0:0:0:
372,200,75093,2,0,L|296:244,1,75,8|0,0:0|0:0,0:0:0:0:
236,280,75407,5,0,0:0:0:0:
236,280,75564,1,0,0:0:0:0:
172,224,75721,2,0,L|164:180,2,37.5,8|0|0,0:0|0:0|0:0,0:0:0:0:
112,136,76035,2,0,P|144:116|180:116,1,75
264,124,76350,2,0,L|300:96,2,37.5,8|0|0,0:0|0:0|0:0,0:0:0:0:
256,208,76664,1,0,0:0:0:0:
356,244,76821,1,0,0:0:0:0:
356,244,76899,1,0,0:0:0:0:
356,244,76978,2,0,L|288:284,1,75,8|0,0:0|0:0,0:0:0:0:
240,348,77292,2,0,B|211:324|209:288|209:288|134:325,1,150,0|8,0:0|0:0,0:0:0:0:
72,376,77763,1,0,0:0:0:0:
136,324,77920,6,0,P|152:284|148:248,1,75,4|0,0:0|0:0,0:0:0:0:
72,280,78234,1,0,0:0:0:0:
216,220,78391,2,0,P|164:176|88:204,1,150,8|0,0:0|0:0,0:0:0:0:
72,280,78863,2,0,L|44:128,1,150,4|0,0:0|0:0,0:0:0:0:
108,28,79334,2,0,L|136:180,1,150,8|0,0:0|0:0,0:0:0:0:
148,256,79805,1,4,0:0:0:0:
208,312,79962,1,0,0:0:0:0:
288,288,80119,1,0,0:0:0:0:
296,204,80276,1,0,0:0:0:0:
228,156,80433,5,4,0:0:0:0:
228,156,80747,6,0,L|252:112,2,37.5,12|0|0,0:0|0:0|0:0,0:0:0:0:
160,108,81062,1,0,0:0:0:0:
172,208,81219,2,0,P|204:228|244:228,2,75,0|8|0,0:0|0:0|0:0,0:0:0:0:
92,184,81690,1,0,0:0:0:0:
40,248,81847,1,0,0:0:0:0:
84,320,82004,1,8,0:0:0:0:
168,320,82161,6,0,P|244:308|292:356,2,150
220,380,82946,2,0,L|256:220,1,150,0|8,0:0|0:0,0:0:0:0:
260,152,83418,2,0,B|300:156|320:188|320:188|356:116,1,150
388,44,83889,1,8,0:0:0:0:
388,44,83967,1,0,0:0:0:0:
388,44,84046,6,0,P|380:120|436:160,1,150
408,236,84517,2,0,P|440:244|480:232,1,75,8|0,0:0|0:0,0:0:0:0:
340,196,84831,2,0,L|316:224,3,37.5,8|0|0|0,0:0|0:0|0:0|0:0,0:0:0:0:
276,220,85145,2,0,L|280:260,3,37.5,8|0|0|0,0:0|0:0|0:0|0:0,0:0:0:0:
248,284,85460,6,0,L|316:336,1,75,4|0,0:0|0:0,0:0:0:0:
184,332,85774,1,12,0:0:0:0:
184,332,86245,6,0,B|160:300|172:260|172:260|104:288,1,150,4|0,0:0|0:0,0:0:0:0:
32,248,86716,1,4,0:0:0:0:
40,168,86873,1,0,0:0:0:0:
108,124,87030,1,8,0:0:0:0:
256,104,87344,2,0,L|108:124,1,150,0|8,0:0|0:0,0:0:0:0:
332,80,87973,6,0,P|336:120|324:152,1,75,4|0,0:0|0:0,0:0:0:0:
224,232,88287,1,8,0:0:0:0:
308,236,88444,2,0,L|352:240,2,37.5
260,304,88758,1,0,0:0:0:0:
224,232,88915,2,0,P|176:300|200:360,1,150,8|4,0:0|1:0,0:0:0:0:
256,192,89308,12,0,90172,0:0:0:0:
308,88,90486,6,0,L|376:108,1,60,4|0,0:0|0:0,0:0:0:0:
413,200,90800,2,0,L|356:184,1,60,2|0,0:0|0:0,0:0:0:0:
276,168,91114,1,2,0:0:0:0:
212,216,91271,1,2,0:0:0:0:
220,296,91428,1,0,0:0:0:0:
296,320,91585,2,0,L|184:372,1,120,2|0,0:0|0:0,0:0:0:0:
76,304,92056,2,0,L|108:356,1,60,2|0,0:0|0:0,0:0:0:0:
116,240,92371,2,0,P|88:228|56:232,2,60,2|0|2,0:0|0:0|0:0,0:0:0:0:
324,112,92999,6,0,L|300:176,1,60,2|0,0:0|0:0,0:0:0:0:
272,272,93313,2,0,L|332:256,1,60,2|0,0:0|0:0,0:0:0:0:
408,232,93627,1,2,0:0:0:0:
484,268,93784,1,0,0:0:0:0:
416,312,93941,1,2,0:0:0:0:
408,232,94098,2,0,L|412:96,1,120,2|0,0:0|0:0,0:0:0:0:
488,28,94569,2,0,L|488:88,1,60,2|0,0:0|0:0,0:0:0:0:
412,36,94884,1,6,0:0:0:0:
208,272,95512,6,0,L|200:348,1,60,2|0,0:0|0:0,0:0:0:0:
132,252,95826,2,0,L|120:184,1,60,2|0,0:0|0:0,0:0:0:0:
100,116,96140,1,2,0:0:0:0:
180,116,96297,2,0,P|208:108|233:87,1,60,2|0,0:0|0:0,0:0:0:0:
272,20,96611,2,0,L|296:148,1,120,2|0,0:0|0:0,0:0:0:0:
288,244,97083,2,0,P|264:224|248:196,1,60,2|0,0:0|0:0,0:0:0:0:
352,208,97397,2,0,P|360:240|356:268,2,60,2|0|2,0:0|0:0|0:0,0:0:0:0:
144,320,98025,6,0,L|112:264,1,60,2|0,0:0|0:0,0:0:0:0:
40,188,98339,2,0,L|36:248,1,60,2|0,0:0|0:0,0:0:0:0:
56,324,98653,1,2,0:0:0:0:
114,267,98810,1,2,0:0:0:0:
124,188,98967,1,0,0:0:0:0:
84,120,99124,2,0,P|144:112|192:148,1,120,2|0,0:0|0:0,0:0:0:0:
216,256,99596,2,0,P|240:232|248:204,1,60,2|0,0:0|0:0,0:0:0:0:
268,128,99910,1,6,0:0:0:0:
268,128,100538,6,0,L|308:164,1,44.999998626709,0|0,0:0|0:0,0:0:0:0:
376,132,100852,2,0,L|384:184,1,44.999998626709,2|0,0:0|0:0,0:0:0:0:
460,180,101166,2,0,L|448:228,2,44.999998626709,0|0|2,0:0|0:0|0:0,0:0:0:0:
500,276,101638,2,0,P|452:296|416:288,1,89.9999972534181
344,256,102109,2,0,P|328:236|316:212,1,44.999998626709,2|0,0:0|0:0,0:0:0:0:
207,221,102423,2,0,P|229:235|244:248,2,44.999998626709,0|0|2,0:0|0:0|0:0,0:0:0:0:
64,80,103051,6,0,L|76:128,1,44.999998626709
148,92,103365,2,0,L|184:132,1,44.999998626709,2|0,0:0|0:0,0:0:0:0:
232,68,103679,2,0,L|276:76,2,44.999998626709,0|0|2,0:0|0:0|0:0,0:0:0:0:
304,144,104151,2,0,P|340:116|348:72,1,89.9999972534181
348,74,104622,2,0,L|396:72,1,44.999998626709,2|2,0:0|0:0,0:0:0:0:
276,76,104936,1,4,0:0:0:0:
68,312,105564,6,0,L|100:272,1,44.999998626709
168,308,105878,2,0,L|139:343,1,44.999998626709,2|0,0:0|0:0,0:0:0:0:
212,376,106193,2,0,L|240:340,1,44.999998626709
296,284,106507,1,2,0:0:0:0:
292,204,106664,2,0,P|340:216|368:248,1,89.9999972534181
440,268,107135,2,0,P|444:244|440:220,1,44.999998626709,2|0,0:0|0:0,0:0:0:0:
388,116,107449,2,0,P|392:144|404:164,2,44.999998626709,0|0|2,0:0|0:0|0:0,0:0:0:0:
184,108,108077,6,0,L|152:160,1,44.999998626709
68,160,108391,2,0,L|91:121,1,44.999998626709,2|0,0:0|0:0,0:0:0:0:
124,212,108706,2,0,L|100:250,2,44.999998626709,0|0|2,0:0|0:0|0:0,0:0:0:0:
76,316,109177,2,0,P|112:320|160:288,1,89.9999972534181
272,264,109648,2,0,P|252:260|228:264,1,44.999998626709,2|0,0:0|0:0,0:0:0:0:
252,340,109962,1,6,0:0:0:0:
256,192,110590,12,0,116873,0:0:0:0:
