osu file format v12

[General]
AudioFilename: 04 Encryption.mp3
AudioLeadIn: 2500
PreviewTime: 29543
Countdown: 0
SampleSet: Soft
StackLeniency: 0.7
Mode: 0
LetterboxInBreaks: 0
WidescreenStoryboard: 0

[Editor]
DistanceSpacing: 1.25
BeatDivisor: 4
GridSize: 4
TimelineZoom: 3.599998

[Metadata]
Title:Encryption
TitleUnicode:Encryption
Artist:An
ArtistUnicode:An
Creator:HelloSCV
Version:Another
Source:
Tags:Kloyd Acuticnotes An-fillnote dnb happy623 drum and bass Spectator
BeatmapID:258335
BeatmapSetID:96368

[Difficulty]
HPDrainRate:7
CircleSize:4
OverallDifficulty:8
ApproachRate:9
SliderMultiplier:1.7
SliderTickRate:1

[Events]
//Background and Video events
0,0,"Uncrypted bg.jpg",0,0
//Break Periods
//Storyboard Layer 0 (Background)
//Storyboard Layer 1 (Fail)
//Storyboard Layer 2 (Pass)
//Storyboard Layer 3 (Foreground)
//Storyboard Sound Samples
//Background Colour Transformations
3,100,163,162,255

[TimingPoints]
15,314.13612565445,4,1,1,50,1,0
15,-125,4,2,1,50,0,0
1271,-125,4,2,1,25,0,0
1428,-125,4,2,1,50,0,0
2371,-125,4,2,1,25,0,0
2528,-125,4,2,1,50,0,0
3313,-125,4,2,1,25,0,0
3470,-125,4,2,1,50,0,0
5041,-100,4,1,1,70,0,0
5669,-100,4,1,2,70,0,0
5826,-100,4,1,1,70,0,0
6297,-100,4,1,2,70,0,0
6454,-100,4,1,1,70,0,0
8810,-100,4,1,2,70,0,0
8967,-100,4,1,1,70,0,0
10067,-100,4,1,1,55,0,0
10145,-100,4,1,1,70,0,0
11166,-100,4,1,1,55,0,0
11245,-100,4,1,1,70,0,0
11638,-100,4,1,1,55,0,0
11716,-100,4,1,1,70,0,0
12580,-100,4,1,1,50,0,0
12658,-100,4,1,1,70,0,0
13679,-100,4,1,1,50,0,0
13758,-100,4,1,1,70,0,0
14151,-100,4,1,1,50,0,0
14229,-100,4,1,1,70,0,0
14622,-100,4,1,1,50,0,0
14700,-100,4,1,1,70,0,0
14779,-100,4,1,2,70,0,0
14936,-100,4,1,1,70,0,0
15093,-100,4,1,1,50,0,0
15172,-100,4,1,1,70,0,0
16193,-100,4,1,1,50,0,0
16271,-100,4,1,1,70,0,0
16664,-100,4,1,1,50,0,0
16742,-100,4,1,1,70,0,0
17606,-100,4,1,1,50,0,0
17685,-100,4,1,1,70,0,0
18706,-100,4,1,1,50,0,0
18784,-100,4,1,1,70,0,0
19177,-100,4,1,1,50,0,0
19255,-100,4,1,1,70,0,0
19648,-100,4,1,1,50,0,0
19727,-100,4,1,1,70,0,0
19805,-100,4,1,2,70,0,0
19962,-100,4,1,1,70,0,0
20119,-100,4,1,1,50,0,0
20198,-100,4,1,1,70,0,0
21219,-100,4,1,1,50,0,0
21297,-100,4,1,1,70,0,0
21690,-100,4,1,1,50,0,0
21768,-100,4,1,1,70,0,0
22632,-100,4,1,1,50,0,0
22711,-100,4,1,1,70,0,0
23732,-100,4,1,1,50,0,0
23810,-100,4,1,1,70,0,0
24203,-100,4,1,1,50,0,0
24282,-100,4,1,1,70,0,0
24674,-100,4,1,1,50,0,0
24753,-100,4,1,1,70,0,0
24831,-100,4,1,2,70,0,0
24988,-100,4,1,1,70,0,0
25145,-100,4,1,1,50,0,0
25224,-100,4,1,1,70,0,0
26245,-100,4,1,1,50,0,0
26323,-100,4,1,1,70,0,0
26716,-100,4,1,1,50,0,0
26795,-100,4,1,1,70,0,0
27658,-100,4,1,1,50,0,0
27737,-100,4,1,1,70,0,0
28758,-100,4,1,1,50,0,0
28836,-100,4,2,1,50,0,0
29543,-166.666666666667,4,2,1,20,0,0
30172,-100,4,1,1,80,0,1
39596,-100,4,1,1,65,0,1
39753,-100,4,1,1,80,0,1
39910,-100,4,1,1,65,0,1
40067,-100,4,1,1,80,0,1
40224,-100,4,1,1,80,0,0
40538,-100,4,1,1,80,0,1
49020,-100,4,2,1,65,0,1
50276,-166.666666666667,4,2,1,30,0,0
59700,-166.666666666667,4,1,1,40,0,0
60329,-125,4,1,1,50,0,0
62213,-125,4,1,2,50,0,0
62371,-125,4,1,1,50,0,0
69753,-166.666666666667,4,1,1,50,0,0
70381,-100,4,1,1,80,0,1
80433,-100,4,1,1,80,0,0
80747,-100,4,1,1,80,0,1
90486,-100,4,1,1,70,0,0
90800,-125,4,2,1,50,0,0
100538,-166.666666666667,4,2,1,30,0,0
110590,-166.666666666667,4,2,1,55,0,0
111219,-166.666666666667,4,2,1,50,0,0
111847,-166.666666666667,4,2,1,45,0,0
112475,-166.666666666667,4,2,1,40,0,0
113104,-166.666666666667,4,2,1,35,0,0
113732,-166.666666666667,4,2,1,30,0,0
114360,-166.666666666667,4,2,1,25,0,0
114988,-166.666666666667,4,2,1,20,0,0
115617,-166.666666666667,4,2,1,15,0,0
116245,-166.666666666667,4,2,1,10,0,0
116873,-166.666666666667,4,2,1,5,0,0

[Colours]
Combo1 : 130,130,130
Combo2 : 196,238,238
Combo3 : 68,0,136

[HitObjects]
100,288,15,5,4,0:0:0:0:
184,300,172,1,0,0:0:0:0:
240,236,329,1,2,0:0:0:0:
196,164,486,2,0,B|224:144|260:152|260:152|280:120|316:112,1,136,2|2,0:0|0:0,0:0:0:0:
400,104,957,1,0,0:0:0:0:
484,124,1114,2,0,P|468:156|440:176,1,68,2|0,0:0|0:0,0:0:0:0:
360,188,1428,5,2,0:0:0:0:
240,236,1585,1,2,0:0:0:0:
372,268,1742,1,2,0:0:0:0:
256,312,1899,2,0,P|220:312|186:291,1,68,0|2,0:0|0:0,0:0:0:0:
214,174,2213,2,0,P|232:200|240:236,1,68,2|0,0:0|0:0,0:0:0:0:
136,152,2528,5,2,0:0:0:0:
200,96,2685,1,0,0:0:0:0:
280,124,2842,2,0,P|320:120|344:108,1,68,2|0,0:0|0:0,0:0:0:0:
112,76,3156,2,0,P|79:99|64:121,1,68,2|2,0:0|0:0,0:0:0:0:
40,204,3470,1,0,0:0:0:0:
68,284,3627,1,2,0:0:0:0:
64,121,3941,6,0,L|60:53,2,68,2|0|0,0:0|0:0|0:0,0:0:0:0:
80,204,4412,1,2,0:0:0:0:
96,340,4569,1,0,0:0:0:0:
211,263,4727,1,8,0:0:0:0:
128,268,4884,1,0,0:0:0:0:
180,336,5041,6,0,P|208:304|212:264,1,85,8|0,0:0|2:0,0:0:0:0:
128,268,5355,1,8,0:0:0:0:
296,252,5512,2,0,L|468:232,1,170,0|0,2:0|2:0,0:0:0:0:
504,156,5983,1,8,0:0:0:0:
420,148,6140,2,0,P|376:104|400:-4,1,170,0|0,2:0|2:0,2:0:0:0:
452,64,6611,1,8,0:0:0:0:
312,164,6768,1,0,2:0:0:0:
183,95,6925,2,0,L|268:92,1,85,8|0,0:0|2:0,0:0:0:0:
132,156,7240,2,0,P|108:120|108:76,1,85,8|0,0:0|2:0,0:0:0:0:
208,188,7554,6,0,P|220:224|216:272,2,85,8|0|8,0:0|2:0|0:0,0:0:0:0:
140,240,8025,1,0,2:0:0:0:
212,344,8182,2,0,P|252:336|284:300,1,85,8|0,0:0|2:0,0:0:0:0:
132,320,8496,1,8,0:0:0:0:
281,304,8653,2,0,B|344:280|344:280|396:308|452:264,1,170,0|0,2:0|2:0,0:0:0:0:
408,140,9124,2,0,P|385:178|385:218,1,85,8|0,0:0|2:0,0:0:0:0:
472,204,9439,1,8,0:0:0:0:
304,200,9596,1,0,2:0:0:0:
404,56,9753,1,8,0:0:0:0:
408,140,9910,1,0,2:0:0:0:
228,224,10067,6,0,P|248:144|332:124,1,170,4|10,0:0|0:2,0:0:0:0:
288,280,10538,1,2,0:2:0:0:
288,280,10617,1,0,0:0:0:0:
288,280,10695,2,0,P|252:300|208:296,1,85,2|0,0:2|0:0,0:0:0:0:
68,216,11009,1,10,0:2:0:0:
140,168,11166,6,0,P|152:240|84:300,1,170,4|2,0:0|0:2,0:0:0:0:
76,124,11638,6,0,P|144:149|168:240,1,170,12|10,0:0|0:2,0:0:0:0:
172,320,12109,1,2,0:2:0:0:
200,340,12187,1,0,0:0:0:0:
232,344,12266,1,8,0:0:0:0:
316,284,12423,1,2,0:2:0:0:
356,208,12580,6,0,P|276:204|228:272,1,170,4|10,0:0|0:2,0:0:0:0:
216,140,13051,1,2,0:2:0:0:
216,140,13130,1,0,0:0:0:0:
216,140,13208,2,0,L|220:56,1,85,2|0,0:2|0:0,0:0:0:0:
160,208,13522,1,10,0:2:0:0:
92,156,13679,6,0,P|76:204|152:292,1,170,4|2,0:0|0:2,0:0:0:0:
160,208,14151,2,0,P|88:232|64:324,1,170,12|2,0:0|0:2,0:0:0:0:
143,290,14622,2,0,L|12:176,1,170,4|2,0:0|0:2,0:0:0:0:
148,16,15093,6,0,P|80:40|72:132,1,170,4|10,0:0|0:2,0:0:0:0:
160,120,15564,1,2,0:2:0:0:
152,108,15643,1,0,0:0:0:0:
144,96,15721,1,2,0:2:0:0:
136,196,15878,2,0,L|220:196,1,85,0|10,0:0|0:2,0:0:0:0:
264,272,16193,6,0,P|320:236|412:280,1,170,4|2,0:0|0:2,0:0:0:0:
240,344,16664,6,0,P|248:277|332:228,1,170,12|10,0:0|0:2,0:0:0:0:
328,312,17135,1,2,0:2:0:0:
328,312,17213,1,0,0:0:0:0:
328,312,17292,1,8,0:0:0:0:
444,348,17449,1,2,2:0:0:0:
456,264,17606,6,0,L|476:80,1,170,4|10,0:0|0:2,0:0:0:0:
380,208,18077,1,2,0:2:0:0:
316,152,18234,2,0,L|326:60,2,85,2|0|10,0:2|0:0|0:2,0:0:0:0:
248,200,18706,6,0,P|184:156|100:196,1,170,4|2,0:0|0:2,0:0:0:0:
28,228,19177,2,4,P|92:272|170:239,1,170,12|2,0:0|0:2,0:0:0:0:
172,156,19648,2,0,L|0:144,1,170,4|2,0:0|0:2,0:0:0:0:
120,72,20119,5,4,0:2:0:0:
204,64,20276,2,0,P|241:50|272:17,1,85,0|10,2:0|0:2,0:0:0:0:
272,128,20590,1,2,0:2:0:0:
272,140,20669,1,0,0:0:0:0:
272,152,20747,1,2,0:2:0:0:
316,228,20905,1,0,0:0:0:0:
360,92,21062,1,10,0:2:0:0:
396,240,21219,6,0,P|368:292|264:292,1,170,4|2,0:0|0:2,0:0:0:0:
79,225,21690,2,0,P|160:244|184:320,1,170,12|2,0:0|0:2,0:0:0:0:
100,308,22161,1,2,0:2:0:0:
80,224,22318,1,8,0:0:0:0:
152,72,22475,1,2,2:0:0:0:
124,152,22632,6,0,P|200:136|228:40,1,170,4|10,0:0|0:2,0:0:0:0:
368,64,23104,1,2,0:2:0:0:
360,76,23182,1,0,0:0:0:0:
352,88,23261,1,2,0:2:0:0:
296,152,23418,1,0,0:0:0:0:
440,108,23575,1,10,0:2:0:0:
352,208,23732,6,0,P|312:232|220:160,1,170,4|2,0:0|0:2,0:0:0:0:
228,88,24203,2,0,P|220:172|144:204,1,170,12|2,0:0|0:2,0:0:0:0:
64,192,24674,2,0,P|148:204|180:280,1,170,4|2,0:0|0:2,0:0:0:0:
96,268,25145,5,12,0:0:0:0:
120,348,25302,1,2,0:2:0:0:
120,348,25381,1,0,0:0:0:0:
120,348,25460,1,8,0:0:0:0:
204,368,25617,1,2,0:2:0:0:
280,332,25774,1,8,0:0:0:0:
280,248,25931,1,2,0:2:0:0:
228,180,26088,1,8,0:0:0:0:
144,196,26245,6,0,L|148:104,1,85,6|8,0:2|0:0,0:0:0:0:
188,272,26559,1,2,0:2:0:0:
132,184,26716,2,0,L|136:92,1,85,12|2,0:0|0:2,0:0:0:0:
176,260,27030,1,8,0:0:0:0:
232,104,27187,1,2,0:2:0:0:
272,220,27344,1,8,0:0:0:0:
424,216,27501,1,2,0:2:0:0:
404,132,27658,6,0,L|432:96,3,42.5,12|0|2|0,0:0|0:0|0:2|0:0,0:0:0:0:
400,84,27973,2,0,L|408:32,3,42.5,8|0|2|0,0:0|0:0|0:2|0:0,0:0:0:0:
368,52,28287,5,8,0:0:0:0:
348,79,28365,1,0,0:0:0:0:
321,99,28444,1,2,0:2:0:0:
290,111,28522,1,0,0:0:0:0:
255,111,28601,1,8,0:0:0:0:
223,101,28679,1,0,0:0:0:0:
194,83,28758,1,6,0:2:0:0:
173,53,28836,1,0,0:0:0:0:
164,16,28915,1,8,0:0:0:0:
232,188,29543,6,0,P|316:216|328:308,1,178.499994552612
292,360,30172,6,0,P|264:328|260:284,1,85,4|0,0:0|0:0,0:0:0:0:
368,360,30486,1,8,0:0:0:0:
196,360,30643,1,0,0:0:0:0:
184,359,30721,1,0,0:0:0:0:
172,358,30800,1,0,0:0:0:0:
259,287,30957,1,0,0:0:0:0:
192,232,31114,2,0,L|104:216,1,85,8|0,0:0|0:0,0:0:0:0:
68,292,31428,5,0,0:0:0:0:
16,160,31585,2,0,L|4:116,2,42.5,0|0|8,0:0|0:0|0:0,0:0:0:0:
0,248,31899,1,0,0:0:0:0:
96,128,32056,2,0,P|132:100|180:80,1,85
336,144,32371,2,0,P|292:152|244:144,1,85,8|0,0:0|0:0,0:0:0:0:
380,76,32685,5,0,0:0:0:0:
412,156,32842,1,0,0:0:0:0:
364,224,32999,1,8,0:0:0:0:
280,224,33156,2,0,P|228:260|236:364,1,170
296,304,33627,1,8,0:0:0:0:
144,352,33784,1,0,0:0:0:0:
308,312,33941,6,0,L|396:284,1,85
152,340,34255,2,0,L|71:365,1,85,8|0,0:0|0:0,0:0:0:0:
284,296,34569,2,0,L|372:268,1,85
160,328,34884,2,0,L|79:353,1,85,8|0,0:0|0:0,0:0:0:0:
208,256,35198,5,0,0:0:0:0:
136,120,35355,1,0,0:0:0:0:
136,120,35433,1,0,0:0:0:0:
136,120,35512,2,0,L|140:208,1,85,8|0,0:0|0:0,0:0:0:0:
208,96,35826,2,0,P|180:56|140:44,2,85,0|0|8,0:0|0:0|0:0,0:0:0:0:
236,176,36297,1,0,0:0:0:0:
208,256,36454,6,0,B|252:272|296:240|296:240|296:284|332:312,1,170,0|8,0:0|0:0,0:0:0:0:
380,240,36925,1,0,0:0:0:0:
380,240,37004,1,0,0:0:0:0:
380,240,37083,1,0,0:0:0:0:
248,344,37240,2,0,P|199:343|157:324,1,85,0|8,0:0|0:0,0:0:0:0:
120,260,37554,1,0,0:0:0:0:
132,176,37711,6,0,P|140:112|100:64,1,127.5,4|0,0:0|0:0,0:0:0:0:
32,44,38025,2,0,P|32:88|56:124,1,85,8|4,0:0|0:0,0:0:0:0:
316,84,38496,1,0,0:0:0:0:
316,84,38575,1,0,0:0:0:0:
316,84,38653,2,0,L|348:216,1,127.5,4|0,0:0|0:0,0:0:0:0:
280,240,38967,2,0,L|259:157,1,85,8|4,0:0|0:0,0:0:0:0:
228,324,39439,5,0,0:0:0:0:
228,324,39517,1,0,0:0:0:0:
228,324,39596,2,0,L|320:340,1,85,4|0,0:0|0:0,0:0:0:0:
184,232,39910,2,0,P|144:220|100:224,1,85,12|0,0:0|0:0,0:0:0:0:
20,244,40224,5,4,0:0:0:0:
28,252,40538,6,0,L|36:168,1,85,12|0,0:0|0:0,0:0:0:0:
36,167,40774,1,0,0:0:0:0:
36,167,40852,1,0,0:0:0:0:
142,52,41009,2,0,P|138:93|112:128,1,85,0|8,0:0|0:0,0:0:0:0:
60,60,41323,1,0,0:0:0:0:
228,48,41480,5,2,0:2:0:0:
336,116,41638,2,0,L|356:168,2,42.5,2|0|10,0:2|0:0|0:2,0:0:0:0:
276,176,41952,1,2,0:2:0:0:
272,188,42030,1,0,0:0:0:0:
268,200,42109,1,0,0:0:0:0:
340,40,42266,2,0,P|380:52|408:92,1,85,2|8,0:2|0:0,0:0:0:0:
380,228,42580,1,2,0:2:0:0:
380,228,42737,6,0,P|328:264|328:364,1,170,2|8,0:2|0:0,0:0:0:0:
120,356,43208,2,0,P|188:352|236:268,1,170,2|0,0:2|0:0,0:0:0:0:
152,276,43679,1,10,0:2:0:0:
152,276,43758,1,0,0:0:0:0:
152,276,43836,1,2,0:2:0:0:
68,284,43994,2,0,P|40:316|32:356,1,85,0|0,0:0|0:0,0:0:0:0:
24,216,44308,2,0,P|64:204|105:211,1,85,8|2,0:0|0:2,0:0:0:0:
244,136,44622,5,2,0:2:0:0:
192,204,44779,1,2,0:2:0:0:
368,72,44936,1,10,0:2:0:0:
344,240,45093,1,2,0:2:0:0:
452,68,45250,6,0,L|436:188,1,85,12|0,0:0|0:0,0:0:0:0:
428,236,45564,1,12,0:0:0:0:
436,244,46035,6,0,P|352:236|304:300,1,170,4|0,0:0|0:0,0:0:0:0:
388,312,46507,1,4,0:0:0:0:
236,348,46664,1,0,0:0:0:0:
400,324,46821,1,8,0:0:0:0:
220,336,46978,2,0,L|184:304,2,42.5,0|0|0,0:0|0:0|0:0,0:0:0:0:
100,240,47292,2,0,L|108:332,1,85,0|12,0:0|0:0,0:0:0:0:
36,184,47606,1,0,0:0:0:0:
116,156,47763,6,0,L|200:128,1,85,4|0,0:0|0:0,0:0:0:0:
336,84,48077,1,8,0:0:0:0:
292,156,48234,1,0,0:0:0:0:
304,164,48313,1,0,0:0:0:0:
316,172,48391,1,0,0:0:0:0:
252,80,48549,1,0,0:0:0:0:
264,232,48706,2,0,L|272:320,1,85,12|0,0:0|0:0,0:0:0:0:
271,316,49020,5,4,0:0:0:0:
436,356,49334,1,2,0:0:0:0:
268,336,49648,2,0,P|224:332|180:340,1,85,2|0,0:0|0:0,0:0:0:0:
101,231,49962,2,0,P|136:252|180:256,1,85,2|0,0:0|0:0,0:0:0:0:
160,172,50276,6,0,P|184:128|232:100,1,101.999996887207,4|2,0:0|0:0,0:0:0:0:
312,108,50747,2,0,P|344:152|404:168,1,101.999996887207,0|0,0:0|0:0,0:0:0:0:
400,84,51219,1,2,0:0:0:0:
440,248,51533,1,0,0:0:0:0:
260,308,51847,2,0,L|357:276,2,101.999996887207,2|0|2,0:0|0:0|0:0,0:0:0:0:
96,276,52789,5,2,0:0:0:0:
176,256,52946,1,2,0:0:0:0:
196,172,53104,1,0,0:0:0:0:
156,96,53261,2,0,P|208:88|256:108,1,101.999996887207,2|0,0:0|0:0,0:0:0:0:
312,216,53732,2,0,P|291:206|271:186,1,50.9999984436036,2|0,0:0|0:0,0:0:0:0:
340,140,54046,5,2,0:0:0:0:
280,296,54360,1,2,0:0:0:0:
424,144,54674,1,2,0:0:0:0:
364,300,54988,1,2,0:0:0:0:
280,296,55145,1,0,0:0:0:0:
240,220,55302,6,0,P|220:172|176:148,1,101.999996887207,2|2,0:0|0:0,0:0:0:0:
178,148,56088,1,2,0:0:0:0:
178,148,56559,2,0,P|100:128|80:56,2,152.999995330811,2|2|2,0:0|0:0|0:0,0:0:0:0:
344,172,57816,6,0,L|320:216,2,50.9999984436036,2|0|2,0:0|0:0|0:0,0:0:0:0:
384,100,58287,1,2,0:0:0:0:
192,264,58758,1,2,0:0:0:0:
440,220,59229,1,2,0:0:0:0:
192,180,59700,6,0,L|136:196,1,50.9999984436036,8|0,0:0|0:0,0:0:0:0:
20,280,60014,1,8,0:0:0:0:
32,256,60093,1,0,0:0:0:0:
44,232,60172,1,8,0:0:0:0:
56,208,60250,1,0,0:0:0:0:
68,184,60329,6,0,L|76:108,1,68,12|0,0:0|2:0,0:0:0:0:
120,264,60643,2,0,L|220:368,1,136,0|8,0:0|0:0,0:0:0:0:
361,346,61114,2,0,P|326:346|296:336,1,68,0|0,2:0|0:0,0:0:0:0:
240,272,61428,1,0,2:0:0:0:
384,268,61585,5,0,0:0:0:0:
272,184,61742,1,0,0:0:0:0:
284,192,61821,1,0,0:0:0:0:
296,200,61899,1,0,0:0:0:0:
280,104,62056,2,0,P|232:112|192:184,1,136
156,260,62528,1,0,2:0:0:0:
36,344,62685,1,0,0:0:0:0:
72,268,62842,6,0,P|80:184|48:132,1,136,0|0,0:0|0:0,0:0:0:0:
0,76,63313,1,0,0:0:0:0:
80,52,63470,2,0,L|152:56,1,68,8|0,0:0|0:0,0:0:0:0:
164,140,63784,1,0,0:0:0:0:
164,140,63863,1,0,0:0:0:0:
164,140,63941,2,0,L|284:224,1,136
232,92,64412,2,0,L|292:134,1,68,0|0,0:0|0:0,0:0:0:0:
360,176,64727,5,8,0:0:0:0:
368,212,64805,1,0,0:0:0:0:
376,248,64884,1,0,0:0:0:0:
384,284,64962,1,0,0:0:0:0:
424,300,65041,5,8,0:0:0:0:
392,316,65119,1,0,0:0:0:0:
360,328,65198,1,0,0:0:0:0:
328,344,65276,1,0,0:0:0:0:
296,356,65355,6,0,L|228:356,1,68,12|0,0:0|0:0,0:0:0:0:
452,224,65669,1,12,0:0:0:0:
296,268,66140,6,0,L|160:268,1,136,4|0,0:0|0:0,0:0:0:0:
92,216,66611,2,0,L|32:264,2,68,12|0|0,0:0|0:0|0:0,0:0:0:0:
256,96,67240,1,12,0:0:0:0:
380,188,67554,1,0,0:0:0:0:
456,224,67711,1,0,0:0:0:0:
488,304,67868,6,0,P|452:348|372:352,1,136,4|0,0:0|0:0,0:0:0:0:
316,296,68339,1,4,0:0:0:0:
256,236,68496,2,0,P|220:232|189:239,2,68,8|0|4,0:0|0:0|0:0,0:0:0:0:
228,316,68967,1,0,2:0:0:0:
228,316,69124,1,12,0:0:0:0:
64,112,69753,6,0,L|92:160,1,50.9999984436036,8|0,0:0|0:0,0:0:0:0:
104,288,70067,1,8,0:0:0:0:
116,272,70145,1,0,0:0:0:0:
128,256,70224,1,8,0:0:0:0:
140,240,70302,1,0,0:0:0:0:
152,224,70381,6,0,P|184:196|224:184,1,85,4|0,0:0|0:0,0:0:0:0:
56,228,70695,1,8,0:0:0:0:
224,264,70852,1,0,0:0:0:0:
236,268,70931,1,0,0:0:0:0:
248,272,71009,1,0,0:0:0:0:
180,332,71166,1,0,0:0:0:0:
320,300,71323,2,0,P|324:256|304:216,1,85,8|0,0:0|0:0,0:0:0:0:
216,152,71638,6,0,P|260:152|300:136,1,85
120,156,71952,2,0,P|96:124|84:76,1,85,8|0,0:0|0:0,0:0:0:0:
84,81,72187,1,0,0:0:0:0:
84,81,72266,1,0,0:0:0:0:
56,228,72423,1,0,0:0:0:0:
164,88,72580,2,0,P|196:60|240:40,1,85,8|0,0:0|0:0,0:0:0:0:
240,128,72894,5,0,0:0:0:0:
324,124,73051,1,0,0:0:0:0:
380,188,73208,1,8,0:0:0:0:
352,268,73365,2,0,P|412:268|460:172,1,170
456,96,73836,1,8,0:0:0:0:
336,40,73994,1,0,0:0:0:0:
240,128,74151,5,0,1:0:0:0:
255,158,74229,1,0,2:0:0:0:
260,191,74308,1,0,1:0:0:0:
254,225,74386,1,0,2:0:0:0:
236,252,74465,1,8,0:0:0:0:
206,234,74543,1,0,2:0:0:0:
173,231,74622,1,0,2:0:0:0:
141,241,74700,1,0,1:0:0:0:
112,260,74779,6,0,L|64:236,3,42.5,0|0|0|0,0:0|0:0|0:0|0:0,0:0:0:0:
44,256,75093,2,0,L|36:204,3,42.5,8|0|0|0,0:0|0:0|0:0|0:0,0:0:0:0:
4,212,75407,6,0,L|40:132,1,85
72,328,75721,1,8,0:0:0:0:
84,332,75800,1,0,0:0:0:0:
96,336,75878,1,0,0:0:0:0:
108,340,75957,1,0,0:0:0:0:
120,344,76035,1,0,0:0:0:0:
296,308,76193,1,0,0:0:0:0:
220,344,76350,2,0,L|188:308,2,42.5,8|0|0,0:0|0:0|0:0,0:0:0:0:
356,356,76664,6,0,P|372:316|360:268,1,85,0|0,0:0|0:0,0:0:0:0:
316,160,76978,1,8,0:0:0:0:
316,160,77056,1,0,0:0:0:0:
316,160,77135,2,0,P|352:184|400:192,1,85
288,240,77449,1,0,0:0:0:0:
384,112,77606,1,8,0:0:0:0:
393,103,77685,1,0,0:0:0:0:
402,94,77763,1,0,0:0:0:0:
411,85,77842,1,0,0:0:0:0:
420,76,77920,6,0,L|336:48,1,85,6|0,0:2|0:0,0:0:0:0:
184,56,78234,1,10,0:2:0:0:
148,132,78391,2,0,P|228:128|264:52,1,170,14|0,0:2|0:0,0:0:0:0:
224,132,78863,2,0,P|216:208|292:256,1,170,6|0,0:2|0:0,0:0:0:0:
364,248,79334,2,0,P|420:208|512:248,1,170,12|0,0:0|0:0,0:0:0:0:
436,288,79805,5,6,0:2:0:0:
292,176,79962,1,0,0:0:0:0:
376,348,80119,1,14,0:2:0:0:
292,344,80276,1,0,0:0:0:0:
244,276,80433,5,4,0:0:0:0:
232,288,80747,6,0,L|204:200,1,85,12|0,0:0|0:0,0:0:0:0:
201,195,80983,1,0,0:0:0:0:
196,183,81062,1,0,0:0:0:0:
100,80,81219,1,0,0:0:0:0:
44,144,81376,2,0,P|82:166|121:163,1,85,8|0,0:0|0:0,0:0:0:0:
180,104,81690,5,2,0:2:0:0:
132,244,81847,2,0,L|116:288,2,42.5,2|0|10,0:2|0:0|0:2,0:0:0:0:
196,112,82161,1,2,0:2:0:0:
208,104,82240,1,0,0:0:0:0:
220,96,82318,1,0,0:0:0:0:
300,72,82475,2,0,P|344:68|384:80,1,85,2|8,0:2|0:0,0:0:0:0:
440,232,82789,1,2,0:2:0:0:
440,232,82946,6,0,P|380:236|336:144,1,170,2|8,0:2|0:0,0:0:0:0:
296,284,83418,2,0,P|256:328|152:316,1,170,2|0,0:2|0:0,0:0:0:0:
216,256,83889,1,10,0:2:0:0:
216,256,83967,1,0,0:0:0:0:
216,256,84046,1,2,0:2:0:0:
244,176,84203,2,0,P|256:136|236:80,1,85
144,60,84517,2,0,P|156:104|188:136,1,85,8|2,0:0|0:2,0:0:0:0:
336,168,84831,6,0,L|380:144,3,42.5,2|0|2|0,0:2|0:0|0:2|0:0,0:0:0:0:
412,160,85145,2,0,L|416:112,3,42.5,10|0|2|0,0:2|0:0|0:2|0:0,0:0:0:0:
456,104,85460,6,0,L|408:28,1,85,12|0,0:0|0:0,0:0:0:0:
380,232,85774,1,12,0:0:0:0:
253,299,86245,6,0,P|290:236|380:232,1,170,4|0,0:0|0:0,0:0:0:0:
336,304,86716,1,4,0:0:0:0:
172,320,86873,1,0,0:0:0:0:
344,320,87030,1,8,0:0:0:0:
180,300,87187,2,0,L|156:256,2,42.5,0|0|0,0:0|0:0|0:0,0:0:0:0:
180,180,87501,1,0,0:0:0:0:
88,240,87658,1,12,0:0:0:0:
85,252,87737,1,0,0:0:0:0:
82,264,87816,1,0,0:0:0:0:
80,156,87973,6,0,L|56:72,1,85,4|0,0:0|0:0,0:0:0:0:
16,208,88287,1,8,0:0:0:0:
148,112,88444,2,0,P|187:104|229:120,1,85,0|0,0:0|0:0,0:0:0:0:
124,32,88758,1,0,0:0:0:0:
180,180,88915,1,12,0:0:0:0:
180,180,88994,1,0,0:0:0:0:
180,180,89072,2,0,L|212:272,1,85,0|4,0:0|0:0,0:0:0:0:
256,192,89308,12,4,90486,0:0:0:0:
160,304,90800,6,0,P|196:304|232:288,1,68,2|0,0:0|0:0,0:0:0:0:
272,220,91114,1,2,0:0:0:0:
304,140,91271,1,2,0:0:0:0:
384,112,91428,1,0,0:0:0:0:
464,136,91585,2,0,L|372:24,1,136,2|0,0:0|0:0,0:0:0:0:
400,192,92056,2,0,L|396:280,1,68,2|0,0:0|0:0,0:0:0:0:
360,336,92371,1,2,0:0:0:0:
276,356,92528,1,0,0:0:0:0:
196,324,92685,1,2,0:0:0:0:
148,160,92999,6,0,L|168:240,1,68,2|0,0:0|0:0,0:0:0:0:
64,152,93313,2,0,L|96:84,1,68,0|2,0:0|0:0,0:0:0:0:
132,16,93627,1,2,0:0:0:0:
184,84,93784,1,2,0:0:0:0:
268,96,93941,1,0,0:0:0:0:
344,60,94098,2,0,B|364:92|348:128|348:128|380:144|388:184,1,136,2|0,0:0|0:0,0:0:0:0:
290,259,94569,2,0,P|296:226|312:196,1,68,2|0,0:0|0:0,0:0:0:0:
372,256,94884,5,4,0:0:0:0:
372,256,95041,1,0,0:0:0:0:
128,164,95512,6,0,P|161:148|184:116,1,68,2|0,0:0|0:0,0:0:0:0:
312,164,95826,2,0,P|278:156|246:164,1,68,2|2,0:0|0:0,0:0:0:0:
212,336,96140,1,2,0:0:0:0:
276,304,96297,1,2,0:0:0:0:
282,229,96454,1,0,0:0:0:0:
160,280,96611,2,0,B|132:312|136:348|136:348|72:308,1,136,2|0,0:0|0:0,0:0:0:0:
276,304,97083,2,0,L|356:304,1,68,2|0,0:0|0:0,0:0:0:0:
428,148,97397,1,2,0:0:0:0:
416,232,97554,1,0,0:0:0:0:
460,304,97711,1,2,0:0:0:0:
348,176,98025,6,0,P|324:152|284:136,1,68,2|0,0:0|0:0,0:0:0:0:
147,156,98339,2,0,P|180:147|208:128,1,68,0|2,0:0|0:0,0:0:0:0:
136,240,98653,1,2,0:0:0:0:
60,280,98810,1,2,0:0:0:0:
44,364,98967,1,0,0:0:0:0:
28,280,99124,2,0,L|12:136,1,136,2|2,0:0|0:0,0:0:0:0:
104,244,99596,2,0,L|96:172,1,68,2|0,0:0|0:0,0:0:0:0:
188,216,99910,5,4,0:0:0:0:
188,216,100067,1,0,0:0:0:0:
408,92,100538,6,0,L|384:140,1,50.9999984436036,0|0,0:0|0:0,0:0:0:0:
364,263,100852,2,0,L|364:212,1,50.9999984436036,2|0,0:0|0:0,0:0:0:0:
312,152,101166,1,0,0:0:0:0:
232,156,101323,1,0,0:0:0:0:
184,92,101480,1,2,0:0:0:0:
216,20,101638,2,0,P|168:48|116:44,1,101.999996887207
72,144,102109,2,0,P|64:112|64:88,1,50.9999984436036,2|0,0:0|0:0,0:0:0:0:
8,184,102423,2,0,P|16:216|16:240,2,50.9999984436036,0|0|2,0:0|0:0|0:0,0:0:0:0:
128,284,103051,6,0,L|160:328,1,50.9999984436036
188,228,103365,2,0,L|188:172,1,50.9999984436036,2|0,0:0|0:0,0:0:0:0:
256,280,103679,1,0,0:0:0:0:
316,236,103836,1,0,0:0:0:0:
364,292,103994,1,2,0:0:0:0:
301,336,104151,2,0,L|316:236,1,101.999996887207
399,165,104622,2,0,L|392:216,1,50.9999984436036,2|0,0:0|0:0,0:0:0:0:
320,156,104936,5,4,0:0:0:0:
320,156,105093,1,0,0:0:0:0:
100,72,105564,6,0,L|116:128,1,50.9999984436036
164,240,105878,2,0,L|184:188,1,50.9999984436036,2|0,0:0|0:0,0:0:0:0:
88,260,106193,1,0,0:0:0:0:
140,316,106350,1,0,0:0:0:0:
220,304,106507,1,2,0:0:0:0:
256,232,106664,2,0,P|296:272|300:324,1,101.999996887207
301,315,107135,2,0,L|344:272,1,50.9999984436036,2|0,0:0|0:0,0:0:0:0:
384,216,107449,1,0,0:0:0:0:
440,80,107606,1,0,0:0:0:0:
368,116,107763,1,2,0:0:0:0:
228,44,108077,6,0,L|284:56,1,50.9999984436036
144,72,108391,2,0,L|112:128,1,50.9999984436036,2|0,0:0|0:0,0:0:0:0:
76,184,108706,1,0,0:0:0:0:
104,260,108863,1,0,0:0:0:0:
52,320,109020,1,2,0:0:0:0:
124,288,109177,2,0,P|168:268|224:268,1,101.999996887207
280,316,109648,2,0,P|256:336|228:340,1,50.9999984436036,2|0,0:0|0:0,0:0:0:0:
292,240,109962,5,4,0:0:0:0:
292,240,110119,1,0,0:0:0:0:
256,192,110590,12,0,116873,0:0:0:0:
