osu file format v9

[General]
AudioFilename: Amy Macdonald - This Is The Life.mp3
AudioLeadIn: 0
PreviewTime: 82303
Countdown: 1
SampleSet: Soft
StackLeniency: 0.7
Mode: 0
LetterboxInBreaks: 1

[Editor]
DistanceSpacing: 1
BeatDivisor: 2
GridSize: 16

[Metadata]
Title:This Is The Life
Artist:Amy MacDonald
Creator:Coyottus
Version:Easy
Source:
Tags:Ylinestra44

[Difficulty]
HPDrainRate:2
CircleSize:3
OverallDifficulty:2
ApproachRate:5
SliderMultiplier:1
SliderTickRate:2

[Events]
//Background and Video events
0,0,"BG.jpg"
//Break Periods
2,53451,62156
2,103977,112682
//Storyboard Layer 0 (Background)
//Storyboard Layer 1 (Fail)
//Storyboard Layer 2 (Pass)
//Storyboard Layer 3 (Foreground)
//Storyboard Sound Samples
//Background Colour Transformations
3,100,163,162,255

[TimingPoints]
2725,631.578947368421,4,2,0,70,1,0
33040,-100,4,2,0,90,0,1
53251,-100,4,2,0,90,0,0
83567,-100,4,2,0,90,0,1
103777,-100,4,2,0,90,0,0
125882,-133.333333333333,4,2,0,90,0,0
133461,-100,4,2,0,50,0,0
134093,-100,4,2,0,90,0,1
166619,-100,4,2,0,90,0,0

[Colours]
Combo1 : 226,29,79
Combo2 : 200,169,45
Combo3 : 73,128,171
Combo4 : 106,21,77

[HitObjects]
256,48,2725,2,0,B|256:160,1,100,2|0
256,224,3988,1,0
256,224,4619,2,0,B|368:224,1,100,2|0
320,144,5882,2,0,B|432:144,2,100,0|2|0
240,144,7777,1,2
160,144,8409,6,0,B|160:256,1,100,0|2
224,288,9672,1,2
304,288,10303,1,4
368,240,10935,2,0,B|368:128,2,100
256,96,12830,5,8
160,64,13461,1,0
96,128,14093,1,2
192,176,14725,1,6
176,304,15356,5,8
272,336,15987,1,0
336,256,16619,1,2
240,224,17251,1,6
219,126,17882,6,2,B|155:67|255:-36|359:63|284:138,1,250
368,320,20409,6,2,B|288:336|269:300|269:300|160:336|112:224,1,300
112,144,22935,5,8
192,112,23567,1,0
272,80,24198,1,2
359,90,24830,1,10
432,160,25461,6,2,B|385:268|276:232|276:232|257:268|177:252,1,300
256,144,27988,6,2,B|48:144,1,200
80,224,29882,2,0,B|192:224,1,100,0|6
256,224,31146,1,2
256,224,31461,1,2
256,224,31777,1,10
336,96,32409,6,0,B|400:112|400:176,1,100,2|0
304,192,33672,2,0,B|240:208|240:272,1,100,2|0
192,192,34935,5,8
192,288,35567,1,0
288,288,36198,1,0
304,240,36514,1,0
320,192,36830,1,0
400,144,37461,6,0,B|448:192|400:240,2,100,0|0|10
336,80,39356,1,2
256,48,39988,1,2
176,80,40619,1,12
176,96,42514,6,0,B|112:112|112:176,1,100,2|0
176,224,43777,2,0,B|240:240|240:304,1,100,2|0
304,224,45040,5,0
304,128,45672,1,0
256,32,46303,1,0
208,48,46619,1,0
160,64,46935,1,0
128,160,47566,6,2,B|80:208|128:256,2,100
192,96,49461,1,2
272,48,50093,1,2
352,96,50724,1,14
256,192,51672,12,2,53251
256,80,63356,6,0,B|144:80,3,100,2|0|2|0
192,160,65882,2,0,B|304:160,1,100,2|0
368,160,67146,1,2
400,192,67461,1,2
432,224,67777,1,4
352,256,68409,6,0,B|256:320|160:256,2,200,2|2|4
336,160,71567,1,0
256,128,72198,1,2
176,160,72830,1,0
112,112,73461,6,0,B|77:172|125:218,1,100,2|0
176,161,74725,2,0,B|231:189|221:235,1,75,2|0
400,112,75988,6,0,B|435:172|387:218,1,100,2|0
336,161,77252,2,0,B|280:189|290:235,1,75,2|0
256,112,78514,5,8
256,112,79146,1,8
256,192,79777,2,0,B|256:240,4,50,2|0|2|0|12
96,192,82303,5,0
144,256,82935,2,0,B|176:304|240:304,1,100,2|0
368,256,84198,2,0,B|336:304|272:304,1,100,2|0
256,174,85461,6,0,B|256:224,2,50,8|0|8
256,96,86725,1,2
208,80,87040,1,2
160,80,87356,1,8
208,160,87988,6,0,B|264:196|318:148,2,100,2|0|4
256,256,89882,1,2
256,256,90198,1,2
256,256,90514,1,2
256,256,90830,1,0
256,256,91146,1,0
384,96,92409,5,2
304,48,93040,1,2
208,64,93672,1,0
240,96,93988,1,0
272,128,94303,1,0
192,176,94935,2,0,B|128:176,1,50
96,176,95567,5,2
96,272,96198,1,0
192,272,96830,1,2
240,272,97146,1,2
288,272,97461,1,8
272,144,98093,2,0,B|336:160|336:224,1,100
336,212,99356,1,8
256,192,99988,12,2,101567
256,144,102514,6,0,B|256:32,2,100
156,192,113882,6,0,B|268:192,1,100,2|0
356,192,115146,2,0,B|244:192,1,100,2|0
256,112,116409,5,2
256,112,116725,1,0
256,112,117040,1,8
256,272,117672,1,2
256,224,117988,2,0,B|160:224,1,50
256,224,118619,2,0,B|320:224,1,50
384,176,119567,6,0,B|400:144|448:160|480:112,1,100,2|0
400,64,120830,2,0,B|375:37|334:66|290:28,1,100,2|0
256,128,122093,6,0,B|256:240,1,100,0|4
352,272,123356,5,2
352,176,123988,1,0
352,80,124619,1,0
256,96,125251,1,0
256,192,125882,6,0,B|192:224|318:257|183:280|269:338,1,149.999995529652,2|0
255,328,127777,1,2
320,272,128409,5,0
368,208,129040,1,0
416,144,129672,1,2
341,140,130303,2,0,B|257:118|233:42,1,149.999995529652,2|4
432,96,133461,6,0,B|432:144|432:208,1,100,2|0
384,192,134409,1,8
336,192,134725,2,0,B|336:256|336:304,1,100,2|0
256,224,135988,5,2
256,176,136303,1,0
256,128,136619,1,8
160,128,137251,1,2
160,176,137566,1,0
160,224,137882,1,8
240,256,138514,6,0,B|304:256|352:256,1,100
384,256,139461,1,0
432,256,139777,2,0,B|464:256|464:256|464:176,1,100
464,96,141040,1,2
368,96,141672,1,12
192,32,143093,6,0,B|224:64|272:64,1,75
256,160,144198,1,8
304,160,144514,1,0
352,160,144830,2,0,B|416:160|464:160,1,100,2|0
448,208,145777,5,8
416,256,146093,2,0,B|384:304|352:256|320:320,2,100,2|0|0
336,192,147988,1,8
288,192,148303,6,0,B|238:192,3,50
144,192,149882,1,12
192,112,150514,5,2
288,112,151146,1,2
384,112,151777,1,6
256,48,152409,6,0,B|192:80,1,50
246,142,153040,2,0,B|297:115,1,50
368,96,153672,5,2
338,191,154303,1,8
144,96,154935,5,2
174,191,155566,1,8
256,192,156198,2,2,B|256:240,2,50,2|0|8
256,112,157146,1,2
256,64,157461,1,2
160,112,158093,1,12
208,192,158725,6,0,B|144:192,1,50,2|0
192,272,159356,2,0,B|256:288,1,50,2|0
304,224,159988,1,4
256,64,160619,2,0,B|111:18|80:176,1,200,2|4
256,64,163777,6,0,B|288:112|224:160|263:222,1,150,2|0
400,288,165277,1,2
80,288,166619,1,4
