osu file format v9

[General]
AudioFilename: Gintama ED2 - Amplified - Mr.Raindrop.mp3
AudioLeadIn: 0
PreviewTime: -1
Countdown: 1
SampleSet: Soft
StackLeniency: 0.7
Mode: 0
LetterboxInBreaks: 1

[Editor]
Bookmarks: 33661,36331,93284,107516
DistanceSpacing: 1.5
BeatDivisor: 3
GridSize: 16

[Metadata]
Title:Mr.Raindrop
Artist:Amplified
Creator:Hyoketsu
Version:Normal
Source:Gintama ED2
Tags:amplified mr.raindrop raindrop gintama

[Difficulty]
HPDrainRate:5
CircleSize:5
OverallDifficulty:5
ApproachRate:5
SliderMultiplier:1.4
SliderTickRate:1

[Events]
//Background and Video events
0,0,"Gintama-Katsura-Elizabeth-WallpaperMay29.jpg"
//Break Periods
//Storyboard Layer 0 (Background)
//Storyboard Layer 1 (Fail)
//Storyboard Layer 2 (Pass)
//Storyboard Layer 3 (Foreground)
//Storyboard Sound Samples
//Background Colour Transformations
3,100,163,162,255

[TimingPoints]
4300,445.00482088556,4,2,0,100,1,0
93300,-100,4,2,0,100,0,1

[Colours]
Combo1 : 255,189,89
Combo2 : 134,253,134
Combo3 : 101,101,252
Combo4 : 252,103,103

[HitObjects]
144,80,4299,5,2
368,80,5190,1,2
368,304,6080,1,2
144,304,6970,1,2
368,304,7860,1,2
368,80,8750,1,2
144,80,9640,1,2
144,304,10530,1,2
80,96,11420,6,0,B|368:96,1,280,6|6
464,80,12755,1,2
464,304,13645,1,2
368,240,14090,2,0,B|80:240,1,280,6|6
16,160,15425,1,2
240,128,16315,1,6
256,240,16760,1,6
480,224,17650,1,6
256,192,18540,5,0
144,192,18985,1,0
96,96,19430,1,0
208,80,19875,1,0
320,96,20320,5,0
256,192,20765,1,0
192,288,21210,1,0
304,304,21655,1,0
416,288,22100,5,4
432,64,22990,1,0
256,192,23880,1,0
64,320,24770,1,4
0,96,25660,6,2,L|160:96,1,140
256,96,26550,1,4
480,96,27440,2,4,L|480:240,1,140,4|4
368,240,28330,1,2
144,240,29220,6,2,L|0:240,1,140,2|2
0,128,30110,1,4
224,128,31000,2,4,L|400:128,1,140
480,128,31890,1,4
256,128,32780,1,4
256,304,33521,5,0
256,304,33670,2,0,B|176:256|128:176|128:80|160:0|240:-48|304:-48|400:0|432:80|432:176|384:256|272:320,1,793.333333333333,0|4
160,336,36785,1,0
64,304,37230,1,0
48,192,37675,1,0
128,112,38120,2,0,B|144:192|176:256|208:288|304:288|336:256|368:192|384:112,1,420,0|4
480,176,39900,1,4
480,288,40345,1,0
368,256,40790,1,0
176,128,41680,5,0
256,208,42125,1,0
352,272,42570,1,0
256,208,43015,1,0
176,128,43460,5,4
256,352,44350,1,0
256,192,45240,12,0,47020
432,336,47910,5,0
336,272,48355,1,0
256,192,48800,5,4
144,192,49245,1,0
96,288,49690,1,0
208,320,50135,1,0
320,288,50580,1,0
256,96,51470,5,0
208,192,51915,1,0
304,192,52360,1,4
256,288,53250,5,0
208,192,53695,1,0
304,192,54140,1,4
112,80,55030,5,0
208,144,55475,1,0
304,208,55920,1,4
112,80,56810,1,4
368,96,57700,5,0
256,96,58145,1,0
144,96,58590,1,0
192,192,59035,1,0
256,272,59480,5,4
320,192,59925,1,0
256,112,60370,1,0
144,288,61260,5,0
368,288,62150,1,0
320,368,63040,6,4,L|160:304,1,140
192,224,63930,2,2,L|352:224,1,140,2|2
336,128,64820,2,4,L|176:96,1,140,4|4
192,0,65710,2,2,L|352:0,1,140,2|2
256,192,66600,12,4,69270
352,16,70160,5,0
496,192,71050,1,0
368,384,71940,1,0
256,384,72385,2,4,C|112:384,1,140
88,272,73275,2,4,C|0:152,1,140
168,0,74610,5,2
368,96,75500,1,2
168,200,76390,1,2
368,304,77280,1,6
240,168,78022,5,0
168,80,78467,1,0
280,80,78912,1,0
392,80,79357,1,0
400,152,79654,2,0,B|496:152,1,93.3333333333333
496,264,80395,2,4,B|392:264,1,93.3333333333333
256,272,81285,5,0
184,256,81582,1,0
72,232,82027,1,0
144,144,82472,2,0,B|464:16,1,326.666666666667
304,296,84400,1,4
208,144,85142,5,0
208,144,85290,1,0
400,8,86180,1,0
176,8,87070,1,0
24,176,87960,1,4
48,288,88405,5,0
112,288,88702,1,0
96,192,89147,1,0
80,80,89592,2,0,B|112:-32|128:-32|160:96|176:112|160:-32|176:-32|208:-32|224:-32|208:112|224:96|256:-32|272:-32|304:96,1,326.666666666667
320,192,91075,1,0
416,256,91520,1,0
480,176,91965,1,0
384,112,92410,1,4
272,80,92855,1,4
192,160,93300,1,4
192,48,93745,5,8
192,128,94042,1,8
272,256,94635,1,8
192,336,95080,1,2
112,256,95525,1,8
160,208,95822,1,8
272,104,96415,1,8
352,24,96861,1,2
256,192,97306,12,4,99531
256,32,100421,5,2
144,48,100866,1,8
72,64,101162,1,8
32,208,101756,1,8
112,288,102201,1,2
208,336,102646,1,8
288,336,102942,1,8
256,192,103536,1,8
256,80,103981,1,4
256,192,104426,12,4,107541
