osu file format v12

[General]
AudioFilename: 07. Cry Of The Black Birds.mp3
AudioLeadIn: 0
PreviewTime: -1
Countdown: 0
SampleSet: Soft
StackLeniency: 0.7
Mode: 3
LetterboxInBreaks: 0
SpecialStyle: 0
WidescreenStoryboard: 1

[Editor]
Bookmarks: 11281,21971,22057,22143,22230,22316,22359,22402,22488,22575,22661,33350,43954,44040,44126,44212,44299,44385,44471,44557,44643,44730,55419,66109,66195,66281,66368,66454,66540,66626,66712,66799,77488,88523,99557,110247,110333,110419,110506,110592,110678,110764,110850,110937,113350,124385,135075,135161,135247,135333,135419,135506,135592,135678,135764,146454,157143,157230,157316,157402,157488,157575,157661,157747,157833,168523,179126,179212,179299,179385,179471,179557,179643,179730,179816,179902,190592,201626,212661,221971,222057,222143,222230,222316,222402,222488,222575,222661
DistanceSpacing: 0.8
BeatDivisor: 4
GridSize: 8

[Metadata]
Title:Cry Of The Black Birds
TitleUnicode:Cry Of The Black Birds
Artist:Amon Amarth
ArtistUnicode:Amon Amarth
Creator:Xcrypt
Version:lvl 99 - SSSHD 4k {WARNING: WILL CAUSE INJURY}
Source:
Tags:melodical viking death metal
BeatmapID:374055
BeatmapSetID:141883

[Difficulty]
HPDrainRate:8
CircleSize:4
OverallDifficulty:8
ApproachRate:5
SliderMultiplier:1.4
SliderTickRate:1

[Events]
//Background and Video events
0,0,"viking-warriors.jpg",0,0
//Break Periods
//Storyboard Layer 0 (Background)
//Storyboard Layer 1 (Fail)
//Storyboard Layer 2 (Pass)
//Storyboard Layer 3 (Foreground)
//Storyboard Sound Samples
//Background Colour Transformations
3,100,163,162,255

[TimingPoints]
247,344.827586206897,4,2,0,30,1,0

[HitObjects]
36,192,247,1,0,0:0:0:0:
475,192,247,1,0,0:0:0:0:
192,192,247,128,0,591:0:0:0:0:
320,192,247,1,0,0:0:0:0:
475,192,419,1,0,0:0:0:0:
36,192,419,1,0,0:0:0:0:
320,192,591,1,0,0:0:0:0:
36,192,592,1,0,0:0:0:0:
475,192,592,1,0,0:0:0:0:
36,192,764,1,0,0:0:0:0:
475,192,764,1,0,0:0:0:0:
182,192,936,1,0,0:0:0:0:
329,192,936,1,0,0:0:0:0:
36,192,937,1,0,0:0:0:0:
475,192,937,1,0,0:0:0:0:
36,192,1109,1,0,0:0:0:0:
475,192,1109,1,0,0:0:0:0:
256,192,1109,1,0,0:0:0:0:
36,192,1281,1,0,0:0:0:0:
475,192,1281,1,0,0:0:0:0:
36,192,1454,1,0,0:0:0:0:
475,192,1454,1,0,0:0:0:0:
36,192,1626,1,0,0:0:0:0:
475,192,1626,1,0,0:0:0:0:
256,192,1626,1,0,0:0:0:0:
36,192,1798,1,0,0:0:0:0:
475,192,1798,1,0,0:0:0:0:
475,192,1971,1,0,0:0:0:0:
36,192,1971,1,0,0:0:0:0:
36,192,2143,1,0,0:0:0:0:
475,192,2143,1,0,0:0:0:0:
182,192,2143,1,0,0:0:0:0:
329,192,2143,1,0,0:0:0:0:
36,192,2316,1,0,0:0:0:0:
475,192,2316,1,0,0:0:0:0:
36,192,2488,1,0,0:0:0:0:
475,192,2488,1,0,0:0:0:0:
475,192,2660,1,0,0:0:0:0:
36,192,2660,1,0,0:0:0:0:
109,192,2747,1,0,0:0:0:0:
402,192,2747,1,0,0:0:0:0:
475,192,2833,1,0,0:0:0:0:
36,192,2833,1,0,0:0:0:0:
109,192,2919,1,0,0:0:0:0:
402,192,2919,1,0,0:0:0:0:
256,192,3005,1,0,0:0:0:0:
36,192,3006,1,0,0:0:0:0:
475,192,3006,1,0,0:0:0:0:
475,192,3178,1,0,0:0:0:0:
36,192,3178,1,0,0:0:0:0:
256,192,3350,1,0,0:0:0:0:
36,192,3351,1,0,0:0:0:0:
475,192,3351,1,0,0:0:0:0:
475,192,3523,1,0,0:0:0:0:
36,192,3523,1,0,0:0:0:0:
182,192,3695,1,0,0:0:0:0:
329,192,3695,1,0,0:0:0:0:
475,192,3696,1,0,0:0:0:0:
36,192,3696,1,0,0:0:0:0:
256,192,3867,1,0,0:0:0:0:
475,192,3868,1,0,0:0:0:0:
36,192,3868,1,0,0:0:0:0:
36,192,4040,1,0,0:0:0:0:
475,192,4040,1,0,0:0:0:0:
36,192,4213,1,0,0:0:0:0:
475,192,4213,1,0,0:0:0:0:
256,192,4384,1,0,0:0:0:0:
36,192,4385,1,0,0:0:0:0:
475,192,4385,1,0,0:0:0:0:
36,192,4557,1,0,0:0:0:0:
475,192,4557,1,0,0:0:0:0:
475,192,4730,1,0,0:0:0:0:
36,192,4730,1,0,0:0:0:0:
36,192,4902,1,0,0:0:0:0:
475,192,4902,1,0,0:0:0:0:
182,192,4902,1,0,0:0:0:0:
329,192,4902,1,0,0:0:0:0:
36,192,5075,1,0,0:0:0:0:
475,192,5075,1,0,0:0:0:0:
36,192,5247,1,0,0:0:0:0:
475,192,5247,1,0,0:0:0:0:
329,192,5419,128,0,5462:0:0:0:0:
182,192,5419,128,0,5462:0:0:0:0:
329,192,5506,128,0,5549:0:0:0:0:
182,192,5506,128,0,5549:0:0:0:0:
182,192,5592,128,0,5635:0:0:0:0:
256,192,5592,128,0,5635:0:0:0:0:
182,192,5678,128,0,5721:0:0:0:0:
329,192,5678,128,0,5721:0:0:0:0:
256,192,5764,1,0,0:0:0:0:
192,192,5764,128,0,6109:0:0:0:0:
36,192,6109,1,0,0:0:0:0:
475,192,6109,1,0,0:0:0:0:
256,192,6109,1,0,0:0:0:0:
475,192,6281,1,0,0:0:0:0:
36,192,6281,1,0,0:0:0:0:
182,192,6453,1,0,0:0:0:0:
329,192,6453,1,0,0:0:0:0:
475,192,6454,1,0,0:0:0:0:
36,192,6454,1,0,0:0:0:0:
475,192,6626,1,0,0:0:0:0:
36,192,6626,1,0,0:0:0:0:
256,192,6626,1,0,0:0:0:0:
36,192,6798,1,0,0:0:0:0:
475,192,6798,1,0,0:0:0:0:
36,192,6971,1,0,0:0:0:0:
475,192,6971,1,0,0:0:0:0:
36,192,7143,1,0,0:0:0:0:
475,192,7143,1,0,0:0:0:0:
256,192,7143,1,0,0:0:0:0:
36,192,7315,1,0,0:0:0:0:
475,192,7315,1,0,0:0:0:0:
475,192,7488,1,0,0:0:0:0:
36,192,7488,1,0,0:0:0:0:
36,192,7660,1,0,0:0:0:0:
475,192,7660,1,0,0:0:0:0:
182,192,7660,1,0,0:0:0:0:
329,192,7660,1,0,0:0:0:0:
36,192,7833,1,0,0:0:0:0:
475,192,7833,1,0,0:0:0:0:
36,192,8005,1,0,0:0:0:0:
475,192,8005,1,0,0:0:0:0:
475,192,8177,1,0,0:0:0:0:
36,192,8177,1,0,0:0:0:0:
109,192,8264,1,0,0:0:0:0:
402,192,8264,1,0,0:0:0:0:
475,192,8350,1,0,0:0:0:0:
36,192,8350,1,0,0:0:0:0:
109,192,8437,1,0,0:0:0:0:
402,192,8437,1,0,0:0:0:0:
256,192,8522,1,0,0:0:0:0:
36,192,8523,1,0,0:0:0:0:
475,192,8523,1,0,0:0:0:0:
475,192,8695,1,0,0:0:0:0:
36,192,8695,1,0,0:0:0:0:
256,192,8867,1,0,0:0:0:0:
36,192,8868,1,0,0:0:0:0:
475,192,8868,1,0,0:0:0:0:
475,192,9040,1,0,0:0:0:0:
36,192,9040,1,0,0:0:0:0:
182,192,9212,1,0,0:0:0:0:
329,192,9212,1,0,0:0:0:0:
475,192,9213,1,0,0:0:0:0:
36,192,9213,1,0,0:0:0:0:
256,192,9384,1,0,0:0:0:0:
475,192,9385,1,0,0:0:0:0:
36,192,9385,1,0,0:0:0:0:
36,192,9557,1,0,0:0:0:0:
475,192,9557,1,0,0:0:0:0:
36,192,9730,1,0,0:0:0:0:
475,192,9730,1,0,0:0:0:0:
182,192,9902,1,0,0:0:0:0:
256,192,9902,1,0,0:0:0:0:
192,192,9988,1,0,0:0:0:0:
320,192,9988,1,0,0:0:0:0:
182,192,10074,1,0,0:0:0:0:
329,192,10074,1,0,0:0:0:0:
192,192,10160,1,0,0:0:0:0:
320,192,10160,1,0,0:0:0:0:
182,192,10247,1,0,0:0:0:0:
329,192,10247,1,0,0:0:0:0:
320,192,10333,1,0,0:0:0:0:
192,192,10333,1,0,0:0:0:0:
64,192,10419,1,0,0:0:0:0:
448,192,10419,1,0,0:0:0:0:
109,192,10505,1,0,0:0:0:0:
402,192,10505,1,0,0:0:0:0:
475,192,10591,1,0,0:0:0:0:
36,192,10591,1,0,0:0:0:0:
402,192,10678,1,0,0:0:0:0:
109,192,10678,1,0,0:0:0:0:
36,192,10764,1,0,0:0:0:0:
475,192,10764,1,0,0:0:0:0:
109,192,10850,1,0,0:0:0:0:
402,192,10850,1,0,0:0:0:0:
182,192,10936,1,0,0:0:0:0:
329,192,10936,1,0,0:0:0:0:
182,192,11022,1,0,0:0:0:0:
329,192,11022,1,0,0:0:0:0:
182,192,11109,1,0,0:0:0:0:
329,192,11109,1,0,0:0:0:0:
329,192,11195,1,0,0:0:0:0:
192,192,11195,1,0,0:0:0:0:
256,192,11281,1,0,0:0:0:0:
192,192,11281,128,0,11540:0:0:0:0:
256,192,11626,1,0,0:0:0:0:
192,192,11626,128,0,11884:0:0:0:0:
475,192,11971,1,0,0:0:0:0:
36,192,11971,1,0,0:0:0:0:
182,192,11971,1,0,0:0:0:0:
329,192,11971,1,0,0:0:0:0:
475,192,12143,1,0,0:0:0:0:
36,192,12143,1,0,0:0:0:0:
256,192,12143,1,0,0:0:0:0:
36,192,12315,1,0,0:0:0:0:
475,192,12315,1,0,0:0:0:0:
36,192,12488,1,0,0:0:0:0:
475,192,12488,1,0,0:0:0:0:
256,192,12660,1,0,0:0:0:0:
36,192,12661,1,0,0:0:0:0:
475,192,12661,1,0,0:0:0:0:
36,192,12833,1,0,0:0:0:0:
475,192,12833,1,0,0:0:0:0:
475,192,13006,1,0,0:0:0:0:
36,192,13006,1,0,0:0:0:0:
36,192,13178,1,0,0:0:0:0:
475,192,13178,1,0,0:0:0:0:
182,192,13178,1,0,0:0:0:0:
329,192,13178,1,0,0:0:0:0:
36,192,13351,1,0,0:0:0:0:
475,192,13351,1,0,0:0:0:0:
36,192,13523,1,0,0:0:0:0:
475,192,13523,1,0,0:0:0:0:
475,192,13695,1,0,0:0:0:0:
36,192,13695,1,0,0:0:0:0:
109,192,13781,1,0,0:0:0:0:
402,192,13781,1,0,0:0:0:0:
475,192,13868,1,0,0:0:0:0:
36,192,13868,1,0,0:0:0:0:
109,192,13954,1,0,0:0:0:0:
402,192,13954,1,0,0:0:0:0:
36,192,14040,1,0,0:0:0:0:
475,192,14040,1,0,0:0:0:0:
256,192,14040,1,0,0:0:0:0:
36,192,14212,1,0,0:0:0:0:
475,192,14212,1,0,0:0:0:0:
256,192,14384,1,0,0:0:0:0:
475,192,14385,1,0,0:0:0:0:
36,192,14385,1,0,0:0:0:0:
36,192,14557,1,0,0:0:0:0:
475,192,14557,1,0,0:0:0:0:
182,192,14729,1,0,0:0:0:0:
329,192,14729,1,0,0:0:0:0:
36,192,14730,1,0,0:0:0:0:
475,192,14730,1,0,0:0:0:0:
36,192,14902,1,0,0:0:0:0:
475,192,14902,1,0,0:0:0:0:
256,192,14902,1,0,0:0:0:0:
475,192,15074,1,0,0:0:0:0:
36,192,15074,1,0,0:0:0:0:
475,192,15247,1,0,0:0:0:0:
36,192,15247,1,0,0:0:0:0:
36,192,15419,1,0,0:0:0:0:
475,192,15419,1,0,0:0:0:0:
256,192,15419,1,0,0:0:0:0:
475,192,15591,1,0,0:0:0:0:
36,192,15591,1,0,0:0:0:0:
36,192,15764,1,0,0:0:0:0:
475,192,15764,1,0,0:0:0:0:
475,192,15936,1,0,0:0:0:0:
36,192,15936,1,0,0:0:0:0:
182,192,15936,1,0,0:0:0:0:
329,192,15936,1,0,0:0:0:0:
475,192,16109,1,0,0:0:0:0:
36,192,16109,1,0,0:0:0:0:
475,192,16281,1,0,0:0:0:0:
36,192,16281,1,0,0:0:0:0:
182,192,16454,128,0,16497:0:0:0:0:
256,192,16454,128,0,16497:0:0:0:0:
182,192,16540,128,0,16583:0:0:0:0:
329,192,16540,128,0,16583:0:0:0:0:
182,192,16626,128,0,16669:0:0:0:0:
256,192,16626,128,0,16669:0:0:0:0:
182,192,16712,128,0,16756:0:0:0:0:
256,192,16712,128,0,16756:0:0:0:0:
256,192,16798,1,0,0:0:0:0:
182,192,16799,128,0,17143:0:0:0:0:
256,192,17143,1,0,0:0:0:0:
475,192,17144,1,0,0:0:0:0:
36,192,17144,1,0,0:0:0:0:
36,192,17316,1,0,0:0:0:0:
475,192,17316,1,0,0:0:0:0:
182,192,17488,1,0,0:0:0:0:
329,192,17488,1,0,0:0:0:0:
36,192,17489,1,0,0:0:0:0:
475,192,17489,1,0,0:0:0:0:
256,192,17660,1,0,0:0:0:0:
36,192,17661,1,0,0:0:0:0:
475,192,17661,1,0,0:0:0:0:
475,192,17833,1,0,0:0:0:0:
36,192,17833,1,0,0:0:0:0:
475,192,18006,1,0,0:0:0:0:
36,192,18006,1,0,0:0:0:0:
36,192,18178,1,0,0:0:0:0:
475,192,18178,1,0,0:0:0:0:
256,192,18178,1,0,0:0:0:0:
475,192,18350,1,0,0:0:0:0:
36,192,18350,1,0,0:0:0:0:
36,192,18523,1,0,0:0:0:0:
475,192,18523,1,0,0:0:0:0:
475,192,18695,1,0,0:0:0:0:
36,192,18695,1,0,0:0:0:0:
182,192,18695,1,0,0:0:0:0:
329,192,18695,1,0,0:0:0:0:
475,192,18868,1,0,0:0:0:0:
36,192,18868,1,0,0:0:0:0:
475,192,19040,1,0,0:0:0:0:
36,192,19040,1,0,0:0:0:0:
36,192,19212,1,0,0:0:0:0:
475,192,19212,1,0,0:0:0:0:
109,192,19299,1,0,0:0:0:0:
402,192,19299,1,0,0:0:0:0:
36,192,19385,1,0,0:0:0:0:
475,192,19385,1,0,0:0:0:0:
109,192,19471,1,0,0:0:0:0:
402,192,19471,1,0,0:0:0:0:
36,192,19557,1,0,0:0:0:0:
475,192,19557,1,0,0:0:0:0:
256,192,19557,1,0,0:0:0:0:
36,192,19729,1,0,0:0:0:0:
475,192,19729,1,0,0:0:0:0:
475,192,19902,1,0,0:0:0:0:
36,192,19902,1,0,0:0:0:0:
256,192,19902,1,0,0:0:0:0:
36,192,20074,1,0,0:0:0:0:
475,192,20074,1,0,0:0:0:0:
36,192,20247,1,0,0:0:0:0:
475,192,20247,1,0,0:0:0:0:
182,192,20247,1,0,0:0:0:0:
329,192,20247,1,0,0:0:0:0:
36,192,20419,1,0,0:0:0:0:
475,192,20419,1,0,0:0:0:0:
256,192,20419,1,0,0:0:0:0:
475,192,20591,1,0,0:0:0:0:
36,192,20591,1,0,0:0:0:0:
475,192,20764,1,0,0:0:0:0:
36,192,20764,1,0,0:0:0:0:
256,192,20936,1,0,0:0:0:0:
182,192,20936,1,0,0:0:0:0:
448,192,20936,128,0,21109:0:0:0:0:
109,192,21022,1,0,0:0:0:0:
320,192,21109,128,0,21281:0:0:0:0:
182,192,21109,1,0,0:0:0:0:
109,192,21195,1,0,0:0:0:0:
448,192,21281,128,0,21453:0:0:0:0:
182,192,21281,1,0,0:0:0:0:
109,192,21367,1,0,0:0:0:0:
182,192,21453,1,0,0:0:0:0:
320,192,21453,128,0,21798:0:0:0:0:
109,192,21540,1,0,0:0:0:0:
182,192,21626,1,0,0:0:0:0:
109,192,21712,1,0,0:0:0:0:
182,192,21798,1,0,0:0:0:0:
448,192,21798,128,0,21971:0:0:0:0:
109,192,21884,1,0,0:0:0:0:
182,192,21971,1,0,0:0:0:0:
320,192,21971,128,0,22143:0:0:0:0:
182,192,22143,1,0,0:0:0:0:
448,192,22143,128,0,22315:0:0:0:0:
192,192,22229,1,0,0:0:0:0:
182,192,22315,1,0,0:0:0:0:
109,192,22315,128,0,22488:0:0:0:0:
182,192,22488,128,0,22660:0:0:0:0:
475,192,22660,128,0,22703:0:0:0:0:
329,192,22661,128,0,23092:0:0:0:0:
109,192,22833,128,0,23005:0:0:0:0:
182,192,23005,128,0,23178:0:0:0:0:
329,192,23178,128,0,23609:0:0:0:0:
402,192,23178,128,0,23221:0:0:0:0:
109,192,23350,128,0,23522:0:0:0:0:
192,192,23522,128,0,23695:0:0:0:0:
402,192,23695,128,0,24126:0:0:0:0:
329,192,23695,128,0,23738:0:0:0:0:
109,192,23867,128,0,24040:0:0:0:0:
192,192,24040,128,0,24212:0:0:0:0:
329,192,24212,128,0,24557:0:0:0:0:
402,192,24212,128,0,24255:0:0:0:0:
182,192,24686,1,0,0:0:0:0:
402,192,24729,1,0,0:0:0:0:
256,192,24729,1,0,0:0:0:0:
109,192,24729,1,0,0:0:0:0:
109,192,24902,1,0,0:0:0:0:
256,192,24902,1,0,0:0:0:0:
475,192,24902,1,0,0:0:0:0:
109,192,25074,128,0,25247:0:0:0:0:
182,192,25247,128,0,25419:0:0:0:0:
475,192,25419,128,0,25462:0:0:0:0:
329,192,25419,128,0,25850:0:0:0:0:
109,192,25591,128,0,25764:0:0:0:0:
182,192,25764,128,0,25936:0:0:0:0:
402,192,25936,128,0,25979:0:0:0:0:
329,192,25937,128,0,26368:0:0:0:0:
109,192,26109,128,0,26281:0:0:0:0:
182,192,26281,128,0,26453:0:0:0:0:
256,192,26453,128,0,26497:0:0:0:0:
402,192,26454,128,0,26885:0:0:0:0:
109,192,26626,128,0,26798:0:0:0:0:
182,192,26798,128,0,26971:0:0:0:0:
402,192,26971,128,0,27014:0:0:0:0:
329,192,26971,128,0,27316:0:0:0:0:
36,192,27402,1,0,0:0:0:0:
320,192,27402,1,0,0:0:0:0:
182,192,27445,1,0,0:0:0:0:
402,192,27488,1,0,0:0:0:0:
256,192,27488,1,0,0:0:0:0:
109,192,27488,1,0,0:0:0:0:
109,192,27660,1,0,0:0:0:0:
256,192,27660,1,0,0:0:0:0:
475,192,27660,1,0,0:0:0:0:
109,192,27833,128,0,28005:0:0:0:0:
192,192,28005,128,0,28178:0:0:0:0:
402,192,28178,128,0,28609:0:0:0:0:
329,192,28178,128,0,28221:0:0:0:0:
64,192,28350,128,0,28522:0:0:0:0:
182,192,28522,128,0,28695:0:0:0:0:
402,192,28695,128,0,29126:0:0:0:0:
329,192,28695,128,0,28738:0:0:0:0:
109,192,28867,128,0,29040:0:0:0:0:
182,192,29040,128,0,29212:0:0:0:0:
402,192,29212,128,0,29643:0:0:0:0:
256,192,29212,128,0,29255:0:0:0:0:
109,192,29384,128,0,29557:0:0:0:0:
182,192,29557,128,0,29729:0:0:0:0:
329,192,29729,128,0,29772:0:0:0:0:
402,192,29730,128,0,30075:0:0:0:0:
329,192,30247,1,0,0:0:0:0:
182,192,30247,1,0,0:0:0:0:
36,192,30247,1,0,0:0:0:0:
182,192,30419,1,0,0:0:0:0:
256,192,30419,1,0,0:0:0:0:
475,192,30419,1,0,0:0:0:0:
109,192,30591,128,0,30764:0:0:0:0:
182,192,30764,128,0,30936:0:0:0:0:
329,192,30936,128,0,30979:0:0:0:0:
402,192,30937,128,0,31368:0:0:0:0:
109,192,31109,128,0,31281:0:0:0:0:
182,192,31281,128,0,31453:0:0:0:0:
329,192,31453,128,0,31497:0:0:0:0:
402,192,31454,128,0,31799:0:0:0:0:
64,192,31626,128,0,31798:0:0:0:0:
192,192,31798,128,0,31971:0:0:0:0:
64,192,31971,128,0,33264:0:0:0:0:
320,192,31971,128,0,33350:0:0:0:0:
475,192,32143,1,0,0:0:0:0:
192,192,32229,1,0,0:0:0:0:
448,192,32315,1,0,0:0:0:0:
192,192,32402,1,0,0:0:0:0:
475,192,32488,1,0,0:0:0:0:
192,192,32574,1,0,0:0:0:0:
448,192,32660,1,0,0:0:0:0:
192,192,32747,1,0,0:0:0:0:
475,192,32833,1,0,0:0:0:0:
192,192,32919,1,0,0:0:0:0:
448,192,33005,1,0,0:0:0:0:
182,192,33092,1,0,0:0:0:0:
448,192,33178,1,0,0:0:0:0:
192,192,33235,1,0,0:0:0:0:
448,192,33292,1,0,0:0:0:0:
192,192,33350,1,0,0:0:0:0:
64,192,33350,128,0,33522:0:0:0:0:
182,192,33522,128,0,33694:0:0:0:0:
475,192,33694,128,0,33737:0:0:0:0:
329,192,33695,128,0,34126:0:0:0:0:
109,192,33867,128,0,34039:0:0:0:0:
182,192,34039,128,0,34212:0:0:0:0:
402,192,34212,128,0,34255:0:0:0:0:
329,192,34212,128,0,34643:0:0:0:0:
109,192,34384,128,0,34556:0:0:0:0:
182,192,34556,128,0,34729:0:0:0:0:
329,192,34729,128,0,34772:0:0:0:0:
402,192,34729,128,0,35160:0:0:0:0:
109,192,34901,128,0,35074:0:0:0:0:
192,192,35074,128,0,35246:0:0:0:0:
402,192,35246,128,0,35289:0:0:0:0:
329,192,35246,128,0,35591:0:0:0:0:
182,192,35720,1,0,0:0:0:0:
109,192,35763,1,0,0:0:0:0:
256,192,35763,1,0,0:0:0:0:
402,192,35763,1,0,0:0:0:0:
475,192,35936,1,0,0:0:0:0:
256,192,35936,1,0,0:0:0:0:
36,192,35936,1,0,0:0:0:0:
109,192,36108,128,0,36281:0:0:0:0:
182,192,36281,128,0,36453:0:0:0:0:
329,192,36453,128,0,36884:0:0:0:0:
475,192,36453,128,0,36496:0:0:0:0:
109,192,36625,128,0,36798:0:0:0:0:
182,192,36798,128,0,36970:0:0:0:0:
402,192,36970,128,0,37013:0:0:0:0:
329,192,36971,128,0,37402:0:0:0:0:
109,192,37143,128,0,37315:0:0:0:0:
182,192,37315,128,0,37487:0:0:0:0:
329,192,37487,128,0,37531:0:0:0:0:
402,192,37488,128,0,37919:0:0:0:0:
109,192,37660,128,0,37832:0:0:0:0:
182,192,37832,128,0,38005:0:0:0:0:
329,192,38005,128,0,38350:0:0:0:0:
402,192,38005,128,0,38048:0:0:0:0:
320,192,38436,1,0,0:0:0:0:
36,192,38436,1,0,0:0:0:0:
182,192,38479,1,0,0:0:0:0:
109,192,38522,1,0,0:0:0:0:
256,192,38522,1,0,0:0:0:0:
402,192,38522,1,0,0:0:0:0:
402,192,38694,1,0,0:0:0:0:
256,192,38694,1,0,0:0:0:0:
109,192,38694,1,0,0:0:0:0:
64,192,38867,128,0,39040:0:0:0:0:
182,192,39039,128,0,39212:0:0:0:0:
329,192,39212,128,0,39255:0:0:0:0:
402,192,39212,128,0,39643:0:0:0:0:
64,192,39384,128,0,39556:0:0:0:0:
182,192,39556,128,0,39729:0:0:0:0:
329,192,39729,128,0,39772:0:0:0:0:
402,192,39729,128,0,40160:0:0:0:0:
109,192,39901,128,0,40074:0:0:0:0:
182,192,40074,128,0,40246:0:0:0:0:
256,192,40246,128,0,40289:0:0:0:0:
402,192,40246,128,0,40677:0:0:0:0:
109,192,40418,128,0,40591:0:0:0:0:
182,192,40591,128,0,40763:0:0:0:0:
329,192,40763,128,0,40806:0:0:0:0:
402,192,40764,128,0,41109:0:0:0:0:
109,192,41281,1,0,0:0:0:0:
182,192,41281,1,0,0:0:0:0:
256,192,41281,1,0,0:0:0:0:
402,192,41453,1,0,0:0:0:0:
182,192,41453,1,0,0:0:0:0:
256,192,41453,1,0,0:0:0:0:
109,192,41625,128,0,41798:0:0:0:0:
182,192,41798,128,0,41970:0:0:0:0:
329,192,41970,128,0,42013:0:0:0:0:
402,192,41971,128,0,42402:0:0:0:0:
109,192,42143,128,0,42315:0:0:0:0:
182,192,42315,128,0,42487:0:0:0:0:
329,192,42487,128,0,42531:0:0:0:0:
402,192,42488,128,0,42833:0:0:0:0:
64,192,42660,128,0,42832:0:0:0:0:
192,192,42832,128,0,43005:0:0:0:0:
320,192,43005,128,0,44384:0:0:0:0:
64,192,43005,128,0,44384:0:0:0:0:
475,192,43177,1,0,0:0:0:0:
192,192,43263,1,0,0:0:0:0:
448,192,43349,1,0,0:0:0:0:
192,192,43436,1,0,0:0:0:0:
475,192,43522,1,0,0:0:0:0:
192,192,43608,1,0,0:0:0:0:
448,192,43694,1,0,0:0:0:0:
192,192,43781,1,0,0:0:0:0:
475,192,43867,1,0,0:0:0:0:
192,192,43953,1,0,0:0:0:0:
448,192,44039,1,0,0:0:0:0:
182,192,44126,1,0,0:0:0:0:
448,192,44212,1,0,0:0:0:0:
192,192,44298,1,0,0:0:0:0:
448,192,44384,1,0,0:0:0:0:
192,192,44471,1,0,0:0:0:0:
329,192,44557,1,0,0:0:0:0:
182,192,44643,1,0,0:0:0:0:
320,192,44729,1,0,0:0:0:0:
109,192,44730,1,0,0:0:0:0:
475,192,44730,128,0,44773:0:0:0:0:
192,192,44815,1,0,0:0:0:0:
320,192,44902,1,0,0:0:0:0:
192,192,44988,1,0,0:0:0:0:
64,192,45074,1,0,0:0:0:0:
320,192,45074,1,0,0:0:0:0:
448,192,45074,1,0,0:0:0:0:
192,192,45160,1,0,0:0:0:0:
402,192,45247,128,0,45290:0:0:0:0:
64,192,45247,1,0,0:0:0:0:
320,192,45333,1,0,0:0:0:0:
475,192,45419,1,0,0:0:0:0:
192,192,45419,1,0,0:0:0:0:
64,192,45419,1,0,0:0:0:0:
320,192,45505,1,0,0:0:0:0:
448,192,45591,1,0,0:0:0:0:
192,192,45678,1,0,0:0:0:0:
109,192,45764,1,0,0:0:0:0:
448,192,45764,1,0,0:0:0:0:
320,192,45764,128,0,45807:0:0:0:0:
192,192,45850,1,0,0:0:0:0:
320,192,45936,1,0,0:0:0:0:
64,192,46022,1,0,0:0:0:0:
256,192,46109,1,0,0:0:0:0:
192,192,46109,1,0,0:0:0:0:
448,192,46109,1,0,0:0:0:0:
64,192,46195,1,0,0:0:0:0:
402,192,46281,128,0,46325:0:0:0:0:
192,192,46281,1,0,0:0:0:0:
320,192,46367,1,0,0:0:0:0:
64,192,46453,1,0,0:0:0:0:
192,192,46453,1,0,0:0:0:0:
402,192,46454,1,0,0:0:0:0:
320,192,46540,1,0,0:0:0:0:
448,192,46626,1,0,0:0:0:0:
182,192,46712,1,0,0:0:0:0:
475,192,46799,128,0,46842:0:0:0:0:
109,192,46799,1,0,0:0:0:0:
256,192,46799,1,0,0:0:0:0:
192,192,46884,1,0,0:0:0:0:
329,192,46971,128,0,47014:0:0:0:0:
448,192,46971,1,0,0:0:0:0:
192,192,47057,1,0,0:0:0:0:
256,192,47143,1,0,0:0:0:0:
475,192,47143,1,0,0:0:0:0:
64,192,47143,1,0,0:0:0:0:
192,192,47229,1,0,0:0:0:0:
448,192,47315,1,0,0:0:0:0:
320,192,47402,1,0,0:0:0:0:
475,192,47488,128,0,47531:0:0:0:0:
109,192,47488,1,0,0:0:0:0:
192,192,47488,1,0,0:0:0:0:
320,192,47574,1,0,0:0:0:0:
192,192,47660,1,0,0:0:0:0:
64,192,47747,1,0,0:0:0:0:
256,192,47833,1,0,0:0:0:0:
402,192,47833,1,0,0:0:0:0:
192,192,47833,1,0,0:0:0:0:
64,192,47919,1,0,0:0:0:0:
192,192,48005,1,0,0:0:0:0:
402,192,48006,128,0,48049:0:0:0:0:
64,192,48091,1,0,0:0:0:0:
320,192,48178,1,0,0:0:0:0:
192,192,48178,1,0,0:0:0:0:
448,192,48178,1,0,0:0:0:0:
64,192,48264,1,0,0:0:0:0:
329,192,48350,1,0,0:0:0:0:
182,192,48437,1,0,0:0:0:0:
448,192,48522,1,0,0:0:0:0:
320,192,48522,128,0,48565:0:0:0:0:
109,192,48523,1,0,0:0:0:0:
192,192,48609,1,0,0:0:0:0:
448,192,48695,1,0,0:0:0:0:
320,192,48781,1,0,0:0:0:0:
192,192,48867,1,0,0:0:0:0:
64,192,48867,1,0,0:0:0:0:
448,192,48867,1,0,0:0:0:0:
320,192,48953,1,0,0:0:0:0:
402,192,49040,128,0,49083:0:0:0:0:
182,192,49040,1,0,0:0:0:0:
64,192,49126,1,0,0:0:0:0:
192,192,49212,1,0,0:0:0:0:
448,192,49212,1,0,0:0:0:0:
320,192,49212,1,0,0:0:0:0:
64,192,49298,1,0,0:0:0:0:
192,192,49384,1,0,0:0:0:0:
329,192,49471,1,0,0:0:0:0:
109,192,49557,1,0,0:0:0:0:
475,192,49557,128,0,49600:0:0:0:0:
192,192,49557,1,0,0:0:0:0:
192,192,49729,1,0,0:0:0:0:
320,192,49729,128,0,49772:0:0:0:0:
109,192,49730,1,0,0:0:0:0:
182,192,49902,1,0,0:0:0:0:
64,192,49902,1,0,0:0:0:0:
448,192,49902,1,0,0:0:0:0:
320,192,49988,1,0,0:0:0:0:
448,192,50074,1,0,0:0:0:0:
192,192,50160,1,0,0:0:0:0:
256,192,50247,1,0,0:0:0:0:
36,192,50247,1,0,0:0:0:0:
448,192,50247,128,0,50290:0:0:0:0:
192,192,50333,1,0,0:0:0:0:
329,192,50419,1,0,0:0:0:0:
64,192,50505,1,0,0:0:0:0:
448,192,50591,128,0,50634:0:0:0:0:
256,192,50592,1,0,0:0:0:0:
182,192,50592,1,0,0:0:0:0:
64,192,50678,1,0,0:0:0:0:
192,192,50764,1,0,0:0:0:0:
320,192,50850,1,0,0:0:0:0:
192,192,50936,1,0,0:0:0:0:
64,192,50936,1,0,0:0:0:0:
448,192,50936,1,0,0:0:0:0:
320,192,51022,1,0,0:0:0:0:
448,192,51109,1,0,0:0:0:0:
64,192,51195,1,0,0:0:0:0:
192,192,51281,1,0,0:0:0:0:
448,192,51281,1,0,0:0:0:0:
320,192,51281,128,0,51324:0:0:0:0:
64,192,51367,1,0,0:0:0:0:
448,192,51453,1,0,0:0:0:0:
64,192,51540,1,0,0:0:0:0:
256,192,51626,1,0,0:0:0:0:
448,192,51626,1,0,0:0:0:0:
192,192,51626,1,0,0:0:0:0:
64,192,51712,1,0,0:0:0:0:
192,192,51798,1,0,0:0:0:0:
402,192,51799,128,0,51842:0:0:0:0:
320,192,51884,1,0,0:0:0:0:
402,192,51971,1,0,0:0:0:0:
64,192,51971,1,0,0:0:0:0:
192,192,51971,1,0,0:0:0:0:
320,192,52057,1,0,0:0:0:0:
64,192,52143,1,0,0:0:0:0:
192,192,52229,1,0,0:0:0:0:
320,192,52315,1,0,0:0:0:0:
402,192,52316,128,0,52359:0:0:0:0:
109,192,52316,1,0,0:0:0:0:
192,192,52402,1,0,0:0:0:0:
329,192,52488,128,0,52531:0:0:0:0:
64,192,52488,1,0,0:0:0:0:
402,192,52575,1,0,0:0:0:0:
64,192,52660,1,0,0:0:0:0:
256,192,52661,1,0,0:0:0:0:
182,192,52661,1,0,0:0:0:0:
448,192,52747,1,0,0:0:0:0:
182,192,52833,1,0,0:0:0:0:
320,192,52919,1,0,0:0:0:0:
192,192,53005,1,0,0:0:0:0:
402,192,53006,128,0,53049:0:0:0:0:
109,192,53006,1,0,0:0:0:0:
320,192,53091,1,0,0:0:0:0:
64,192,53178,1,0,0:0:0:0:
182,192,53264,1,0,0:0:0:0:
320,192,53350,1,0,0:0:0:0:
64,192,53350,1,0,0:0:0:0:
448,192,53350,1,0,0:0:0:0:
192,192,53436,1,0,0:0:0:0:
320,192,53522,1,0,0:0:0:0:
402,192,53523,128,0,53566:0:0:0:0:
192,192,53609,1,0,0:0:0:0:
64,192,53695,1,0,0:0:0:0:
320,192,53695,1,0,0:0:0:0:
448,192,53695,1,0,0:0:0:0:
192,192,53781,1,0,0:0:0:0:
448,192,53867,1,0,0:0:0:0:
64,192,53953,1,0,0:0:0:0:
256,192,54040,1,0,0:0:0:0:
192,192,54040,1,0,0:0:0:0:
64,192,54040,1,0,0:0:0:0:
448,192,54040,1,0,0:0:0:0:
256,192,54126,1,0,0:0:0:0:
192,192,54126,1,0,0:0:0:0:
64,192,54126,1,0,0:0:0:0:
256,192,54212,1,0,0:0:0:0:
64,192,54212,1,0,0:0:0:0:
192,192,54212,1,0,0:0:0:0:
192,192,54298,1,0,0:0:0:0:
64,192,54298,1,0,0:0:0:0:
256,192,54299,1,0,0:0:0:0:
64,192,54384,1,0,0:0:0:0:
192,192,54384,1,0,0:0:0:0:
256,192,54385,1,0,0:0:0:0:
182,192,54557,1,0,0:0:0:0:
64,192,54557,1,0,0:0:0:0:
448,192,54557,1,0,0:0:0:0:
320,192,54557,1,0,0:0:0:0:
182,192,54643,1,0,0:0:0:0:
448,192,54643,1,0,0:0:0:0:
320,192,54643,1,0,0:0:0:0:
448,192,54729,1,0,0:0:0:0:
320,192,54729,1,0,0:0:0:0:
182,192,54730,1,0,0:0:0:0:
448,192,54815,1,0,0:0:0:0:
320,192,54815,1,0,0:0:0:0:
182,192,54816,1,0,0:0:0:0:
182,192,54902,1,0,0:0:0:0:
448,192,54902,1,0,0:0:0:0:
320,192,54902,1,0,0:0:0:0:
320,192,55074,1,0,0:0:0:0:
448,192,55074,1,0,0:0:0:0:
192,192,55074,1,0,0:0:0:0:
109,192,55075,1,0,0:0:0:0:
320,192,55160,1,0,0:0:0:0:
192,192,55160,1,0,0:0:0:0:
109,192,55161,1,0,0:0:0:0:
109,192,55247,1,0,0:0:0:0:
320,192,55247,1,0,0:0:0:0:
192,192,55247,1,0,0:0:0:0:
64,192,55333,1,0,0:0:0:0:
320,192,55333,1,0,0:0:0:0:
192,192,55333,1,0,0:0:0:0:
64,192,55419,1,0,0:0:0:0:
192,192,55419,1,0,0:0:0:0:
320,192,55419,1,0,0:0:0:0:
448,192,55419,1,0,0:0:0:0:
448,192,55505,1,0,0:0:0:0:
320,192,55591,1,0,0:0:0:0:
192,192,55678,1,0,0:0:0:0:
475,192,55764,128,0,55807:0:0:0:0:
64,192,55764,1,0,0:0:0:0:
320,192,55764,1,0,0:0:0:0:
192,192,55849,1,0,0:0:0:0:
320,192,55936,1,0,0:0:0:0:
192,192,56022,1,0,0:0:0:0:
64,192,56108,1,0,0:0:0:0:
320,192,56108,1,0,0:0:0:0:
448,192,56108,1,0,0:0:0:0:
192,192,56194,1,0,0:0:0:0:
402,192,56281,128,0,56324:0:0:0:0:
64,192,56281,1,0,0:0:0:0:
320,192,56367,1,0,0:0:0:0:
475,192,56453,1,0,0:0:0:0:
192,192,56453,1,0,0:0:0:0:
64,192,56453,1,0,0:0:0:0:
320,192,56539,1,0,0:0:0:0:
448,192,56625,1,0,0:0:0:0:
192,192,56712,1,0,0:0:0:0:
109,192,56798,1,0,0:0:0:0:
448,192,56798,1,0,0:0:0:0:
320,192,56798,128,0,56841:0:0:0:0:
192,192,56884,1,0,0:0:0:0:
320,192,56970,1,0,0:0:0:0:
64,192,57056,1,0,0:0:0:0:
256,192,57143,1,0,0:0:0:0:
192,192,57143,1,0,0:0:0:0:
448,192,57143,1,0,0:0:0:0:
64,192,57229,1,0,0:0:0:0:
402,192,57315,128,0,57359:0:0:0:0:
192,192,57315,1,0,0:0:0:0:
320,192,57401,1,0,0:0:0:0:
64,192,57487,1,0,0:0:0:0:
192,192,57487,1,0,0:0:0:0:
402,192,57488,1,0,0:0:0:0:
320,192,57574,1,0,0:0:0:0:
448,192,57660,1,0,0:0:0:0:
182,192,57746,1,0,0:0:0:0:
475,192,57833,128,0,57876:0:0:0:0:
109,192,57833,1,0,0:0:0:0:
256,192,57833,1,0,0:0:0:0:
192,192,57918,1,0,0:0:0:0:
329,192,58005,128,0,58048:0:0:0:0:
448,192,58005,1,0,0:0:0:0:
192,192,58091,1,0,0:0:0:0:
256,192,58177,1,0,0:0:0:0:
475,192,58177,1,0,0:0:0:0:
64,192,58177,1,0,0:0:0:0:
192,192,58263,1,0,0:0:0:0:
448,192,58349,1,0,0:0:0:0:
320,192,58436,1,0,0:0:0:0:
475,192,58522,128,0,58565:0:0:0:0:
109,192,58522,1,0,0:0:0:0:
192,192,58522,1,0,0:0:0:0:
320,192,58608,1,0,0:0:0:0:
192,192,58694,1,0,0:0:0:0:
64,192,58781,1,0,0:0:0:0:
256,192,58867,1,0,0:0:0:0:
402,192,58867,1,0,0:0:0:0:
192,192,58867,1,0,0:0:0:0:
64,192,58953,1,0,0:0:0:0:
192,192,59039,1,0,0:0:0:0:
402,192,59040,128,0,59083:0:0:0:0:
64,192,59125,1,0,0:0:0:0:
320,192,59212,1,0,0:0:0:0:
192,192,59212,1,0,0:0:0:0:
448,192,59212,1,0,0:0:0:0:
64,192,59298,1,0,0:0:0:0:
329,192,59384,1,0,0:0:0:0:
182,192,59471,1,0,0:0:0:0:
448,192,59556,1,0,0:0:0:0:
320,192,59556,128,0,59599:0:0:0:0:
109,192,59557,1,0,0:0:0:0:
192,192,59643,1,0,0:0:0:0:
448,192,59729,1,0,0:0:0:0:
320,192,59815,1,0,0:0:0:0:
192,192,59901,1,0,0:0:0:0:
64,192,59901,1,0,0:0:0:0:
448,192,59901,1,0,0:0:0:0:
320,192,59987,1,0,0:0:0:0:
402,192,60074,128,0,60117:0:0:0:0:
182,192,60074,1,0,0:0:0:0:
64,192,60160,1,0,0:0:0:0:
192,192,60246,1,0,0:0:0:0:
448,192,60246,1,0,0:0:0:0:
320,192,60246,1,0,0:0:0:0:
64,192,60332,1,0,0:0:0:0:
192,192,60418,1,0,0:0:0:0:
329,192,60505,1,0,0:0:0:0:
109,192,60591,1,0,0:0:0:0:
475,192,60591,128,0,60634:0:0:0:0:
192,192,60591,1,0,0:0:0:0:
192,192,60763,1,0,0:0:0:0:
320,192,60763,128,0,60806:0:0:0:0:
109,192,60764,1,0,0:0:0:0:
182,192,60936,1,0,0:0:0:0:
64,192,60936,1,0,0:0:0:0:
448,192,60936,1,0,0:0:0:0:
320,192,61022,1,0,0:0:0:0:
448,192,61108,1,0,0:0:0:0:
192,192,61194,1,0,0:0:0:0:
256,192,61281,1,0,0:0:0:0:
36,192,61281,1,0,0:0:0:0:
448,192,61281,128,0,61324:0:0:0:0:
192,192,61367,1,0,0:0:0:0:
329,192,61453,1,0,0:0:0:0:
64,192,61539,1,0,0:0:0:0:
448,192,61625,128,0,61668:0:0:0:0:
256,192,61626,1,0,0:0:0:0:
182,192,61626,1,0,0:0:0:0:
64,192,61712,1,0,0:0:0:0:
192,192,61798,1,0,0:0:0:0:
320,192,61884,1,0,0:0:0:0:
192,192,61970,1,0,0:0:0:0:
64,192,61970,1,0,0:0:0:0:
448,192,61970,1,0,0:0:0:0:
320,192,62056,1,0,0:0:0:0:
448,192,62143,1,0,0:0:0:0:
64,192,62229,1,0,0:0:0:0:
192,192,62315,1,0,0:0:0:0:
448,192,62315,1,0,0:0:0:0:
320,192,62315,128,0,62358:0:0:0:0:
64,192,62401,1,0,0:0:0:0:
448,192,62487,1,0,0:0:0:0:
64,192,62574,1,0,0:0:0:0:
256,192,62660,1,0,0:0:0:0:
448,192,62660,1,0,0:0:0:0:
192,192,62660,1,0,0:0:0:0:
64,192,62746,1,0,0:0:0:0:
192,192,62832,1,0,0:0:0:0:
402,192,62833,128,0,62876:0:0:0:0:
320,192,62918,1,0,0:0:0:0:
402,192,63005,1,0,0:0:0:0:
64,192,63005,1,0,0:0:0:0:
192,192,63005,1,0,0:0:0:0:
320,192,63091,1,0,0:0:0:0:
64,192,63177,1,0,0:0:0:0:
192,192,63263,1,0,0:0:0:0:
320,192,63349,1,0,0:0:0:0:
402,192,63350,128,0,63393:0:0:0:0:
109,192,63350,1,0,0:0:0:0:
192,192,63436,1,0,0:0:0:0:
329,192,63522,128,0,63565:0:0:0:0:
64,192,63522,1,0,0:0:0:0:
402,192,63609,1,0,0:0:0:0:
64,192,63694,1,0,0:0:0:0:
256,192,63695,1,0,0:0:0:0:
182,192,63695,1,0,0:0:0:0:
448,192,63781,1,0,0:0:0:0:
182,192,63867,1,0,0:0:0:0:
320,192,63953,1,0,0:0:0:0:
192,192,64039,1,0,0:0:0:0:
402,192,64040,128,0,64083:0:0:0:0:
109,192,64040,1,0,0:0:0:0:
320,192,64125,1,0,0:0:0:0:
64,192,64212,1,0,0:0:0:0:
182,192,64298,1,0,0:0:0:0:
320,192,64384,1,0,0:0:0:0:
64,192,64384,1,0,0:0:0:0:
448,192,64384,1,0,0:0:0:0:
192,192,64470,1,0,0:0:0:0:
320,192,64556,1,0,0:0:0:0:
402,192,64557,128,0,64600:0:0:0:0:
192,192,64643,1,0,0:0:0:0:
64,192,64729,1,0,0:0:0:0:
320,192,64729,1,0,0:0:0:0:
448,192,64729,1,0,0:0:0:0:
192,192,64815,1,0,0:0:0:0:
448,192,64901,1,0,0:0:0:0:
64,192,64987,1,0,0:0:0:0:
256,192,65074,1,0,0:0:0:0:
402,192,65074,1,0,0:0:0:0:
192,192,65074,1,0,0:0:0:0:
64,192,65074,1,0,0:0:0:0:
256,192,65160,1,0,0:0:0:0:
192,192,65160,1,0,0:0:0:0:
64,192,65160,1,0,0:0:0:0:
256,192,65246,1,0,0:0:0:0:
192,192,65246,1,0,0:0:0:0:
64,192,65247,1,0,0:0:0:0:
192,192,65332,1,0,0:0:0:0:
256,192,65333,1,0,0:0:0:0:
64,192,65333,1,0,0:0:0:0:
192,192,65418,1,0,0:0:0:0:
256,192,65419,1,0,0:0:0:0:
64,192,65419,1,0,0:0:0:0:
182,192,65591,1,0,0:0:0:0:
256,192,65591,1,0,0:0:0:0:
64,192,65591,1,0,0:0:0:0:
448,192,65591,1,0,0:0:0:0:
182,192,65677,1,0,0:0:0:0:
256,192,65677,1,0,0:0:0:0:
448,192,65677,1,0,0:0:0:0:
448,192,65763,1,0,0:0:0:0:
182,192,65764,1,0,0:0:0:0:
256,192,65764,1,0,0:0:0:0:
448,192,65849,1,0,0:0:0:0:
182,192,65850,1,0,0:0:0:0:
256,192,65850,1,0,0:0:0:0:
182,192,65936,1,0,0:0:0:0:
256,192,65936,1,0,0:0:0:0:
448,192,65936,1,0,0:0:0:0:
320,192,66108,1,0,0:0:0:0:
448,192,66108,1,0,0:0:0:0:
109,192,66109,1,0,0:0:0:0:
182,192,66109,1,0,0:0:0:0:
320,192,66194,1,0,0:0:0:0:
109,192,66195,1,0,0:0:0:0:
182,192,66195,1,0,0:0:0:0:
109,192,66281,1,0,0:0:0:0:
182,192,66281,1,0,0:0:0:0:
320,192,66281,1,0,0:0:0:0:
64,192,66367,1,0,0:0:0:0:
192,192,66367,1,0,0:0:0:0:
320,192,66367,1,0,0:0:0:0:
64,192,66453,1,0,0:0:0:0:
192,192,66453,1,0,0:0:0:0:
320,192,66453,1,0,0:0:0:0:
448,192,66453,1,0,0:0:0:0:
64,192,66540,1,0,0:0:0:0:
192,192,66540,1,0,0:0:0:0:
64,192,66626,1,0,0:0:0:0:
192,192,66626,1,0,0:0:0:0:
64,192,66712,1,0,0:0:0:0:
192,192,66712,1,0,0:0:0:0:
320,192,66798,1,0,0:0:0:0:
448,192,66798,1,0,0:0:0:0:
64,192,66798,1,0,0:0:0:0:
192,192,66798,1,0,0:0:0:0:
320,192,66884,1,0,0:0:0:0:
448,192,66884,1,0,0:0:0:0:
448,192,66971,1,0,0:0:0:0:
320,192,66971,1,0,0:0:0:0:
320,192,67057,1,0,0:0:0:0:
448,192,67057,1,0,0:0:0:0:
320,192,67143,1,0,0:0:0:0:
448,192,67143,1,0,0:0:0:0:
192,192,67143,1,0,0:0:0:0:
64,192,67143,1,0,0:0:0:0:
320,192,67229,1,0,0:0:0:0:
448,192,67229,1,0,0:0:0:0:
192,192,67315,1,0,0:0:0:0:
320,192,67315,1,0,0:0:0:0:
192,192,67402,1,0,0:0:0:0:
320,192,67402,1,0,0:0:0:0:
192,192,67488,1,0,0:0:0:0:
320,192,67488,1,0,0:0:0:0:
64,192,67488,1,0,0:0:0:0:
448,192,67488,1,0,0:0:0:0:
192,192,67574,1,0,0:0:0:0:
320,192,67574,1,0,0:0:0:0:
192,192,67660,1,0,0:0:0:0:
320,192,67660,1,0,0:0:0:0:
192,192,67747,1,0,0:0:0:0:
320,192,67747,1,0,0:0:0:0:
192,192,67833,1,0,0:0:0:0:
64,192,67833,1,0,0:0:0:0:
320,192,67833,1,0,0:0:0:0:
448,192,67833,1,0,0:0:0:0:
192,192,67919,1,0,0:0:0:0:
64,192,67919,1,0,0:0:0:0:
192,192,68005,1,0,0:0:0:0:
64,192,68005,1,0,0:0:0:0:
64,192,68091,1,0,0:0:0:0:
192,192,68091,1,0,0:0:0:0:
64,192,68178,1,0,0:0:0:0:
192,192,68178,1,0,0:0:0:0:
320,192,68178,1,0,0:0:0:0:
448,192,68178,1,0,0:0:0:0:
64,192,68264,1,0,0:0:0:0:
192,192,68264,1,0,0:0:0:0:
192,192,68350,1,0,0:0:0:0:
320,192,68350,1,0,0:0:0:0:
192,192,68436,1,0,0:0:0:0:
320,192,68436,1,0,0:0:0:0:
192,192,68522,1,0,0:0:0:0:
320,192,68522,1,0,0:0:0:0:
64,192,68522,1,0,0:0:0:0:
448,192,68522,1,0,0:0:0:0:
192,192,68609,1,0,0:0:0:0:
320,192,68609,1,0,0:0:0:0:
192,192,68695,1,0,0:0:0:0:
320,192,68695,1,0,0:0:0:0:
192,192,68781,1,0,0:0:0:0:
320,192,68781,1,0,0:0:0:0:
320,192,68867,1,0,0:0:0:0:
448,192,68867,1,0,0:0:0:0:
192,192,68867,1,0,0:0:0:0:
64,192,68867,1,0,0:0:0:0:
320,192,68953,1,0,0:0:0:0:
448,192,68953,1,0,0:0:0:0:
320,192,69040,1,0,0:0:0:0:
448,192,69040,1,0,0:0:0:0:
320,192,69126,1,0,0:0:0:0:
448,192,69126,1,0,0:0:0:0:
64,192,69212,1,0,0:0:0:0:
192,192,69212,1,0,0:0:0:0:
320,192,69212,1,0,0:0:0:0:
448,192,69212,1,0,0:0:0:0:
64,192,69298,1,0,0:0:0:0:
192,192,69298,1,0,0:0:0:0:
64,192,69384,1,0,0:0:0:0:
192,192,69384,1,0,0:0:0:0:
64,192,69471,1,0,0:0:0:0:
192,192,69471,1,0,0:0:0:0:
192,192,69557,1,0,0:0:0:0:
448,192,69557,1,0,0:0:0:0:
320,192,69557,1,0,0:0:0:0:
64,192,69557,1,0,0:0:0:0:
192,192,69643,1,0,0:0:0:0:
448,192,69643,1,0,0:0:0:0:
192,192,69729,1,0,0:0:0:0:
448,192,69729,1,0,0:0:0:0:
192,192,69815,1,0,0:0:0:0:
448,192,69815,1,0,0:0:0:0:
192,192,69902,1,0,0:0:0:0:
448,192,69902,1,0,0:0:0:0:
64,192,69902,1,0,0:0:0:0:
320,192,69902,1,0,0:0:0:0:
192,192,69988,1,0,0:0:0:0:
448,192,69988,1,0,0:0:0:0:
64,192,70074,1,0,0:0:0:0:
192,192,70074,1,0,0:0:0:0:
64,192,70160,1,0,0:0:0:0:
192,192,70160,1,0,0:0:0:0:
64,192,70247,1,0,0:0:0:0:
192,192,70247,1,0,0:0:0:0:
320,192,70247,1,0,0:0:0:0:
448,192,70247,1,0,0:0:0:0:
64,192,70333,1,0,0:0:0:0:
192,192,70333,1,0,0:0:0:0:
64,192,70419,1,0,0:0:0:0:
192,192,70419,1,0,0:0:0:0:
64,192,70505,1,0,0:0:0:0:
192,192,70505,1,0,0:0:0:0:
448,192,70591,1,0,0:0:0:0:
320,192,70591,1,0,0:0:0:0:
192,192,70591,1,0,0:0:0:0:
64,192,70591,1,0,0:0:0:0:
448,192,70678,1,0,0:0:0:0:
320,192,70678,1,0,0:0:0:0:
448,192,70764,1,0,0:0:0:0:
320,192,70764,1,0,0:0:0:0:
448,192,70850,1,0,0:0:0:0:
320,192,70850,1,0,0:0:0:0:
448,192,70936,1,0,0:0:0:0:
320,192,70936,1,0,0:0:0:0:
192,192,70936,1,0,0:0:0:0:
64,192,70936,1,0,0:0:0:0:
320,192,71022,1,0,0:0:0:0:
448,192,71022,1,0,0:0:0:0:
192,192,71109,1,0,0:0:0:0:
448,192,71109,1,0,0:0:0:0:
192,192,71195,1,0,0:0:0:0:
448,192,71195,1,0,0:0:0:0:
192,192,71281,1,0,0:0:0:0:
448,192,71281,1,0,0:0:0:0:
64,192,71281,1,0,0:0:0:0:
320,192,71281,1,0,0:0:0:0:
192,192,71367,1,0,0:0:0:0:
448,192,71367,1,0,0:0:0:0:
192,192,71453,1,0,0:0:0:0:
448,192,71453,1,0,0:0:0:0:
192,192,71540,1,0,0:0:0:0:
448,192,71540,1,0,0:0:0:0:
320,192,71626,1,0,0:0:0:0:
64,192,71626,1,0,0:0:0:0:
192,192,71626,1,0,0:0:0:0:
448,192,71626,1,0,0:0:0:0:
64,192,71712,1,0,0:0:0:0:
320,192,71712,1,0,0:0:0:0:
64,192,71798,1,0,0:0:0:0:
320,192,71798,1,0,0:0:0:0:
64,192,71884,1,0,0:0:0:0:
320,192,71884,1,0,0:0:0:0:
64,192,71971,1,0,0:0:0:0:
192,192,71971,1,0,0:0:0:0:
320,192,71971,1,0,0:0:0:0:
448,192,71971,1,0,0:0:0:0:
64,192,72057,1,0,0:0:0:0:
192,192,72057,1,0,0:0:0:0:
192,192,72143,1,0,0:0:0:0:
64,192,72143,1,0,0:0:0:0:
64,192,72229,1,0,0:0:0:0:
192,192,72229,1,0,0:0:0:0:
320,192,72315,1,0,0:0:0:0:
448,192,72315,1,0,0:0:0:0:
64,192,72315,1,0,0:0:0:0:
192,192,72315,1,0,0:0:0:0:
320,192,72402,1,0,0:0:0:0:
448,192,72402,1,0,0:0:0:0:
320,192,72488,1,0,0:0:0:0:
448,192,72488,1,0,0:0:0:0:
320,192,72574,1,0,0:0:0:0:
448,192,72574,1,0,0:0:0:0:
320,192,72660,1,0,0:0:0:0:
448,192,72660,1,0,0:0:0:0:
64,192,72660,1,0,0:0:0:0:
192,192,72660,1,0,0:0:0:0:
320,192,72747,1,0,0:0:0:0:
448,192,72747,1,0,0:0:0:0:
320,192,72833,1,0,0:0:0:0:
192,192,72833,1,0,0:0:0:0:
192,192,72919,1,0,0:0:0:0:
320,192,72919,1,0,0:0:0:0:
192,192,73005,1,0,0:0:0:0:
320,192,73005,1,0,0:0:0:0:
64,192,73005,1,0,0:0:0:0:
448,192,73005,1,0,0:0:0:0:
320,192,73091,1,0,0:0:0:0:
192,192,73091,1,0,0:0:0:0:
320,192,73178,1,0,0:0:0:0:
192,192,73178,1,0,0:0:0:0:
320,192,73264,1,0,0:0:0:0:
192,192,73264,1,0,0:0:0:0:
64,192,73350,1,0,0:0:0:0:
320,192,73350,1,0,0:0:0:0:
448,192,73350,1,0,0:0:0:0:
192,192,73350,1,0,0:0:0:0:
64,192,73436,1,0,0:0:0:0:
320,192,73436,1,0,0:0:0:0:
320,192,73522,1,0,0:0:0:0:
64,192,73522,1,0,0:0:0:0:
64,192,73609,1,0,0:0:0:0:
320,192,73609,1,0,0:0:0:0:
320,192,73695,1,0,0:0:0:0:
64,192,73695,1,0,0:0:0:0:
448,192,73695,1,0,0:0:0:0:
192,192,73695,1,0,0:0:0:0:
64,192,73781,1,0,0:0:0:0:
320,192,73781,1,0,0:0:0:0:
192,192,73867,1,0,0:0:0:0:
320,192,73867,1,0,0:0:0:0:
320,192,73953,1,0,0:0:0:0:
192,192,73953,1,0,0:0:0:0:
192,192,74040,1,0,0:0:0:0:
320,192,74040,1,0,0:0:0:0:
64,192,74040,1,0,0:0:0:0:
448,192,74040,1,0,0:0:0:0:
320,192,74126,1,0,0:0:0:0:
192,192,74126,1,0,0:0:0:0:
192,192,74212,1,0,0:0:0:0:
320,192,74212,1,0,0:0:0:0:
192,192,74298,1,0,0:0:0:0:
320,192,74298,1,0,0:0:0:0:
64,192,74384,1,0,0:0:0:0:
320,192,74384,1,0,0:0:0:0:
192,192,74384,1,0,0:0:0:0:
448,192,74384,1,0,0:0:0:0:
320,192,74470,1,0,0:0:0:0:
64,192,74471,1,0,0:0:0:0:
320,192,74556,1,0,0:0:0:0:
64,192,74557,1,0,0:0:0:0:
320,192,74643,1,0,0:0:0:0:
64,192,74643,1,0,0:0:0:0:
64,192,74729,1,0,0:0:0:0:
192,192,74729,1,0,0:0:0:0:
320,192,74729,1,0,0:0:0:0:
448,192,74729,1,0,0:0:0:0:
64,192,74815,1,0,0:0:0:0:
192,192,74815,1,0,0:0:0:0:
64,192,74902,1,0,0:0:0:0:
192,192,74902,1,0,0:0:0:0:
64,192,74988,1,0,0:0:0:0:
192,192,74988,1,0,0:0:0:0:
320,192,75074,1,0,0:0:0:0:
448,192,75074,1,0,0:0:0:0:
192,192,75074,1,0,0:0:0:0:
64,192,75074,1,0,0:0:0:0:
448,192,75160,1,0,0:0:0:0:
320,192,75160,1,0,0:0:0:0:
320,192,75246,1,0,0:0:0:0:
448,192,75246,1,0,0:0:0:0:
448,192,75333,1,0,0:0:0:0:
320,192,75333,1,0,0:0:0:0:
320,192,75419,1,0,0:0:0:0:
448,192,75419,1,0,0:0:0:0:
64,192,75419,1,0,0:0:0:0:
192,192,75419,1,0,0:0:0:0:
320,192,75505,1,0,0:0:0:0:
448,192,75505,1,0,0:0:0:0:
448,192,75591,1,0,0:0:0:0:
192,192,75591,1,0,0:0:0:0:
448,192,75677,1,0,0:0:0:0:
192,192,75678,1,0,0:0:0:0:
448,192,75763,1,0,0:0:0:0:
192,192,75764,1,0,0:0:0:0:
64,192,75764,1,0,0:0:0:0:
320,192,75764,1,0,0:0:0:0:
192,192,75850,1,0,0:0:0:0:
448,192,75850,1,0,0:0:0:0:
448,192,75936,1,0,0:0:0:0:
192,192,75936,1,0,0:0:0:0:
448,192,76022,1,0,0:0:0:0:
192,192,76022,1,0,0:0:0:0:
64,192,76109,1,0,0:0:0:0:
320,192,76109,1,0,0:0:0:0:
192,192,76109,1,0,0:0:0:0:
448,192,76109,1,0,0:0:0:0:
320,192,76195,1,0,0:0:0:0:
64,192,76195,1,0,0:0:0:0:
192,192,76195,1,0,0:0:0:0:
448,192,76195,1,0,0:0:0:0:
64,192,76281,1,0,0:0:0:0:
320,192,76281,1,0,0:0:0:0:
192,192,76281,1,0,0:0:0:0:
448,192,76281,1,0,0:0:0:0:
320,192,76367,1,0,0:0:0:0:
64,192,76367,1,0,0:0:0:0:
192,192,76367,1,0,0:0:0:0:
448,192,76367,1,0,0:0:0:0:
64,192,76453,1,0,0:0:0:0:
320,192,76453,1,0,0:0:0:0:
192,192,76453,1,0,0:0:0:0:
448,192,76453,1,0,0:0:0:0:
320,192,76626,1,0,0:0:0:0:
192,192,76626,1,0,0:0:0:0:
448,192,76626,1,0,0:0:0:0:
64,192,76626,1,0,0:0:0:0:
192,192,76712,1,0,0:0:0:0:
320,192,76712,1,0,0:0:0:0:
448,192,76712,1,0,0:0:0:0:
64,192,76712,1,0,0:0:0:0:
320,192,76798,1,0,0:0:0:0:
192,192,76798,1,0,0:0:0:0:
448,192,76798,1,0,0:0:0:0:
64,192,76798,1,0,0:0:0:0:
192,192,76884,1,0,0:0:0:0:
320,192,76884,1,0,0:0:0:0:
448,192,76884,1,0,0:0:0:0:
64,192,76884,1,0,0:0:0:0:
320,192,76971,1,0,0:0:0:0:
192,192,76971,1,0,0:0:0:0:
448,192,76971,1,0,0:0:0:0:
64,192,76971,1,0,0:0:0:0:
320,192,77143,1,0,0:0:0:0:
64,192,77143,1,0,0:0:0:0:
192,192,77143,1,0,0:0:0:0:
448,192,77143,1,0,0:0:0:0:
64,192,77229,1,0,0:0:0:0:
320,192,77229,1,0,0:0:0:0:
192,192,77229,1,0,0:0:0:0:
448,192,77229,1,0,0:0:0:0:
320,192,77315,1,0,0:0:0:0:
64,192,77315,1,0,0:0:0:0:
192,192,77315,1,0,0:0:0:0:
448,192,77315,1,0,0:0:0:0:
64,192,77402,1,0,0:0:0:0:
320,192,77402,1,0,0:0:0:0:
192,192,77402,1,0,0:0:0:0:
448,192,77402,1,0,0:0:0:0:
192,192,77488,1,0,0:0:0:0:
64,192,77488,1,0,0:0:0:0:
320,192,77488,1,0,0:0:0:0:
448,192,77488,1,0,0:0:0:0:
64,192,77574,1,0,0:0:0:0:
192,192,77574,1,0,0:0:0:0:
192,192,77660,1,0,0:0:0:0:
64,192,77660,1,0,0:0:0:0:
192,192,77746,1,0,0:0:0:0:
64,192,77746,1,0,0:0:0:0:
64,192,77832,1,0,0:0:0:0:
192,192,77832,1,0,0:0:0:0:
320,192,77832,1,0,0:0:0:0:
448,192,77832,1,0,0:0:0:0:
448,192,77918,1,0,0:0:0:0:
320,192,77918,1,0,0:0:0:0:
320,192,78005,1,0,0:0:0:0:
448,192,78005,1,0,0:0:0:0:
448,192,78091,1,0,0:0:0:0:
320,192,78091,1,0,0:0:0:0:
192,192,78177,1,0,0:0:0:0:
64,192,78177,1,0,0:0:0:0:
320,192,78177,1,0,0:0:0:0:
448,192,78177,1,0,0:0:0:0:
448,192,78263,1,0,0:0:0:0:
320,192,78263,1,0,0:0:0:0:
320,192,78349,1,0,0:0:0:0:
192,192,78349,1,0,0:0:0:0:
320,192,78436,1,0,0:0:0:0:
192,192,78436,1,0,0:0:0:0:
64,192,78522,1,0,0:0:0:0:
448,192,78522,1,0,0:0:0:0:
192,192,78522,1,0,0:0:0:0:
320,192,78522,1,0,0:0:0:0:
320,192,78608,1,0,0:0:0:0:
192,192,78608,1,0,0:0:0:0:
320,192,78694,1,0,0:0:0:0:
192,192,78694,1,0,0:0:0:0:
320,192,78781,1,0,0:0:0:0:
192,192,78781,1,0,0:0:0:0:
320,192,78867,1,0,0:0:0:0:
448,192,78867,1,0,0:0:0:0:
192,192,78867,1,0,0:0:0:0:
64,192,78867,1,0,0:0:0:0:
64,192,78953,1,0,0:0:0:0:
192,192,78953,1,0,0:0:0:0:
64,192,79039,1,0,0:0:0:0:
192,192,79039,1,0,0:0:0:0:
192,192,79125,1,0,0:0:0:0:
64,192,79125,1,0,0:0:0:0:
320,192,79212,1,0,0:0:0:0:
448,192,79212,1,0,0:0:0:0:
64,192,79212,1,0,0:0:0:0:
192,192,79212,1,0,0:0:0:0:
192,192,79298,1,0,0:0:0:0:
64,192,79298,1,0,0:0:0:0:
320,192,79384,1,0,0:0:0:0:
192,192,79384,1,0,0:0:0:0:
320,192,79470,1,0,0:0:0:0:
192,192,79470,1,0,0:0:0:0:
64,192,79556,1,0,0:0:0:0:
448,192,79556,1,0,0:0:0:0:
192,192,79556,1,0,0:0:0:0:
320,192,79556,1,0,0:0:0:0:
320,192,79643,1,0,0:0:0:0:
192,192,79643,1,0,0:0:0:0:
320,192,79729,1,0,0:0:0:0:
192,192,79729,1,0,0:0:0:0:
320,192,79815,1,0,0:0:0:0:
192,192,79815,1,0,0:0:0:0:
192,192,79901,1,0,0:0:0:0:
64,192,79901,1,0,0:0:0:0:
320,192,79901,1,0,0:0:0:0:
448,192,79901,1,0,0:0:0:0:
448,192,79987,1,0,0:0:0:0:
320,192,79987,1,0,0:0:0:0:
448,192,80074,1,0,0:0:0:0:
320,192,80074,1,0,0:0:0:0:
448,192,80160,1,0,0:0:0:0:
320,192,80160,1,0,0:0:0:0:
320,192,80246,1,0,0:0:0:0:
448,192,80246,1,0,0:0:0:0:
64,192,80246,1,0,0:0:0:0:
192,192,80246,1,0,0:0:0:0:
192,192,80332,1,0,0:0:0:0:
64,192,80332,1,0,0:0:0:0:
192,192,80418,1,0,0:0:0:0:
64,192,80418,1,0,0:0:0:0:
192,192,80505,1,0,0:0:0:0:
64,192,80505,1,0,0:0:0:0:
320,192,80591,1,0,0:0:0:0:
64,192,80591,1,0,0:0:0:0:
192,192,80591,1,0,0:0:0:0:
448,192,80591,1,0,0:0:0:0:
448,192,80677,1,0,0:0:0:0:
192,192,80677,1,0,0:0:0:0:
448,192,80763,1,0,0:0:0:0:
192,192,80763,1,0,0:0:0:0:
448,192,80849,1,0,0:0:0:0:
192,192,80849,1,0,0:0:0:0:
64,192,80936,1,0,0:0:0:0:
320,192,80936,1,0,0:0:0:0:
192,192,80936,1,0,0:0:0:0:
448,192,80936,1,0,0:0:0:0:
448,192,81022,1,0,0:0:0:0:
192,192,81022,1,0,0:0:0:0:
192,192,81108,1,0,0:0:0:0:
64,192,81108,1,0,0:0:0:0:
192,192,81194,1,0,0:0:0:0:
64,192,81194,1,0,0:0:0:0:
320,192,81281,1,0,0:0:0:0:
448,192,81281,1,0,0:0:0:0:
64,192,81281,1,0,0:0:0:0:
192,192,81281,1,0,0:0:0:0:
192,192,81367,1,0,0:0:0:0:
64,192,81367,1,0,0:0:0:0:
192,192,81453,1,0,0:0:0:0:
64,192,81453,1,0,0:0:0:0:
192,192,81539,1,0,0:0:0:0:
64,192,81539,1,0,0:0:0:0:
192,192,81625,1,0,0:0:0:0:
64,192,81625,1,0,0:0:0:0:
448,192,81625,1,0,0:0:0:0:
320,192,81625,1,0,0:0:0:0:
320,192,81712,1,0,0:0:0:0:
448,192,81712,1,0,0:0:0:0:
320,192,81798,1,0,0:0:0:0:
448,192,81798,1,0,0:0:0:0:
320,192,81884,1,0,0:0:0:0:
448,192,81884,1,0,0:0:0:0:
192,192,81970,1,0,0:0:0:0:
64,192,81970,1,0,0:0:0:0:
448,192,81970,1,0,0:0:0:0:
320,192,81970,1,0,0:0:0:0:
448,192,82056,1,0,0:0:0:0:
320,192,82056,1,0,0:0:0:0:
448,192,82143,1,0,0:0:0:0:
192,192,82143,1,0,0:0:0:0:
448,192,82229,1,0,0:0:0:0:
192,192,82229,1,0,0:0:0:0:
64,192,82315,1,0,0:0:0:0:
320,192,82315,1,0,0:0:0:0:
192,192,82315,1,0,0:0:0:0:
448,192,82315,1,0,0:0:0:0:
448,192,82401,1,0,0:0:0:0:
192,192,82401,1,0,0:0:0:0:
448,192,82487,1,0,0:0:0:0:
192,192,82487,1,0,0:0:0:0:
448,192,82574,1,0,0:0:0:0:
192,192,82574,1,0,0:0:0:0:
192,192,82660,1,0,0:0:0:0:
448,192,82660,1,0,0:0:0:0:
320,192,82660,1,0,0:0:0:0:
64,192,82660,1,0,0:0:0:0:
320,192,82746,1,0,0:0:0:0:
64,192,82746,1,0,0:0:0:0:
320,192,82832,1,0,0:0:0:0:
64,192,82832,1,0,0:0:0:0:
320,192,82918,1,0,0:0:0:0:
64,192,82918,1,0,0:0:0:0:
320,192,83005,1,0,0:0:0:0:
448,192,83005,1,0,0:0:0:0:
64,192,83005,1,0,0:0:0:0:
192,192,83005,1,0,0:0:0:0:
192,192,83091,1,0,0:0:0:0:
64,192,83091,1,0,0:0:0:0:
64,192,83177,1,0,0:0:0:0:
192,192,83177,1,0,0:0:0:0:
192,192,83263,1,0,0:0:0:0:
64,192,83263,1,0,0:0:0:0:
64,192,83349,1,0,0:0:0:0:
192,192,83349,1,0,0:0:0:0:
320,192,83349,1,0,0:0:0:0:
448,192,83349,1,0,0:0:0:0:
448,192,83436,1,0,0:0:0:0:
320,192,83436,1,0,0:0:0:0:
448,192,83522,1,0,0:0:0:0:
320,192,83522,1,0,0:0:0:0:
448,192,83608,1,0,0:0:0:0:
320,192,83608,1,0,0:0:0:0:
64,192,83694,1,0,0:0:0:0:
192,192,83694,1,0,0:0:0:0:
320,192,83694,1,0,0:0:0:0:
448,192,83694,1,0,0:0:0:0:
448,192,83781,1,0,0:0:0:0:
320,192,83781,1,0,0:0:0:0:
192,192,83867,1,0,0:0:0:0:
320,192,83867,1,0,0:0:0:0:
320,192,83953,1,0,0:0:0:0:
192,192,83953,1,0,0:0:0:0:
64,192,84039,1,0,0:0:0:0:
448,192,84039,1,0,0:0:0:0:
192,192,84039,1,0,0:0:0:0:
320,192,84039,1,0,0:0:0:0:
192,192,84125,1,0,0:0:0:0:
320,192,84125,1,0,0:0:0:0:
192,192,84212,1,0,0:0:0:0:
320,192,84212,1,0,0:0:0:0:
192,192,84298,1,0,0:0:0:0:
320,192,84298,1,0,0:0:0:0:
448,192,84384,1,0,0:0:0:0:
320,192,84384,1,0,0:0:0:0:
64,192,84384,1,0,0:0:0:0:
192,192,84384,1,0,0:0:0:0:
320,192,84470,1,0,0:0:0:0:
64,192,84470,1,0,0:0:0:0:
64,192,84556,1,0,0:0:0:0:
320,192,84556,1,0,0:0:0:0:
320,192,84643,1,0,0:0:0:0:
64,192,84643,1,0,0:0:0:0:
448,192,84729,1,0,0:0:0:0:
192,192,84729,1,0,0:0:0:0:
320,192,84729,1,0,0:0:0:0:
64,192,84729,1,0,0:0:0:0:
320,192,84815,1,0,0:0:0:0:
64,192,84815,1,0,0:0:0:0:
320,192,84901,1,0,0:0:0:0:
192,192,84901,1,0,0:0:0:0:
192,192,84987,1,0,0:0:0:0:
320,192,84987,1,0,0:0:0:0:
64,192,85074,1,0,0:0:0:0:
448,192,85074,1,0,0:0:0:0:
192,192,85074,1,0,0:0:0:0:
320,192,85074,1,0,0:0:0:0:
192,192,85160,1,0,0:0:0:0:
320,192,85160,1,0,0:0:0:0:
320,192,85246,1,0,0:0:0:0:
192,192,85246,1,0,0:0:0:0:
320,192,85332,1,0,0:0:0:0:
192,192,85332,1,0,0:0:0:0:
192,192,85418,1,0,0:0:0:0:
448,192,85418,1,0,0:0:0:0:
64,192,85418,1,0,0:0:0:0:
320,192,85418,1,0,0:0:0:0:
320,192,85504,1,0,0:0:0:0:
64,192,85505,1,0,0:0:0:0:
320,192,85590,1,0,0:0:0:0:
64,192,85591,1,0,0:0:0:0:
64,192,85677,1,0,0:0:0:0:
320,192,85677,1,0,0:0:0:0:
320,192,85763,1,0,0:0:0:0:
448,192,85763,1,0,0:0:0:0:
64,192,85763,1,0,0:0:0:0:
192,192,85763,1,0,0:0:0:0:
192,192,85849,1,0,0:0:0:0:
64,192,85849,1,0,0:0:0:0:
192,192,85936,1,0,0:0:0:0:
64,192,85936,1,0,0:0:0:0:
192,192,86022,1,0,0:0:0:0:
64,192,86022,1,0,0:0:0:0:
192,192,86108,1,0,0:0:0:0:
64,192,86108,1,0,0:0:0:0:
320,192,86108,1,0,0:0:0:0:
448,192,86108,1,0,0:0:0:0:
320,192,86194,1,0,0:0:0:0:
448,192,86194,1,0,0:0:0:0:
448,192,86280,1,0,0:0:0:0:
320,192,86280,1,0,0:0:0:0:
320,192,86367,1,0,0:0:0:0:
448,192,86367,1,0,0:0:0:0:
64,192,86453,1,0,0:0:0:0:
192,192,86453,1,0,0:0:0:0:
320,192,86453,1,0,0:0:0:0:
448,192,86453,1,0,0:0:0:0:
448,192,86539,1,0,0:0:0:0:
320,192,86539,1,0,0:0:0:0:
192,192,86625,1,0,0:0:0:0:
448,192,86625,1,0,0:0:0:0:
448,192,86711,1,0,0:0:0:0:
192,192,86712,1,0,0:0:0:0:
448,192,86797,1,0,0:0:0:0:
320,192,86798,1,0,0:0:0:0:
64,192,86798,1,0,0:0:0:0:
192,192,86798,1,0,0:0:0:0:
448,192,86884,1,0,0:0:0:0:
192,192,86884,1,0,0:0:0:0:
192,192,86970,1,0,0:0:0:0:
448,192,86970,1,0,0:0:0:0:
192,192,87056,1,0,0:0:0:0:
448,192,87056,1,0,0:0:0:0:
192,192,87143,1,0,0:0:0:0:
448,192,87143,1,0,0:0:0:0:
64,192,87143,1,0,0:0:0:0:
320,192,87143,1,0,0:0:0:0:
192,192,87229,1,0,0:0:0:0:
448,192,87229,1,0,0:0:0:0:
320,192,87229,1,0,0:0:0:0:
64,192,87229,1,0,0:0:0:0:
192,192,87315,1,0,0:0:0:0:
448,192,87315,1,0,0:0:0:0:
64,192,87315,1,0,0:0:0:0:
320,192,87315,1,0,0:0:0:0:
192,192,87401,1,0,0:0:0:0:
448,192,87401,1,0,0:0:0:0:
320,192,87401,1,0,0:0:0:0:
64,192,87401,1,0,0:0:0:0:
192,192,87487,1,0,0:0:0:0:
448,192,87487,1,0,0:0:0:0:
64,192,87487,1,0,0:0:0:0:
320,192,87487,1,0,0:0:0:0:
448,192,87660,1,0,0:0:0:0:
64,192,87660,1,0,0:0:0:0:
320,192,87660,1,0,0:0:0:0:
192,192,87660,1,0,0:0:0:0:
448,192,87746,1,0,0:0:0:0:
64,192,87746,1,0,0:0:0:0:
192,192,87746,1,0,0:0:0:0:
320,192,87746,1,0,0:0:0:0:
448,192,87832,1,0,0:0:0:0:
64,192,87832,1,0,0:0:0:0:
320,192,87832,1,0,0:0:0:0:
192,192,87832,1,0,0:0:0:0:
448,192,87918,1,0,0:0:0:0:
64,192,87918,1,0,0:0:0:0:
192,192,87918,1,0,0:0:0:0:
320,192,87918,1,0,0:0:0:0:
448,192,88005,1,0,0:0:0:0:
64,192,88005,1,0,0:0:0:0:
320,192,88005,1,0,0:0:0:0:
192,192,88005,1,0,0:0:0:0:
192,192,88177,1,0,0:0:0:0:
448,192,88177,1,0,0:0:0:0:
320,192,88177,1,0,0:0:0:0:
64,192,88177,1,0,0:0:0:0:
192,192,88263,1,0,0:0:0:0:
448,192,88263,1,0,0:0:0:0:
64,192,88263,1,0,0:0:0:0:
320,192,88263,1,0,0:0:0:0:
192,192,88349,1,0,0:0:0:0:
448,192,88349,1,0,0:0:0:0:
320,192,88349,1,0,0:0:0:0:
64,192,88349,1,0,0:0:0:0:
192,192,88436,1,0,0:0:0:0:
448,192,88436,1,0,0:0:0:0:
64,192,88436,1,0,0:0:0:0:
320,192,88436,1,0,0:0:0:0:
320,192,88522,1,0,0:0:0:0:
448,192,88522,1,0,0:0:0:0:
192,192,88522,1,0,0:0:0:0:
64,192,88522,1,0,0:0:0:0:
64,192,88609,1,0,0:0:0:0:
192,192,88609,1,0,0:0:0:0:
64,192,88695,1,0,0:0:0:0:
192,192,88695,1,0,0:0:0:0:
64,192,88781,1,0,0:0:0:0:
192,192,88781,1,0,0:0:0:0:
320,192,88867,1,0,0:0:0:0:
448,192,88867,1,0,0:0:0:0:
64,192,88867,1,0,0:0:0:0:
192,192,88867,1,0,0:0:0:0:
320,192,88953,1,0,0:0:0:0:
448,192,88953,1,0,0:0:0:0:
448,192,89040,1,0,0:0:0:0:
320,192,89040,1,0,0:0:0:0:
320,192,89126,1,0,0:0:0:0:
448,192,89126,1,0,0:0:0:0:
320,192,89212,1,0,0:0:0:0:
448,192,89212,1,0,0:0:0:0:
192,192,89212,1,0,0:0:0:0:
64,192,89212,1,0,0:0:0:0:
320,192,89298,1,0,0:0:0:0:
448,192,89298,1,0,0:0:0:0:
192,192,89384,1,0,0:0:0:0:
320,192,89384,1,0,0:0:0:0:
192,192,89471,1,0,0:0:0:0:
320,192,89471,1,0,0:0:0:0:
192,192,89557,1,0,0:0:0:0:
320,192,89557,1,0,0:0:0:0:
64,192,89557,1,0,0:0:0:0:
448,192,89557,1,0,0:0:0:0:
192,192,89643,1,0,0:0:0:0:
320,192,89643,1,0,0:0:0:0:
192,192,89729,1,0,0:0:0:0:
320,192,89729,1,0,0:0:0:0:
192,192,89816,1,0,0:0:0:0:
320,192,89816,1,0,0:0:0:0:
192,192,89902,1,0,0:0:0:0:
64,192,89902,1,0,0:0:0:0:
320,192,89902,1,0,0:0:0:0:
448,192,89902,1,0,0:0:0:0:
192,192,89988,1,0,0:0:0:0:
64,192,89988,1,0,0:0:0:0:
192,192,90074,1,0,0:0:0:0:
64,192,90074,1,0,0:0:0:0:
64,192,90160,1,0,0:0:0:0:
192,192,90160,1,0,0:0:0:0:
64,192,90247,1,0,0:0:0:0:
192,192,90247,1,0,0:0:0:0:
320,192,90247,1,0,0:0:0:0:
448,192,90247,1,0,0:0:0:0:
64,192,90333,1,0,0:0:0:0:
192,192,90333,1,0,0:0:0:0:
192,192,90419,1,0,0:0:0:0:
320,192,90419,1,0,0:0:0:0:
192,192,90505,1,0,0:0:0:0:
320,192,90505,1,0,0:0:0:0:
192,192,90591,1,0,0:0:0:0:
320,192,90591,1,0,0:0:0:0:
64,192,90591,1,0,0:0:0:0:
448,192,90591,1,0,0:0:0:0:
192,192,90678,1,0,0:0:0:0:
320,192,90678,1,0,0:0:0:0:
192,192,90764,1,0,0:0:0:0:
320,192,90764,1,0,0:0:0:0:
192,192,90850,1,0,0:0:0:0:
320,192,90850,1,0,0:0:0:0:
320,192,90936,1,0,0:0:0:0:
448,192,90936,1,0,0:0:0:0:
192,192,90936,1,0,0:0:0:0:
64,192,90936,1,0,0:0:0:0:
320,192,91022,1,0,0:0:0:0:
448,192,91022,1,0,0:0:0:0:
320,192,91109,1,0,0:0:0:0:
448,192,91109,1,0,0:0:0:0:
320,192,91195,1,0,0:0:0:0:
448,192,91195,1,0,0:0:0:0:
64,192,91281,1,0,0:0:0:0:
192,192,91281,1,0,0:0:0:0:
320,192,91281,1,0,0:0:0:0:
448,192,91281,1,0,0:0:0:0:
64,192,91367,1,0,0:0:0:0:
192,192,91367,1,0,0:0:0:0:
64,192,91453,1,0,0:0:0:0:
192,192,91453,1,0,0:0:0:0:
64,192,91540,1,0,0:0:0:0:
192,192,91540,1,0,0:0:0:0:
192,192,91626,1,0,0:0:0:0:
448,192,91626,1,0,0:0:0:0:
320,192,91626,1,0,0:0:0:0:
64,192,91626,1,0,0:0:0:0:
192,192,91712,1,0,0:0:0:0:
448,192,91712,1,0,0:0:0:0:
192,192,91798,1,0,0:0:0:0:
448,192,91798,1,0,0:0:0:0:
192,192,91884,1,0,0:0:0:0:
448,192,91884,1,0,0:0:0:0:
192,192,91971,1,0,0:0:0:0:
448,192,91971,1,0,0:0:0:0:
64,192,91971,1,0,0:0:0:0:
320,192,91971,1,0,0:0:0:0:
192,192,92057,1,0,0:0:0:0:
448,192,92057,1,0,0:0:0:0:
64,192,92143,1,0,0:0:0:0:
192,192,92143,1,0,0:0:0:0:
64,192,92229,1,0,0:0:0:0:
192,192,92229,1,0,0:0:0:0:
64,192,92316,1,0,0:0:0:0:
192,192,92316,1,0,0:0:0:0:
320,192,92316,1,0,0:0:0:0:
448,192,92316,1,0,0:0:0:0:
64,192,92402,1,0,0:0:0:0:
192,192,92402,1,0,0:0:0:0:
64,192,92488,1,0,0:0:0:0:
192,192,92488,1,0,0:0:0:0:
64,192,92574,1,0,0:0:0:0:
192,192,92574,1,0,0:0:0:0:
448,192,92660,1,0,0:0:0:0:
320,192,92660,1,0,0:0:0:0:
192,192,92660,1,0,0:0:0:0:
64,192,92660,1,0,0:0:0:0:
448,192,92747,1,0,0:0:0:0:
320,192,92747,1,0,0:0:0:0:
448,192,92833,1,0,0:0:0:0:
320,192,92833,1,0,0:0:0:0:
448,192,92919,1,0,0:0:0:0:
320,192,92919,1,0,0:0:0:0:
448,192,93005,1,0,0:0:0:0:
320,192,93005,1,0,0:0:0:0:
192,192,93005,1,0,0:0:0:0:
64,192,93005,1,0,0:0:0:0:
320,192,93091,1,0,0:0:0:0:
448,192,93091,1,0,0:0:0:0:
192,192,93178,1,0,0:0:0:0:
448,192,93178,1,0,0:0:0:0:
192,192,93264,1,0,0:0:0:0:
448,192,93264,1,0,0:0:0:0:
192,192,93350,1,0,0:0:0:0:
448,192,93350,1,0,0:0:0:0:
64,192,93350,1,0,0:0:0:0:
320,192,93350,1,0,0:0:0:0:
192,192,93436,1,0,0:0:0:0:
448,192,93436,1,0,0:0:0:0:
192,192,93522,1,0,0:0:0:0:
448,192,93522,1,0,0:0:0:0:
192,192,93609,1,0,0:0:0:0:
448,192,93609,1,0,0:0:0:0:
320,192,93695,1,0,0:0:0:0:
64,192,93695,1,0,0:0:0:0:
192,192,93695,1,0,0:0:0:0:
448,192,93695,1,0,0:0:0:0:
64,192,93781,1,0,0:0:0:0:
320,192,93781,1,0,0:0:0:0:
64,192,93867,1,0,0:0:0:0:
320,192,93867,1,0,0:0:0:0:
64,192,93953,1,0,0:0:0:0:
320,192,93953,1,0,0:0:0:0:
64,192,94040,1,0,0:0:0:0:
192,192,94040,1,0,0:0:0:0:
320,192,94040,1,0,0:0:0:0:
448,192,94040,1,0,0:0:0:0:
64,192,94126,1,0,0:0:0:0:
192,192,94126,1,0,0:0:0:0:
192,192,94212,1,0,0:0:0:0:
64,192,94212,1,0,0:0:0:0:
64,192,94298,1,0,0:0:0:0:
192,192,94298,1,0,0:0:0:0:
320,192,94384,1,0,0:0:0:0:
448,192,94384,1,0,0:0:0:0:
64,192,94384,1,0,0:0:0:0:
192,192,94384,1,0,0:0:0:0:
320,192,94471,1,0,0:0:0:0:
448,192,94471,1,0,0:0:0:0:
320,192,94557,1,0,0:0:0:0:
448,192,94557,1,0,0:0:0:0:
320,192,94643,1,0,0:0:0:0:
448,192,94643,1,0,0:0:0:0:
320,192,94729,1,0,0:0:0:0:
448,192,94729,1,0,0:0:0:0:
64,192,94729,1,0,0:0:0:0:
192,192,94729,1,0,0:0:0:0:
320,192,94816,1,0,0:0:0:0:
448,192,94816,1,0,0:0:0:0:
320,192,94902,1,0,0:0:0:0:
192,192,94902,1,0,0:0:0:0:
192,192,94988,1,0,0:0:0:0:
320,192,94988,1,0,0:0:0:0:
192,192,95074,1,0,0:0:0:0:
320,192,95074,1,0,0:0:0:0:
64,192,95074,1,0,0:0:0:0:
448,192,95074,1,0,0:0:0:0:
320,192,95160,1,0,0:0:0:0:
192,192,95160,1,0,0:0:0:0:
320,192,95247,1,0,0:0:0:0:
192,192,95247,1,0,0:0:0:0:
320,192,95333,1,0,0:0:0:0:
192,192,95333,1,0,0:0:0:0:
64,192,95419,1,0,0:0:0:0:
320,192,95419,1,0,0:0:0:0:
448,192,95419,1,0,0:0:0:0:
192,192,95419,1,0,0:0:0:0:
64,192,95505,1,0,0:0:0:0:
320,192,95505,1,0,0:0:0:0:
320,192,95591,1,0,0:0:0:0:
64,192,95591,1,0,0:0:0:0:
64,192,95678,1,0,0:0:0:0:
320,192,95678,1,0,0:0:0:0:
320,192,95764,1,0,0:0:0:0:
64,192,95764,1,0,0:0:0:0:
448,192,95764,1,0,0:0:0:0:
192,192,95764,1,0,0:0:0:0:
64,192,95850,1,0,0:0:0:0:
320,192,95850,1,0,0:0:0:0:
192,192,95936,1,0,0:0:0:0:
320,192,95936,1,0,0:0:0:0:
320,192,96022,1,0,0:0:0:0:
192,192,96022,1,0,0:0:0:0:
192,192,96109,1,0,0:0:0:0:
320,192,96109,1,0,0:0:0:0:
64,192,96109,1,0,0:0:0:0:
448,192,96109,1,0,0:0:0:0:
320,192,96195,1,0,0:0:0:0:
192,192,96195,1,0,0:0:0:0:
192,192,96281,1,0,0:0:0:0:
320,192,96281,1,0,0:0:0:0:
192,192,96367,1,0,0:0:0:0:
320,192,96367,1,0,0:0:0:0:
64,192,96453,1,0,0:0:0:0:
320,192,96453,1,0,0:0:0:0:
192,192,96453,1,0,0:0:0:0:
448,192,96453,1,0,0:0:0:0:
320,192,96539,1,0,0:0:0:0:
64,192,96540,1,0,0:0:0:0:
320,192,96625,1,0,0:0:0:0:
64,192,96626,1,0,0:0:0:0:
320,192,96712,1,0,0:0:0:0:
64,192,96712,1,0,0:0:0:0:
64,192,96798,1,0,0:0:0:0:
192,192,96798,1,0,0:0:0:0:
320,192,96798,1,0,0:0:0:0:
448,192,96798,1,0,0:0:0:0:
64,192,96884,1,0,0:0:0:0:
192,192,96884,1,0,0:0:0:0:
64,192,96971,1,0,0:0:0:0:
192,192,96971,1,0,0:0:0:0:
64,192,97057,1,0,0:0:0:0:
192,192,97057,1,0,0:0:0:0:
320,192,97143,1,0,0:0:0:0:
448,192,97143,1,0,0:0:0:0:
192,192,97143,1,0,0:0:0:0:
64,192,97143,1,0,0:0:0:0:
448,192,97229,1,0,0:0:0:0:
320,192,97229,1,0,0:0:0:0:
320,192,97315,1,0,0:0:0:0:
448,192,97315,1,0,0:0:0:0:
448,192,97402,1,0,0:0:0:0:
320,192,97402,1,0,0:0:0:0:
320,192,97488,1,0,0:0:0:0:
448,192,97488,1,0,0:0:0:0:
64,192,97488,1,0,0:0:0:0:
192,192,97488,1,0,0:0:0:0:
320,192,97574,1,0,0:0:0:0:
448,192,97574,1,0,0:0:0:0:
448,192,97660,1,0,0:0:0:0:
192,192,97660,1,0,0:0:0:0:
448,192,97746,1,0,0:0:0:0:
192,192,97747,1,0,0:0:0:0:
448,192,97832,1,0,0:0:0:0:
192,192,97833,1,0,0:0:0:0:
64,192,97833,1,0,0:0:0:0:
320,192,97833,1,0,0:0:0:0:
192,192,97919,1,0,0:0:0:0:
448,192,97919,1,0,0:0:0:0:
448,192,98005,1,0,0:0:0:0:
192,192,98005,1,0,0:0:0:0:
448,192,98091,1,0,0:0:0:0:
192,192,98091,1,0,0:0:0:0:
64,192,98178,1,0,0:0:0:0:
320,192,98178,1,0,0:0:0:0:
192,192,98178,1,0,0:0:0:0:
448,192,98178,1,0,0:0:0:0:
320,192,98264,1,0,0:0:0:0:
64,192,98264,1,0,0:0:0:0:
192,192,98264,1,0,0:0:0:0:
448,192,98264,1,0,0:0:0:0:
64,192,98350,1,0,0:0:0:0:
320,192,98350,1,0,0:0:0:0:
192,192,98350,1,0,0:0:0:0:
448,192,98350,1,0,0:0:0:0:
320,192,98436,1,0,0:0:0:0:
64,192,98436,1,0,0:0:0:0:
192,192,98436,1,0,0:0:0:0:
448,192,98436,1,0,0:0:0:0:
64,192,98522,1,0,0:0:0:0:
320,192,98522,1,0,0:0:0:0:
192,192,98522,1,0,0:0:0:0:
448,192,98522,1,0,0:0:0:0:
320,192,98695,1,0,0:0:0:0:
192,192,98695,1,0,0:0:0:0:
448,192,98695,1,0,0:0:0:0:
64,192,98695,1,0,0:0:0:0:
192,192,98781,1,0,0:0:0:0:
320,192,98781,1,0,0:0:0:0:
448,192,98781,1,0,0:0:0:0:
64,192,98781,1,0,0:0:0:0:
320,192,98867,1,0,0:0:0:0:
192,192,98867,1,0,0:0:0:0:
448,192,98867,1,0,0:0:0:0:
64,192,98867,1,0,0:0:0:0:
192,192,98953,1,0,0:0:0:0:
320,192,98953,1,0,0:0:0:0:
448,192,98953,1,0,0:0:0:0:
64,192,98953,1,0,0:0:0:0:
320,192,99040,1,0,0:0:0:0:
192,192,99040,1,0,0:0:0:0:
448,192,99040,1,0,0:0:0:0:
64,192,99040,1,0,0:0:0:0:
320,192,99212,1,0,0:0:0:0:
64,192,99212,1,0,0:0:0:0:
192,192,99212,1,0,0:0:0:0:
448,192,99212,1,0,0:0:0:0:
64,192,99298,1,0,0:0:0:0:
320,192,99298,1,0,0:0:0:0:
192,192,99298,1,0,0:0:0:0:
448,192,99298,1,0,0:0:0:0:
320,192,99384,1,0,0:0:0:0:
64,192,99384,1,0,0:0:0:0:
192,192,99384,1,0,0:0:0:0:
448,192,99384,1,0,0:0:0:0:
64,192,99471,1,0,0:0:0:0:
320,192,99471,1,0,0:0:0:0:
192,192,99471,1,0,0:0:0:0:
448,192,99471,1,0,0:0:0:0:
192,192,99557,1,0,0:0:0:0:
64,192,99557,1,0,0:0:0:0:
320,192,99557,1,0,0:0:0:0:
448,192,99557,1,0,0:0:0:0:
192,192,99643,1,0,0:0:0:0:
64,192,99643,1,0,0:0:0:0:
192,192,99729,1,0,0:0:0:0:
64,192,99729,1,0,0:0:0:0:
192,192,99815,1,0,0:0:0:0:
64,192,99815,1,0,0:0:0:0:
64,192,99901,1,0,0:0:0:0:
192,192,99901,1,0,0:0:0:0:
320,192,99901,1,0,0:0:0:0:
448,192,99901,1,0,0:0:0:0:
448,192,99987,1,0,0:0:0:0:
320,192,99987,1,0,0:0:0:0:
320,192,100074,1,0,0:0:0:0:
448,192,100074,1,0,0:0:0:0:
448,192,100160,1,0,0:0:0:0:
320,192,100160,1,0,0:0:0:0:
192,192,100246,1,0,0:0:0:0:
64,192,100246,1,0,0:0:0:0:
320,192,100246,1,0,0:0:0:0:
448,192,100246,1,0,0:0:0:0:
448,192,100332,1,0,0:0:0:0:
320,192,100332,1,0,0:0:0:0:
320,192,100418,1,0,0:0:0:0:
192,192,100418,1,0,0:0:0:0:
320,192,100505,1,0,0:0:0:0:
192,192,100505,1,0,0:0:0:0:
64,192,100591,1,0,0:0:0:0:
448,192,100591,1,0,0:0:0:0:
192,192,100591,1,0,0:0:0:0:
320,192,100591,1,0,0:0:0:0:
320,192,100677,1,0,0:0:0:0:
192,192,100677,1,0,0:0:0:0:
320,192,100763,1,0,0:0:0:0:
192,192,100763,1,0,0:0:0:0:
320,192,100850,1,0,0:0:0:0:
192,192,100850,1,0,0:0:0:0:
320,192,100936,1,0,0:0:0:0:
448,192,100936,1,0,0:0:0:0:
192,192,100936,1,0,0:0:0:0:
64,192,100936,1,0,0:0:0:0:
64,192,101022,1,0,0:0:0:0:
192,192,101022,1,0,0:0:0:0:
64,192,101108,1,0,0:0:0:0:
192,192,101108,1,0,0:0:0:0:
192,192,101194,1,0,0:0:0:0:
64,192,101194,1,0,0:0:0:0:
320,192,101281,1,0,0:0:0:0:
448,192,101281,1,0,0:0:0:0:
64,192,101281,1,0,0:0:0:0:
192,192,101281,1,0,0:0:0:0:
192,192,101367,1,0,0:0:0:0:
64,192,101367,1,0,0:0:0:0:
320,192,101453,1,0,0:0:0:0:
192,192,101453,1,0,0:0:0:0:
320,192,101539,1,0,0:0:0:0:
192,192,101539,1,0,0:0:0:0:
64,192,101625,1,0,0:0:0:0:
448,192,101625,1,0,0:0:0:0:
192,192,101625,1,0,0:0:0:0:
320,192,101625,1,0,0:0:0:0:
320,192,101712,1,0,0:0:0:0:
192,192,101712,1,0,0:0:0:0:
320,192,101798,1,0,0:0:0:0:
192,192,101798,1,0,0:0:0:0:
320,192,101884,1,0,0:0:0:0:
192,192,101884,1,0,0:0:0:0:
192,192,101970,1,0,0:0:0:0:
64,192,101970,1,0,0:0:0:0:
320,192,101970,1,0,0:0:0:0:
448,192,101970,1,0,0:0:0:0:
448,192,102056,1,0,0:0:0:0:
320,192,102056,1,0,0:0:0:0:
448,192,102143,1,0,0:0:0:0:
320,192,102143,1,0,0:0:0:0:
448,192,102229,1,0,0:0:0:0:
320,192,102229,1,0,0:0:0:0:
320,192,102315,1,0,0:0:0:0:
448,192,102315,1,0,0:0:0:0:
64,192,102315,1,0,0:0:0:0:
192,192,102315,1,0,0:0:0:0:
192,192,102401,1,0,0:0:0:0:
64,192,102401,1,0,0:0:0:0:
192,192,102487,1,0,0:0:0:0:
64,192,102487,1,0,0:0:0:0:
192,192,102574,1,0,0:0:0:0:
64,192,102574,1,0,0:0:0:0:
320,192,102660,1,0,0:0:0:0:
64,192,102660,1,0,0:0:0:0:
192,192,102660,1,0,0:0:0:0:
448,192,102660,1,0,0:0:0:0:
448,192,102746,1,0,0:0:0:0:
192,192,102746,1,0,0:0:0:0:
448,192,102832,1,0,0:0:0:0:
192,192,102832,1,0,0:0:0:0:
448,192,102918,1,0,0:0:0:0:
192,192,102918,1,0,0:0:0:0:
64,192,103005,1,0,0:0:0:0:
320,192,103005,1,0,0:0:0:0:
192,192,103005,1,0,0:0:0:0:
448,192,103005,1,0,0:0:0:0:
448,192,103091,1,0,0:0:0:0:
192,192,103091,1,0,0:0:0:0:
192,192,103177,1,0,0:0:0:0:
64,192,103177,1,0,0:0:0:0:
192,192,103263,1,0,0:0:0:0:
64,192,103263,1,0,0:0:0:0:
320,192,103350,1,0,0:0:0:0:
448,192,103350,1,0,0:0:0:0:
64,192,103350,1,0,0:0:0:0:
192,192,103350,1,0,0:0:0:0:
192,192,103436,1,0,0:0:0:0:
64,192,103436,1,0,0:0:0:0:
192,192,103522,1,0,0:0:0:0:
64,192,103522,1,0,0:0:0:0:
192,192,103608,1,0,0:0:0:0:
64,192,103608,1,0,0:0:0:0:
192,192,103694,1,0,0:0:0:0:
64,192,103694,1,0,0:0:0:0:
448,192,103694,1,0,0:0:0:0:
320,192,103694,1,0,0:0:0:0:
320,192,103781,1,0,0:0:0:0:
448,192,103781,1,0,0:0:0:0:
320,192,103867,1,0,0:0:0:0:
448,192,103867,1,0,0:0:0:0:
320,192,103953,1,0,0:0:0:0:
448,192,103953,1,0,0:0:0:0:
192,192,104039,1,0,0:0:0:0:
64,192,104039,1,0,0:0:0:0:
448,192,104039,1,0,0:0:0:0:
320,192,104039,1,0,0:0:0:0:
448,192,104125,1,0,0:0:0:0:
320,192,104125,1,0,0:0:0:0:
448,192,104212,1,0,0:0:0:0:
192,192,104212,1,0,0:0:0:0:
448,192,104298,1,0,0:0:0:0:
192,192,104298,1,0,0:0:0:0:
64,192,104384,1,0,0:0:0:0:
320,192,104384,1,0,0:0:0:0:
192,192,104384,1,0,0:0:0:0:
448,192,104384,1,0,0:0:0:0:
448,192,104470,1,0,0:0:0:0:
192,192,104470,1,0,0:0:0:0:
448,192,104556,1,0,0:0:0:0:
192,192,104556,1,0,0:0:0:0:
448,192,104643,1,0,0:0:0:0:
192,192,104643,1,0,0:0:0:0:
192,192,104729,1,0,0:0:0:0:
448,192,104729,1,0,0:0:0:0:
320,192,104729,1,0,0:0:0:0:
64,192,104729,1,0,0:0:0:0:
320,192,104815,1,0,0:0:0:0:
64,192,104815,1,0,0:0:0:0:
320,192,104901,1,0,0:0:0:0:
64,192,104901,1,0,0:0:0:0:
320,192,104987,1,0,0:0:0:0:
64,192,104987,1,0,0:0:0:0:
320,192,105074,1,0,0:0:0:0:
448,192,105074,1,0,0:0:0:0:
64,192,105074,1,0,0:0:0:0:
192,192,105074,1,0,0:0:0:0:
192,192,105160,1,0,0:0:0:0:
64,192,105160,1,0,0:0:0:0:
64,192,105246,1,0,0:0:0:0:
192,192,105246,1,0,0:0:0:0:
192,192,105332,1,0,0:0:0:0:
64,192,105332,1,0,0:0:0:0:
64,192,105418,1,0,0:0:0:0:
192,192,105418,1,0,0:0:0:0:
320,192,105418,1,0,0:0:0:0:
448,192,105418,1,0,0:0:0:0:
448,192,105505,1,0,0:0:0:0:
320,192,105505,1,0,0:0:0:0:
448,192,105591,1,0,0:0:0:0:
320,192,105591,1,0,0:0:0:0:
448,192,105677,1,0,0:0:0:0:
320,192,105677,1,0,0:0:0:0:
64,192,105763,1,0,0:0:0:0:
192,192,105763,1,0,0:0:0:0:
320,192,105763,1,0,0:0:0:0:
448,192,105763,1,0,0:0:0:0:
448,192,105850,1,0,0:0:0:0:
320,192,105850,1,0,0:0:0:0:
192,192,105936,1,0,0:0:0:0:
320,192,105936,1,0,0:0:0:0:
320,192,106022,1,0,0:0:0:0:
192,192,106022,1,0,0:0:0:0:
64,192,106108,1,0,0:0:0:0:
448,192,106108,1,0,0:0:0:0:
192,192,106108,1,0,0:0:0:0:
320,192,106108,1,0,0:0:0:0:
192,192,106194,1,0,0:0:0:0:
320,192,106194,1,0,0:0:0:0:
192,192,106281,1,0,0:0:0:0:
320,192,106281,1,0,0:0:0:0:
192,192,106367,1,0,0:0:0:0:
320,192,106367,1,0,0:0:0:0:
448,192,106453,1,0,0:0:0:0:
320,192,106453,1,0,0:0:0:0:
64,192,106453,1,0,0:0:0:0:
192,192,106453,1,0,0:0:0:0:
320,192,106539,1,0,0:0:0:0:
64,192,106539,1,0,0:0:0:0:
64,192,106625,1,0,0:0:0:0:
320,192,106625,1,0,0:0:0:0:
320,192,106712,1,0,0:0:0:0:
64,192,106712,1,0,0:0:0:0:
448,192,106798,1,0,0:0:0:0:
192,192,106798,1,0,0:0:0:0:
320,192,106798,1,0,0:0:0:0:
64,192,106798,1,0,0:0:0:0:
320,192,106884,1,0,0:0:0:0:
64,192,106884,1,0,0:0:0:0:
320,192,106970,1,0,0:0:0:0:
192,192,106970,1,0,0:0:0:0:
192,192,107056,1,0,0:0:0:0:
320,192,107056,1,0,0:0:0:0:
64,192,107143,1,0,0:0:0:0:
448,192,107143,1,0,0:0:0:0:
192,192,107143,1,0,0:0:0:0:
320,192,107143,1,0,0:0:0:0:
192,192,107229,1,0,0:0:0:0:
320,192,107229,1,0,0:0:0:0:
320,192,107315,1,0,0:0:0:0:
192,192,107315,1,0,0:0:0:0:
320,192,107401,1,0,0:0:0:0:
192,192,107401,1,0,0:0:0:0:
192,192,107487,1,0,0:0:0:0:
448,192,107487,1,0,0:0:0:0:
64,192,107487,1,0,0:0:0:0:
320,192,107487,1,0,0:0:0:0:
320,192,107573,1,0,0:0:0:0:
64,192,107574,1,0,0:0:0:0:
320,192,107659,1,0,0:0:0:0:
64,192,107660,1,0,0:0:0:0:
64,192,107746,1,0,0:0:0:0:
320,192,107746,1,0,0:0:0:0:
320,192,107832,1,0,0:0:0:0:
448,192,107832,1,0,0:0:0:0:
64,192,107832,1,0,0:0:0:0:
192,192,107832,1,0,0:0:0:0:
192,192,107918,1,0,0:0:0:0:
64,192,107918,1,0,0:0:0:0:
192,192,108005,1,0,0:0:0:0:
64,192,108005,1,0,0:0:0:0:
192,192,108091,1,0,0:0:0:0:
64,192,108091,1,0,0:0:0:0:
192,192,108177,1,0,0:0:0:0:
64,192,108177,1,0,0:0:0:0:
320,192,108177,1,0,0:0:0:0:
448,192,108177,1,0,0:0:0:0:
320,192,108263,1,0,0:0:0:0:
448,192,108263,1,0,0:0:0:0:
448,192,108349,1,0,0:0:0:0:
320,192,108349,1,0,0:0:0:0:
320,192,108436,1,0,0:0:0:0:
448,192,108436,1,0,0:0:0:0:
64,192,108522,1,0,0:0:0:0:
192,192,108522,1,0,0:0:0:0:
320,192,108522,1,0,0:0:0:0:
448,192,108522,1,0,0:0:0:0:
448,192,108608,1,0,0:0:0:0:
320,192,108608,1,0,0:0:0:0:
192,192,108694,1,0,0:0:0:0:
448,192,108694,1,0,0:0:0:0:
448,192,108780,1,0,0:0:0:0:
192,192,108781,1,0,0:0:0:0:
448,192,108866,1,0,0:0:0:0:
320,192,108867,1,0,0:0:0:0:
64,192,108867,1,0,0:0:0:0:
192,192,108867,1,0,0:0:0:0:
448,192,108953,1,0,0:0:0:0:
192,192,108953,1,0,0:0:0:0:
192,192,109039,1,0,0:0:0:0:
448,192,109039,1,0,0:0:0:0:
192,192,109125,1,0,0:0:0:0:
448,192,109125,1,0,0:0:0:0:
192,192,109212,5,0,0:0:0:0:
448,192,109212,1,0,0:0:0:0:
64,192,109212,1,0,0:0:0:0:
320,192,109212,1,0,0:0:0:0:
192,192,109298,1,0,0:0:0:0:
448,192,109298,1,0,0:0:0:0:
320,192,109298,1,0,0:0:0:0:
64,192,109298,1,0,0:0:0:0:
192,192,109384,1,0,0:0:0:0:
448,192,109384,1,0,0:0:0:0:
64,192,109384,1,0,0:0:0:0:
320,192,109384,1,0,0:0:0:0:
192,192,109470,1,0,0:0:0:0:
448,192,109470,1,0,0:0:0:0:
320,192,109470,1,0,0:0:0:0:
64,192,109470,1,0,0:0:0:0:
192,192,109556,1,0,0:0:0:0:
448,192,109556,1,0,0:0:0:0:
64,192,109556,1,0,0:0:0:0:
320,192,109556,1,0,0:0:0:0:
448,192,109729,1,0,0:0:0:0:
64,192,109729,1,0,0:0:0:0:
320,192,109729,1,0,0:0:0:0:
192,192,109729,1,0,0:0:0:0:
448,192,109815,1,0,0:0:0:0:
64,192,109815,1,0,0:0:0:0:
192,192,109815,1,0,0:0:0:0:
320,192,109815,1,0,0:0:0:0:
448,192,109901,1,0,0:0:0:0:
64,192,109901,1,0,0:0:0:0:
320,192,109901,1,0,0:0:0:0:
192,192,109901,1,0,0:0:0:0:
448,192,109987,1,0,0:0:0:0:
64,192,109987,1,0,0:0:0:0:
192,192,109987,1,0,0:0:0:0:
320,192,109987,1,0,0:0:0:0:
448,192,110074,1,0,0:0:0:0:
64,192,110074,1,0,0:0:0:0:
320,192,110074,1,0,0:0:0:0:
192,192,110074,1,0,0:0:0:0:
448,192,110247,1,0,0:0:0:0:
320,192,110247,1,0,0:0:0:0:
192,192,110247,1,0,0:0:0:0:
64,192,110247,1,0,0:0:0:0:
64,192,110333,1,0,0:0:0:0:
192,192,110333,1,0,0:0:0:0:
320,192,110333,1,0,0:0:0:0:
448,192,110333,1,0,0:0:0:0:
64,192,110419,1,0,0:0:0:0:
192,192,110419,1,0,0:0:0:0:
320,192,110419,1,0,0:0:0:0:
448,192,110419,1,0,0:0:0:0:
64,192,110505,1,0,0:0:0:0:
192,192,110505,1,0,0:0:0:0:
320,192,110505,1,0,0:0:0:0:
448,192,110505,1,0,0:0:0:0:
64,192,110591,1,0,0:0:0:0:
448,192,110591,1,0,0:0:0:0:
320,192,110591,128,0,111022:0:0:0:0:
192,192,110591,128,0,111022:0:0:0:0:
64,192,110678,1,0,0:0:0:0:
448,192,110678,1,0,0:0:0:0:
64,192,110764,1,0,0:0:0:0:
448,192,110764,1,0,0:0:0:0:
64,192,110850,1,0,0:0:0:0:
448,192,110850,1,0,0:0:0:0:
64,192,110936,1,0,0:0:0:0:
448,192,110936,1,0,0:0:0:0:
64,192,111022,1,0,0:0:0:0:
448,192,111022,1,0,0:0:0:0:
192,192,111109,128,0,111540:0:0:0:0:
320,192,111109,1,0,0:0:0:0:
448,192,111109,1,0,0:0:0:0:
64,192,111109,128,0,111540:0:0:0:0:
320,192,111195,1,0,0:0:0:0:
448,192,111195,1,0,0:0:0:0:
320,192,111281,1,0,0:0:0:0:
448,192,111281,1,0,0:0:0:0:
320,192,111367,1,0,0:0:0:0:
448,192,111367,1,0,0:0:0:0:
448,192,111453,1,0,0:0:0:0:
320,192,111453,1,0,0:0:0:0:
320,192,111540,1,0,0:0:0:0:
448,192,111540,1,0,0:0:0:0:
320,192,111626,128,0,112057:0:0:0:0:
448,192,111626,1,0,0:0:0:0:
64,192,111626,1,0,0:0:0:0:
192,192,111626,128,0,112057:0:0:0:0:
448,192,111712,1,0,0:0:0:0:
64,192,111712,1,0,0:0:0:0:
448,192,111798,1,0,0:0:0:0:
64,192,111798,1,0,0:0:0:0:
448,192,111884,1,0,0:0:0:0:
64,192,111884,1,0,0:0:0:0:
448,192,111971,1,0,0:0:0:0:
64,192,111971,1,0,0:0:0:0:
448,192,112057,1,0,0:0:0:0:
64,192,112057,1,0,0:0:0:0:
192,192,112143,128,0,112574:0:0:0:0:
64,192,112143,1,0,0:0:0:0:
448,192,112143,128,0,112574:0:0:0:0:
320,192,112143,1,0,0:0:0:0:
64,192,112229,1,0,0:0:0:0:
320,192,112229,1,0,0:0:0:0:
64,192,112315,1,0,0:0:0:0:
320,192,112315,1,0,0:0:0:0:
64,192,112402,1,0,0:0:0:0:
320,192,112402,1,0,0:0:0:0:
64,192,112488,1,0,0:0:0:0:
320,192,112488,1,0,0:0:0:0:
64,192,112574,1,0,0:0:0:0:
320,192,112574,1,0,0:0:0:0:
320,192,112660,128,0,112919:0:0:0:0:
448,192,112660,128,0,112919:0:0:0:0:
64,192,112660,1,0,0:0:0:0:
192,192,112660,1,0,0:0:0:0:
64,192,112747,1,0,0:0:0:0:
192,192,112747,1,0,0:0:0:0:
64,192,112833,1,0,0:0:0:0:
192,192,112833,1,0,0:0:0:0:
64,192,112919,1,0,0:0:0:0:
192,192,112919,1,0,0:0:0:0:
320,192,113005,128,0,113264:0:0:0:0:
192,192,113005,128,0,113264:0:0:0:0:
64,192,113005,1,0,0:0:0:0:
448,192,113005,1,0,0:0:0:0:
64,192,113091,1,0,0:0:0:0:
448,192,113091,1,0,0:0:0:0:
64,192,113178,1,0,0:0:0:0:
448,192,113178,1,0,0:0:0:0:
64,192,113264,1,0,0:0:0:0:
448,192,113264,1,0,0:0:0:0:
64,192,113350,128,0,113609:0:0:0:0:
192,192,113350,128,0,113609:0:0:0:0:
320,192,113350,128,0,113609:0:0:0:0:
448,192,113350,128,0,113609:0:0:0:0:
64,192,113695,128,0,114126:0:0:0:0:
192,192,113695,128,0,114126:0:0:0:0:
320,192,113695,128,0,114126:0:0:0:0:
448,192,113695,128,0,114126:0:0:0:0:
64,192,114212,128,0,114643:0:0:0:0:
192,192,114212,128,0,114643:0:0:0:0:
320,192,114212,128,0,114643:0:0:0:0:
448,192,114212,128,0,114643:0:0:0:0:
64,192,114729,128,0,115160:0:0:0:0:
192,192,114729,128,0,115160:0:0:0:0:
320,192,114729,128,0,115160:0:0:0:0:
448,192,114729,128,0,115160:0:0:0:0:
64,192,115247,128,0,115591:0:0:0:0:
192,192,115247,128,0,115591:0:0:0:0:
320,192,115247,128,0,115591:0:0:0:0:
448,192,115247,128,0,115591:0:0:0:0:
64,192,115678,1,0,0:0:0:0:
192,192,115721,1,0,0:0:0:0:
64,192,115764,1,0,0:0:0:0:
320,192,115764,1,0,0:0:0:0:
64,192,115936,1,0,0:0:0:0:
320,192,115936,1,0,0:0:0:0:
64,192,116453,128,0,116884:0:0:0:0:
192,192,116453,128,0,116884:0:0:0:0:
320,192,116453,128,0,116884:0:0:0:0:
448,192,116453,128,0,116884:0:0:0:0:
64,192,116971,128,0,117402:0:0:0:0:
192,192,116971,128,0,117402:0:0:0:0:
320,192,116971,128,0,117402:0:0:0:0:
448,192,116971,128,0,117402:0:0:0:0:
64,192,117488,128,0,117919:0:0:0:0:
192,192,117488,128,0,117919:0:0:0:0:
320,192,117488,128,0,117919:0:0:0:0:
448,192,117488,128,0,117919:0:0:0:0:
64,192,118005,128,0,118350:0:0:0:0:
192,192,118005,128,0,118350:0:0:0:0:
320,192,118005,128,0,118350:0:0:0:0:
448,192,118005,128,0,118350:0:0:0:0:
64,192,118436,1,0,0:0:0:0:
320,192,118436,1,0,0:0:0:0:
192,192,118479,1,0,0:0:0:0:
64,192,118522,1,0,0:0:0:0:
320,192,118522,1,0,0:0:0:0:
448,192,118522,1,0,0:0:0:0:
64,192,118695,1,0,0:0:0:0:
320,192,118695,1,0,0:0:0:0:
448,192,118695,1,0,0:0:0:0:
64,192,119212,128,0,119643:0:0:0:0:
192,192,119212,128,0,119643:0:0:0:0:
320,192,119212,128,0,119643:0:0:0:0:
448,192,119212,128,0,119643:0:0:0:0:
64,192,119729,128,0,120160:0:0:0:0:
192,192,119729,128,0,120160:0:0:0:0:
320,192,119729,128,0,120160:0:0:0:0:
448,192,119729,128,0,120160:0:0:0:0:
64,192,120247,128,0,120678:0:0:0:0:
192,192,120247,128,0,120678:0:0:0:0:
320,192,120247,128,0,120678:0:0:0:0:
448,192,120247,128,0,120678:0:0:0:0:
64,192,120764,128,0,121109:0:0:0:0:
192,192,120764,128,0,121109:0:0:0:0:
320,192,120764,128,0,121109:0:0:0:0:
448,192,120764,128,0,121109:0:0:0:0:
64,192,121281,1,0,0:0:0:0:
192,192,121281,1,0,0:0:0:0:
320,192,121281,1,0,0:0:0:0:
192,192,121453,1,0,0:0:0:0:
320,192,121453,1,0,0:0:0:0:
448,192,121453,1,0,0:0:0:0:
64,192,121971,128,0,122402:0:0:0:0:
192,192,121971,128,0,122402:0:0:0:0:
320,192,121971,128,0,122402:0:0:0:0:
448,192,121971,128,0,122402:0:0:0:0:
64,192,122488,128,0,122919:0:0:0:0:
192,192,122488,128,0,122919:0:0:0:0:
320,192,122488,128,0,122919:0:0:0:0:
448,192,122488,128,0,122919:0:0:0:0:
64,192,123005,128,0,123781:0:0:0:0:
192,192,123005,128,0,123091:0:0:0:0:
320,192,123005,128,0,123178:0:0:0:0:
448,192,123005,128,0,123264:0:0:0:0:
192,192,123178,128,0,123609:0:0:0:0:
320,192,123264,128,0,123350:0:0:0:0:
448,192,123350,128,0,123436:0:0:0:0:
320,192,123436,128,0,123522:0:0:0:0:
448,192,123522,128,0,124126:0:0:0:0:
320,192,123609,128,0,123695:0:0:0:0:
192,192,123695,128,0,123867:0:0:0:0:
320,192,123781,128,0,123953:0:0:0:0:
64,192,123867,128,0,124126:0:0:0:0:
192,192,123953,128,0,124040:0:0:0:0:
320,192,124040,128,0,124126:0:0:0:0:
192,192,124126,1,0,0:0:0:0:
192,192,124212,1,0,0:0:0:0:
192,192,124298,1,0,0:0:0:0:
64,192,124384,128,0,124643:0:0:0:0:
320,192,124384,128,0,124643:0:0:0:0:
448,192,124384,128,0,124643:0:0:0:0:
192,192,124384,1,0,0:0:0:0:
320,192,124729,128,0,125160:0:0:0:0:
448,192,124729,128,0,125160:0:0:0:0:
64,192,124729,128,0,125160:0:0:0:0:
192,192,124729,128,0,125160:0:0:0:0:
320,192,125246,128,0,125677:0:0:0:0:
448,192,125246,128,0,125677:0:0:0:0:
64,192,125246,128,0,125677:0:0:0:0:
192,192,125246,128,0,125677:0:0:0:0:
320,192,125763,128,0,126194:0:0:0:0:
448,192,125763,128,0,126194:0:0:0:0:
64,192,125763,128,0,126194:0:0:0:0:
192,192,125763,128,0,126194:0:0:0:0:
320,192,126281,128,0,126625:0:0:0:0:
448,192,126281,128,0,126625:0:0:0:0:
64,192,126281,128,0,126625:0:0:0:0:
192,192,126281,128,0,126625:0:0:0:0:
64,192,126712,1,0,0:0:0:0:
192,192,126755,1,0,0:0:0:0:
320,192,126798,1,0,0:0:0:0:
64,192,126798,1,0,0:0:0:0:
320,192,126970,1,0,0:0:0:0:
64,192,126970,1,0,0:0:0:0:
320,192,127487,128,0,127918:0:0:0:0:
448,192,127487,128,0,127918:0:0:0:0:
64,192,127487,128,0,127918:0:0:0:0:
192,192,127487,128,0,127918:0:0:0:0:
320,192,128005,128,0,128436:0:0:0:0:
448,192,128005,128,0,128436:0:0:0:0:
64,192,128005,128,0,128436:0:0:0:0:
192,192,128005,128,0,128436:0:0:0:0:
320,192,128522,128,0,128953:0:0:0:0:
448,192,128522,128,0,128953:0:0:0:0:
64,192,128522,128,0,128953:0:0:0:0:
192,192,128522,128,0,128953:0:0:0:0:
320,192,129039,128,0,129384:0:0:0:0:
448,192,129039,128,0,129384:0:0:0:0:
64,192,129039,128,0,129384:0:0:0:0:
192,192,129039,128,0,129384:0:0:0:0:
320,192,129470,1,0,0:0:0:0:
64,192,129470,1,0,0:0:0:0:
192,192,129513,1,0,0:0:0:0:
448,192,129556,1,0,0:0:0:0:
320,192,129556,1,0,0:0:0:0:
64,192,129556,1,0,0:0:0:0:
448,192,129729,1,0,0:0:0:0:
320,192,129729,1,0,0:0:0:0:
64,192,129729,1,0,0:0:0:0:
320,192,130246,128,0,130677:0:0:0:0:
448,192,130246,128,0,130677:0:0:0:0:
64,192,130246,128,0,130677:0:0:0:0:
192,192,130246,128,0,130677:0:0:0:0:
320,192,130763,128,0,131194:0:0:0:0:
448,192,130763,128,0,131194:0:0:0:0:
64,192,130763,128,0,131194:0:0:0:0:
192,192,130763,128,0,131194:0:0:0:0:
320,192,131281,128,0,131712:0:0:0:0:
448,192,131281,128,0,131712:0:0:0:0:
64,192,131281,128,0,131712:0:0:0:0:
192,192,131281,128,0,131712:0:0:0:0:
320,192,131798,128,0,132143:0:0:0:0:
448,192,131798,128,0,132143:0:0:0:0:
64,192,131798,128,0,132143:0:0:0:0:
192,192,131798,128,0,132143:0:0:0:0:
320,192,132315,1,0,0:0:0:0:
192,192,132315,1,0,0:0:0:0:
64,192,132315,1,0,0:0:0:0:
448,192,132487,1,0,0:0:0:0:
320,192,132487,1,0,0:0:0:0:
192,192,132487,1,0,0:0:0:0:
320,192,133005,128,0,133436:0:0:0:0:
448,192,133005,128,0,133436:0:0:0:0:
64,192,133005,128,0,133436:0:0:0:0:
192,192,133005,128,0,133436:0:0:0:0:
320,192,133522,128,0,133953:0:0:0:0:
448,192,133522,128,0,133953:0:0:0:0:
64,192,133522,128,0,133953:0:0:0:0:
192,192,133522,128,0,133953:0:0:0:0:
64,192,134040,128,0,134471:0:0:0:0:
192,192,134040,128,0,134384:0:0:0:0:
320,192,134040,128,0,134298:0:0:0:0:
448,192,134040,128,0,134212:0:0:0:0:
448,192,135419,128,0,138091:0:0:0:0:
320,192,135419,128,0,135462:0:0:0:0:
64,192,135419,128,0,135462:0:0:0:0:
192,192,135505,1,0,0:0:0:0:
64,192,135591,1,0,0:0:0:0:
192,192,135678,1,0,0:0:0:0:
64,192,135764,1,0,0:0:0:0:
320,192,135764,1,0,0:0:0:0:
192,192,135850,1,0,0:0:0:0:
320,192,135936,1,0,0:0:0:0:
64,192,136022,1,0,0:0:0:0:
192,192,136109,1,0,0:0:0:0:
320,192,136195,1,0,0:0:0:0:
64,192,136281,128,0,136324:0:0:0:0:
192,192,136281,128,0,136324:0:0:0:0:
320,192,136367,1,0,0:0:0:0:
192,192,136453,1,0,0:0:0:0:
64,192,136540,1,0,0:0:0:0:
320,192,136626,1,0,0:0:0:0:
192,192,136712,1,0,0:0:0:0:
64,192,136798,128,0,136841:0:0:0:0:
320,192,136798,128,0,136841:0:0:0:0:
192,192,136884,1,0,0:0:0:0:
64,192,136971,1,0,0:0:0:0:
192,192,137057,1,0,0:0:0:0:
320,192,137143,1,0,0:0:0:0:
192,192,137229,1,0,0:0:0:0:
64,192,137315,1,0,0:0:0:0:
320,192,137315,1,0,0:0:0:0:
192,192,137402,1,0,0:0:0:0:
64,192,137488,1,0,0:0:0:0:
192,192,137574,1,0,0:0:0:0:
320,192,137660,1,0,0:0:0:0:
192,192,137747,1,0,0:0:0:0:
64,192,137833,1,0,0:0:0:0:
320,192,137833,1,0,0:0:0:0:
320,192,137919,1,0,0:0:0:0:
192,192,137919,1,0,0:0:0:0:
64,192,138005,1,0,0:0:0:0:
320,192,138005,1,0,0:0:0:0:
192,192,138091,1,0,0:0:0:0:
320,192,138091,1,0,0:0:0:0:
448,192,138178,128,0,140850:0:0:0:0:
64,192,138178,1,0,0:0:0:0:
320,192,138178,1,0,0:0:0:0:
192,192,138264,1,0,0:0:0:0:
64,192,138350,1,0,0:0:0:0:
192,192,138436,1,0,0:0:0:0:
64,192,138522,1,0,0:0:0:0:
320,192,138522,1,0,0:0:0:0:
192,192,138609,1,0,0:0:0:0:
320,192,138695,1,0,0:0:0:0:
64,192,138781,1,0,0:0:0:0:
192,192,138867,1,0,0:0:0:0:
320,192,138953,1,0,0:0:0:0:
64,192,139040,128,0,139083:0:0:0:0:
192,192,139040,128,0,139083:0:0:0:0:
320,192,139126,1,0,0:0:0:0:
192,192,139212,1,0,0:0:0:0:
64,192,139298,1,0,0:0:0:0:
192,192,139384,1,0,0:0:0:0:
64,192,139471,1,0,0:0:0:0:
192,192,139557,128,0,139600:0:0:0:0:
320,192,139557,128,0,139600:0:0:0:0:
64,192,139643,1,0,0:0:0:0:
192,192,139729,1,0,0:0:0:0:
320,192,139815,1,0,0:0:0:0:
192,192,139902,1,0,0:0:0:0:
64,192,139988,1,0,0:0:0:0:
192,192,140074,1,0,0:0:0:0:
320,192,140074,1,0,0:0:0:0:
64,192,140160,1,0,0:0:0:0:
320,192,140247,1,0,0:0:0:0:
64,192,140333,1,0,0:0:0:0:
192,192,140419,1,0,0:0:0:0:
64,192,140505,1,0,0:0:0:0:
192,192,140591,128,0,140634:0:0:0:0:
320,192,140591,128,0,140634:0:0:0:0:
192,192,140678,128,0,140721:0:0:0:0:
320,192,140678,128,0,140721:0:0:0:0:
192,192,140764,128,0,140807:0:0:0:0:
320,192,140764,128,0,140807:0:0:0:0:
192,192,140850,128,0,140893:0:0:0:0:
320,192,140850,128,0,140893:0:0:0:0:
64,192,140936,128,0,143609:0:0:0:0:
192,192,140936,128,0,140979:0:0:0:0:
320,192,140936,128,0,140979:0:0:0:0:
192,192,141281,1,0,0:0:0:0:
448,192,141281,1,0,0:0:0:0:
320,192,141367,1,0,0:0:0:0:
448,192,141453,1,0,0:0:0:0:
192,192,141540,1,0,0:0:0:0:
448,192,141626,1,0,0:0:0:0:
320,192,141712,1,0,0:0:0:0:
192,192,141798,128,0,141841:0:0:0:0:
448,192,141798,128,0,141841:0:0:0:0:
320,192,141884,1,0,0:0:0:0:
192,192,141971,1,0,0:0:0:0:
448,192,142057,1,0,0:0:0:0:
192,192,142143,1,0,0:0:0:0:
320,192,142229,1,0,0:0:0:0:
192,192,142315,128,0,142359:0:0:0:0:
448,192,142315,128,0,142359:0:0:0:0:
320,192,142402,1,0,0:0:0:0:
192,192,142488,1,0,0:0:0:0:
320,192,142574,1,0,0:0:0:0:
448,192,142660,1,0,0:0:0:0:
192,192,142747,1,0,0:0:0:0:
320,192,142833,1,0,0:0:0:0:
448,192,142833,1,0,0:0:0:0:
192,192,142919,1,0,0:0:0:0:
320,192,143005,1,0,0:0:0:0:
192,192,143091,1,0,0:0:0:0:
320,192,143178,1,0,0:0:0:0:
448,192,143264,1,0,0:0:0:0:
320,192,143350,1,0,0:0:0:0:
192,192,143350,1,0,0:0:0:0:
192,192,143436,1,0,0:0:0:0:
448,192,143436,1,0,0:0:0:0:
192,192,143522,1,0,0:0:0:0:
320,192,143522,1,0,0:0:0:0:
192,192,143609,1,0,0:0:0:0:
448,192,143609,1,0,0:0:0:0:
192,192,143695,1,0,0:0:0:0:
320,192,143695,1,0,0:0:0:0:
64,192,143695,128,0,146367:0:0:0:0:
448,192,143781,1,0,0:0:0:0:
320,192,143867,1,0,0:0:0:0:
192,192,143953,1,0,0:0:0:0:
320,192,144040,1,0,0:0:0:0:
448,192,144040,1,0,0:0:0:0:
192,192,144126,1,0,0:0:0:0:
448,192,144212,1,0,0:0:0:0:
320,192,144298,1,0,0:0:0:0:
192,192,144384,1,0,0:0:0:0:
448,192,144471,1,0,0:0:0:0:
320,192,144557,1,0,0:0:0:0:
192,192,144557,1,0,0:0:0:0:
448,192,144643,1,0,0:0:0:0:
192,192,144729,1,0,0:0:0:0:
320,192,144815,1,0,0:0:0:0:
448,192,144902,1,0,0:0:0:0:
192,192,144988,1,0,0:0:0:0:
320,192,145074,128,0,145117:0:0:0:0:
448,192,145074,128,0,145117:0:0:0:0:
192,192,145074,128,0,145117:0:0:0:0:
320,192,145160,1,0,0:0:0:0:
448,192,145160,1,0,0:0:0:0:
320,192,145247,1,0,0:0:0:0:
448,192,145247,1,0,0:0:0:0:
320,192,145333,1,0,0:0:0:0:
448,192,145333,1,0,0:0:0:0:
320,192,145419,1,0,0:0:0:0:
448,192,145419,1,0,0:0:0:0:
320,192,145505,1,0,0:0:0:0:
448,192,145505,1,0,0:0:0:0:
320,192,145591,128,0,145634:0:0:0:0:
192,192,145591,128,0,145634:0:0:0:0:
448,192,145591,128,0,145634:0:0:0:0:
448,192,145678,1,0,0:0:0:0:
192,192,145678,1,0,0:0:0:0:
192,192,145764,1,0,0:0:0:0:
448,192,145764,1,0,0:0:0:0:
448,192,145850,1,0,0:0:0:0:
192,192,145850,1,0,0:0:0:0:
192,192,145936,1,0,0:0:0:0:
448,192,145936,1,0,0:0:0:0:
448,192,146022,1,0,0:0:0:0:
192,192,146022,1,0,0:0:0:0:
192,192,146109,128,0,146152:0:0:0:0:
320,192,146109,128,0,146152:0:0:0:0:
448,192,146109,128,0,146152:0:0:0:0:
192,192,146195,1,0,0:0:0:0:
320,192,146195,1,0,0:0:0:0:
192,192,146281,1,0,0:0:0:0:
320,192,146281,1,0,0:0:0:0:
192,192,146367,1,0,0:0:0:0:
320,192,146367,1,0,0:0:0:0:
448,192,146453,128,0,149125:0:0:0:0:
320,192,146453,128,0,146496:0:0:0:0:
64,192,146453,128,0,146496:0:0:0:0:
192,192,146539,1,0,0:0:0:0:
64,192,146625,1,0,0:0:0:0:
192,192,146712,1,0,0:0:0:0:
64,192,146798,1,0,0:0:0:0:
320,192,146798,1,0,0:0:0:0:
192,192,146884,1,0,0:0:0:0:
320,192,146970,1,0,0:0:0:0:
64,192,147056,1,0,0:0:0:0:
192,192,147143,1,0,0:0:0:0:
320,192,147229,1,0,0:0:0:0:
64,192,147315,128,0,147358:0:0:0:0:
192,192,147315,128,0,147358:0:0:0:0:
320,192,147401,1,0,0:0:0:0:
192,192,147487,1,0,0:0:0:0:
64,192,147574,1,0,0:0:0:0:
320,192,147660,1,0,0:0:0:0:
192,192,147746,1,0,0:0:0:0:
64,192,147832,128,0,147875:0:0:0:0:
320,192,147832,128,0,147875:0:0:0:0:
192,192,147918,1,0,0:0:0:0:
64,192,148005,1,0,0:0:0:0:
192,192,148091,1,0,0:0:0:0:
320,192,148177,1,0,0:0:0:0:
192,192,148263,1,0,0:0:0:0:
64,192,148349,1,0,0:0:0:0:
320,192,148349,1,0,0:0:0:0:
192,192,148436,1,0,0:0:0:0:
64,192,148522,1,0,0:0:0:0:
192,192,148608,1,0,0:0:0:0:
320,192,148694,1,0,0:0:0:0:
192,192,148781,1,0,0:0:0:0:
64,192,148867,1,0,0:0:0:0:
320,192,148867,1,0,0:0:0:0:
320,192,148953,1,0,0:0:0:0:
192,192,148953,1,0,0:0:0:0:
64,192,149039,1,0,0:0:0:0:
320,192,149039,1,0,0:0:0:0:
192,192,149125,1,0,0:0:0:0:
320,192,149125,1,0,0:0:0:0:
448,192,149212,128,0,151884:0:0:0:0:
64,192,149212,1,0,0:0:0:0:
320,192,149212,1,0,0:0:0:0:
192,192,149298,1,0,0:0:0:0:
64,192,149384,1,0,0:0:0:0:
192,192,149470,1,0,0:0:0:0:
64,192,149556,1,0,0:0:0:0:
320,192,149556,1,0,0:0:0:0:
192,192,149643,1,0,0:0:0:0:
320,192,149729,1,0,0:0:0:0:
64,192,149815,1,0,0:0:0:0:
192,192,149901,1,0,0:0:0:0:
320,192,149987,1,0,0:0:0:0:
64,192,150074,128,0,150117:0:0:0:0:
192,192,150074,128,0,150117:0:0:0:0:
320,192,150160,1,0,0:0:0:0:
192,192,150246,1,0,0:0:0:0:
64,192,150332,1,0,0:0:0:0:
192,192,150418,1,0,0:0:0:0:
64,192,150505,1,0,0:0:0:0:
192,192,150591,128,0,150634:0:0:0:0:
320,192,150591,128,0,150634:0:0:0:0:
64,192,150677,1,0,0:0:0:0:
192,192,150763,1,0,0:0:0:0:
320,192,150849,1,0,0:0:0:0:
192,192,150936,1,0,0:0:0:0:
64,192,151022,1,0,0:0:0:0:
192,192,151108,1,0,0:0:0:0:
320,192,151108,1,0,0:0:0:0:
64,192,151194,1,0,0:0:0:0:
320,192,151281,1,0,0:0:0:0:
64,192,151367,1,0,0:0:0:0:
192,192,151453,1,0,0:0:0:0:
64,192,151539,1,0,0:0:0:0:
192,192,151625,128,0,151668:0:0:0:0:
320,192,151625,128,0,151668:0:0:0:0:
192,192,151712,128,0,151755:0:0:0:0:
320,192,151712,128,0,151755:0:0:0:0:
192,192,151798,128,0,151841:0:0:0:0:
320,192,151798,128,0,151841:0:0:0:0:
192,192,151884,128,0,151927:0:0:0:0:
320,192,151884,128,0,151927:0:0:0:0:
64,192,151970,128,0,154643:0:0:0:0:
192,192,151970,128,0,152013:0:0:0:0:
320,192,151970,128,0,152013:0:0:0:0:
192,192,152315,1,0,0:0:0:0:
448,192,152315,1,0,0:0:0:0:
320,192,152401,1,0,0:0:0:0:
448,192,152487,1,0,0:0:0:0:
192,192,152574,1,0,0:0:0:0:
448,192,152660,1,0,0:0:0:0:
320,192,152746,1,0,0:0:0:0:
192,192,152832,128,0,152875:0:0:0:0:
448,192,152832,128,0,152875:0:0:0:0:
320,192,152918,1,0,0:0:0:0:
192,192,153005,1,0,0:0:0:0:
448,192,153091,1,0,0:0:0:0:
192,192,153177,1,0,0:0:0:0:
320,192,153263,1,0,0:0:0:0:
192,192,153349,128,0,153393:0:0:0:0:
448,192,153349,128,0,153393:0:0:0:0:
320,192,153436,1,0,0:0:0:0:
192,192,153522,1,0,0:0:0:0:
320,192,153608,1,0,0:0:0:0:
448,192,153694,1,0,0:0:0:0:
192,192,153781,1,0,0:0:0:0:
320,192,153867,1,0,0:0:0:0:
448,192,153867,1,0,0:0:0:0:
192,192,153953,1,0,0:0:0:0:
320,192,154039,1,0,0:0:0:0:
192,192,154125,1,0,0:0:0:0:
320,192,154212,1,0,0:0:0:0:
448,192,154298,1,0,0:0:0:0:
320,192,154384,1,0,0:0:0:0:
192,192,154384,1,0,0:0:0:0:
192,192,154470,1,0,0:0:0:0:
448,192,154470,1,0,0:0:0:0:
192,192,154556,1,0,0:0:0:0:
320,192,154556,1,0,0:0:0:0:
192,192,154643,1,0,0:0:0:0:
448,192,154643,1,0,0:0:0:0:
192,192,154729,1,0,0:0:0:0:
320,192,154729,1,0,0:0:0:0:
64,192,154729,128,0,157401:0:0:0:0:
448,192,154815,1,0,0:0:0:0:
320,192,154901,1,0,0:0:0:0:
192,192,154987,1,0,0:0:0:0:
320,192,155074,1,0,0:0:0:0:
448,192,155074,1,0,0:0:0:0:
192,192,155160,1,0,0:0:0:0:
448,192,155246,1,0,0:0:0:0:
320,192,155332,1,0,0:0:0:0:
192,192,155418,1,0,0:0:0:0:
448,192,155505,1,0,0:0:0:0:
320,192,155591,1,0,0:0:0:0:
192,192,155591,1,0,0:0:0:0:
448,192,155677,1,0,0:0:0:0:
192,192,155763,1,0,0:0:0:0:
320,192,155849,1,0,0:0:0:0:
448,192,155936,1,0,0:0:0:0:
192,192,156022,1,0,0:0:0:0:
320,192,156108,128,0,156151:0:0:0:0:
448,192,156108,128,0,156151:0:0:0:0:
192,192,156108,128,0,156151:0:0:0:0:
320,192,156194,1,0,0:0:0:0:
448,192,156194,1,0,0:0:0:0:
320,192,156281,1,0,0:0:0:0:
448,192,156281,1,0,0:0:0:0:
320,192,156367,1,0,0:0:0:0:
448,192,156367,1,0,0:0:0:0:
320,192,156453,1,0,0:0:0:0:
448,192,156453,1,0,0:0:0:0:
320,192,156539,1,0,0:0:0:0:
448,192,156539,1,0,0:0:0:0:
320,192,156625,128,0,156668:0:0:0:0:
192,192,156625,128,0,156668:0:0:0:0:
448,192,156625,128,0,156668:0:0:0:0:
448,192,156712,1,0,0:0:0:0:
192,192,156712,1,0,0:0:0:0:
192,192,156798,1,0,0:0:0:0:
448,192,156798,1,0,0:0:0:0:
448,192,156884,1,0,0:0:0:0:
192,192,156884,1,0,0:0:0:0:
192,192,156970,1,0,0:0:0:0:
448,192,156970,1,0,0:0:0:0:
448,192,157056,1,0,0:0:0:0:
192,192,157056,1,0,0:0:0:0:
192,192,157143,128,0,157186:0:0:0:0:
320,192,157143,128,0,157186:0:0:0:0:
448,192,157143,128,0,157186:0:0:0:0:
192,192,157229,1,0,0:0:0:0:
320,192,157229,1,0,0:0:0:0:
192,192,157315,1,0,0:0:0:0:
320,192,157315,1,0,0:0:0:0:
192,192,157401,1,0,0:0:0:0:
320,192,157401,1,0,0:0:0:0:
64,192,157488,128,0,157660:0:0:0:0:
192,192,157488,1,0,0:0:0:0:
320,192,157574,1,0,0:0:0:0:
192,192,157660,128,0,157833:0:0:0:0:
448,192,157660,1,0,0:0:0:0:
320,192,157747,1,0,0:0:0:0:
448,192,157833,128,0,158005:0:0:0:0:
64,192,157833,1,0,0:0:0:0:
320,192,157919,1,0,0:0:0:0:
64,192,158005,128,0,158178:0:0:0:0:
192,192,158005,1,0,0:0:0:0:
448,192,158091,1,0,0:0:0:0:
192,192,158178,128,0,158350:0:0:0:0:
320,192,158178,1,0,0:0:0:0:
448,192,158264,1,0,0:0:0:0:
320,192,158350,128,0,158522:0:0:0:0:
64,192,158350,1,0,0:0:0:0:
192,192,158436,1,0,0:0:0:0:
64,192,158522,128,0,158695:0:0:0:0:
448,192,158522,1,0,0:0:0:0:
320,192,158609,1,0,0:0:0:0:
192,192,158695,128,0,158867:0:0:0:0:
448,192,158695,1,0,0:0:0:0:
64,192,158781,1,0,0:0:0:0:
320,192,158867,128,0,159040:0:0:0:0:
448,192,158867,1,0,0:0:0:0:
192,192,158953,1,0,0:0:0:0:
64,192,159040,128,0,159212:0:0:0:0:
448,192,159040,1,0,0:0:0:0:
320,192,159126,1,0,0:0:0:0:
192,192,159212,128,0,159384:0:0:0:0:
448,192,159212,1,0,0:0:0:0:
320,192,159298,1,0,0:0:0:0:
448,192,159384,128,0,159557:0:0:0:0:
64,192,159384,1,0,0:0:0:0:
320,192,159471,1,0,0:0:0:0:
64,192,159557,128,0,159729:0:0:0:0:
192,192,159557,1,0,0:0:0:0:
320,192,159643,1,0,0:0:0:0:
192,192,159729,128,0,159902:0:0:0:0:
448,192,159729,1,0,0:0:0:0:
64,192,159815,1,0,0:0:0:0:
448,192,159902,128,0,160074:0:0:0:0:
320,192,159902,1,0,0:0:0:0:
64,192,159988,1,0,0:0:0:0:
320,192,160074,128,0,160247:0:0:0:0:
192,192,160074,1,0,0:0:0:0:
448,192,160160,1,0,0:0:0:0:
64,192,160247,128,0,160419:0:0:0:0:
192,192,160247,1,0,0:0:0:0:
320,192,160333,1,0,0:0:0:0:
192,192,160419,128,0,160592:0:0:0:0:
448,192,160419,1,0,0:0:0:0:
320,192,160506,1,0,0:0:0:0:
448,192,160592,128,0,160764:0:0:0:0:
64,192,160592,1,0,0:0:0:0:
320,192,160678,1,0,0:0:0:0:
64,192,160764,128,0,160937:0:0:0:0:
192,192,160764,1,0,0:0:0:0:
448,192,160850,1,0,0:0:0:0:
192,192,160937,128,0,161109:0:0:0:0:
320,192,160937,1,0,0:0:0:0:
448,192,161023,1,0,0:0:0:0:
320,192,161109,128,0,161281:0:0:0:0:
64,192,161109,1,0,0:0:0:0:
192,192,161195,1,0,0:0:0:0:
64,192,161281,128,0,161454:0:0:0:0:
448,192,161281,1,0,0:0:0:0:
320,192,161368,1,0,0:0:0:0:
192,192,161454,128,0,161626:0:0:0:0:
448,192,161454,1,0,0:0:0:0:
64,192,161540,1,0,0:0:0:0:
320,192,161626,128,0,161799:0:0:0:0:
448,192,161626,1,0,0:0:0:0:
192,192,161712,1,0,0:0:0:0:
64,192,161799,128,0,161971:0:0:0:0:
448,192,161799,1,0,0:0:0:0:
320,192,161885,1,0,0:0:0:0:
192,192,161971,128,0,162143:0:0:0:0:
448,192,161971,1,0,0:0:0:0:
320,192,162057,1,0,0:0:0:0:
448,192,162143,128,0,162316:0:0:0:0:
64,192,162143,1,0,0:0:0:0:
320,192,162230,1,0,0:0:0:0:
64,192,162316,128,0,162488:0:0:0:0:
192,192,162316,1,0,0:0:0:0:
320,192,162402,1,0,0:0:0:0:
192,192,162488,128,0,162661:0:0:0:0:
448,192,162488,1,0,0:0:0:0:
320,192,162574,1,0,0:0:0:0:
64,192,162660,128,0,162833:0:0:0:0:
448,192,162661,128,0,162833:0:0:0:0:
320,192,162833,128,0,163005:0:0:0:0:
192,192,162833,128,0,163005:0:0:0:0:
448,192,163005,128,0,163178:0:0:0:0:
64,192,163005,1,0,0:0:0:0:
192,192,163091,1,0,0:0:0:0:
320,192,163178,128,0,163351:0:0:0:0:
64,192,163178,1,0,0:0:0:0:
192,192,163265,1,0,0:0:0:0:
448,192,163351,1,0,0:0:0:0:
64,192,163351,128,0,163523:0:0:0:0:
192,192,163437,1,0,0:0:0:0:
320,192,163523,1,0,0:0:0:0:
448,192,163523,128,0,163696:0:0:0:0:
64,192,163609,1,0,0:0:0:0:
192,192,163696,1,0,0:0:0:0:
320,192,163696,128,0,163868:0:0:0:0:
64,192,163782,1,0,0:0:0:0:
448,192,163868,1,0,0:0:0:0:
192,192,163868,128,0,164040:0:0:0:0:
320,192,163954,1,0,0:0:0:0:
64,192,164040,1,0,0:0:0:0:
448,192,164040,128,0,164213:0:0:0:0:
192,192,164127,1,0,0:0:0:0:
64,192,164213,1,0,0:0:0:0:
320,192,164213,128,0,164385:0:0:0:0:
448,192,164299,1,0,0:0:0:0:
64,192,164385,1,0,0:0:0:0:
192,192,164385,128,0,164558:0:0:0:0:
320,192,164471,1,0,0:0:0:0:
64,192,164558,1,0,0:0:0:0:
448,192,164558,128,0,164730:0:0:0:0:
192,192,164644,1,0,0:0:0:0:
64,192,164730,1,0,0:0:0:0:
320,192,164730,128,0,164902:0:0:0:0:
192,192,164816,1,0,0:0:0:0:
448,192,164902,1,0,0:0:0:0:
64,192,164902,128,0,165075:0:0:0:0:
192,192,164989,1,0,0:0:0:0:
320,192,165075,1,0,0:0:0:0:
448,192,165075,128,0,165247:0:0:0:0:
192,192,165161,1,0,0:0:0:0:
64,192,165247,1,0,0:0:0:0:
320,192,165247,128,0,165420:0:0:0:0:
448,192,165333,1,0,0:0:0:0:
192,192,165420,1,0,0:0:0:0:
64,192,165420,128,0,165592:0:0:0:0:
448,192,165506,1,0,0:0:0:0:
320,192,165592,1,0,0:0:0:0:
192,192,165592,128,0,165765:0:0:0:0:
64,192,165678,1,0,0:0:0:0:
448,192,165764,128,0,165936:0:0:0:0:
320,192,165764,1,0,0:0:0:0:
192,192,165850,1,0,0:0:0:0:
320,192,165936,128,0,166109:0:0:0:0:
64,192,165936,1,0,0:0:0:0:
192,192,166022,1,0,0:0:0:0:
448,192,166109,1,0,0:0:0:0:
64,192,166109,128,0,166281:0:0:0:0:
192,192,166195,1,0,0:0:0:0:
320,192,166281,1,0,0:0:0:0:
448,192,166281,128,0,166454:0:0:0:0:
64,192,166367,1,0,0:0:0:0:
192,192,166454,1,0,0:0:0:0:
320,192,166454,128,0,166626:0:0:0:0:
64,192,166540,1,0,0:0:0:0:
448,192,166626,1,0,0:0:0:0:
192,192,166626,128,0,166798:0:0:0:0:
320,192,166712,1,0,0:0:0:0:
64,192,166798,1,0,0:0:0:0:
448,192,166798,128,0,166971:0:0:0:0:
192,192,166885,1,0,0:0:0:0:
64,192,166971,1,0,0:0:0:0:
320,192,166971,128,0,167143:0:0:0:0:
448,192,167057,1,0,0:0:0:0:
192,192,167143,1,0,0:0:0:0:
64,192,167229,1,0,0:0:0:0:
192,192,167229,1,0,0:0:0:0:
320,192,167229,1,0,0:0:0:0:
448,192,167229,1,0,0:0:0:0:
64,192,167315,1,0,0:0:0:0:
192,192,167315,1,0,0:0:0:0:
320,192,167315,1,0,0:0:0:0:
448,192,167315,1,0,0:0:0:0:
448,192,167402,1,0,0:0:0:0:
320,192,167402,1,0,0:0:0:0:
64,192,167402,1,0,0:0:0:0:
192,192,167402,1,0,0:0:0:0:
64,192,167488,1,0,0:0:0:0:
192,192,167488,1,0,0:0:0:0:
320,192,167488,1,0,0:0:0:0:
448,192,167488,1,0,0:0:0:0:
448,192,167574,1,0,0:0:0:0:
320,192,167574,1,0,0:0:0:0:
192,192,167574,1,0,0:0:0:0:
64,192,167574,1,0,0:0:0:0:
192,192,167660,1,0,0:0:0:0:
64,192,167747,1,0,0:0:0:0:
192,192,167747,1,0,0:0:0:0:
320,192,167747,1,0,0:0:0:0:
448,192,167747,1,0,0:0:0:0:
64,192,167833,1,0,0:0:0:0:
192,192,167833,1,0,0:0:0:0:
320,192,167833,1,0,0:0:0:0:
448,192,167833,1,0,0:0:0:0:
64,192,167919,1,0,0:0:0:0:
192,192,167919,1,0,0:0:0:0:
320,192,167919,1,0,0:0:0:0:
448,192,167919,1,0,0:0:0:0:
64,192,168005,1,0,0:0:0:0:
192,192,168005,1,0,0:0:0:0:
320,192,168005,1,0,0:0:0:0:
448,192,168005,1,0,0:0:0:0:
64,192,168091,1,0,0:0:0:0:
192,192,168091,1,0,0:0:0:0:
320,192,168091,1,0,0:0:0:0:
448,192,168091,1,0,0:0:0:0:
192,192,168178,1,0,0:0:0:0:
64,192,168264,1,0,0:0:0:0:
192,192,168264,1,0,0:0:0:0:
320,192,168264,1,0,0:0:0:0:
448,192,168264,1,0,0:0:0:0:
64,192,168350,1,0,0:0:0:0:
192,192,168350,1,0,0:0:0:0:
320,192,168350,1,0,0:0:0:0:
448,192,168350,1,0,0:0:0:0:
64,192,168436,1,0,0:0:0:0:
192,192,168436,1,0,0:0:0:0:
320,192,168436,1,0,0:0:0:0:
448,192,168436,1,0,0:0:0:0:
64,192,168522,128,0,168695:0:0:0:0:
192,192,168522,1,0,0:0:0:0:
320,192,168609,1,0,0:0:0:0:
192,192,168695,128,0,168868:0:0:0:0:
448,192,168695,1,0,0:0:0:0:
320,192,168782,1,0,0:0:0:0:
64,192,168868,1,0,0:0:0:0:
448,192,168868,128,0,169040:0:0:0:0:
320,192,168954,1,0,0:0:0:0:
192,192,169040,1,0,0:0:0:0:
64,192,169040,128,0,169213:0:0:0:0:
448,192,169126,1,0,0:0:0:0:
320,192,169213,1,0,0:0:0:0:
192,192,169213,128,0,169385:0:0:0:0:
448,192,169299,1,0,0:0:0:0:
64,192,169385,1,0,0:0:0:0:
320,192,169385,128,0,169557:0:0:0:0:
192,192,169471,1,0,0:0:0:0:
448,192,169557,1,0,0:0:0:0:
64,192,169557,128,0,169730:0:0:0:0:
320,192,169644,1,0,0:0:0:0:
448,192,169730,1,0,0:0:0:0:
192,192,169730,128,0,169902:0:0:0:0:
64,192,169816,1,0,0:0:0:0:
448,192,169902,1,0,0:0:0:0:
320,192,169902,128,0,170075:0:0:0:0:
192,192,169988,1,0,0:0:0:0:
448,192,170075,1,0,0:0:0:0:
64,192,170075,128,0,170247:0:0:0:0:
320,192,170161,1,0,0:0:0:0:
448,192,170247,1,0,0:0:0:0:
192,192,170247,128,0,170419:0:0:0:0:
320,192,170333,1,0,0:0:0:0:
64,192,170419,1,0,0:0:0:0:
448,192,170419,128,0,170592:0:0:0:0:
320,192,170506,1,0,0:0:0:0:
192,192,170592,1,0,0:0:0:0:
64,192,170592,128,0,170764:0:0:0:0:
320,192,170678,1,0,0:0:0:0:
448,192,170764,1,0,0:0:0:0:
192,192,170764,128,0,170937:0:0:0:0:
64,192,170850,1,0,0:0:0:0:
320,192,170937,1,0,0:0:0:0:
448,192,170937,128,0,171109:0:0:0:0:
64,192,171023,1,0,0:0:0:0:
192,192,171109,1,0,0:0:0:0:
320,192,171109,128,0,171282:0:0:0:0:
448,192,171195,1,0,0:0:0:0:
192,192,171282,1,0,0:0:0:0:
64,192,171282,128,0,171454:0:0:0:0:
320,192,171368,1,0,0:0:0:0:
448,192,171454,1,0,0:0:0:0:
192,192,171454,128,0,171627:0:0:0:0:
320,192,171541,1,0,0:0:0:0:
64,192,171627,1,0,0:0:0:0:
448,192,171627,128,0,171799:0:0:0:0:
320,192,171713,1,0,0:0:0:0:
192,192,171799,1,0,0:0:0:0:
64,192,171799,128,0,171972:0:0:0:0:
448,192,171885,1,0,0:0:0:0:
320,192,171972,1,0,0:0:0:0:
192,192,171972,128,0,172144:0:0:0:0:
448,192,172058,1,0,0:0:0:0:
64,192,172144,1,0,0:0:0:0:
320,192,172144,128,0,172316:0:0:0:0:
192,192,172230,1,0,0:0:0:0:
448,192,172316,1,0,0:0:0:0:
64,192,172316,128,0,172489:0:0:0:0:
320,192,172403,1,0,0:0:0:0:
448,192,172489,1,0,0:0:0:0:
192,192,172489,128,0,172661:0:0:0:0:
64,192,172575,1,0,0:0:0:0:
448,192,172661,1,0,0:0:0:0:
320,192,172661,128,0,172834:0:0:0:0:
192,192,172747,1,0,0:0:0:0:
448,192,172834,1,0,0:0:0:0:
64,192,172834,128,0,173006:0:0:0:0:
320,192,172920,1,0,0:0:0:0:
448,192,173006,1,0,0:0:0:0:
192,192,173006,128,0,173178:0:0:0:0:
320,192,173092,1,0,0:0:0:0:
64,192,173178,1,0,0:0:0:0:
448,192,173178,128,0,173351:0:0:0:0:
320,192,173265,1,0,0:0:0:0:
192,192,173351,1,0,0:0:0:0:
64,192,173351,128,0,173523:0:0:0:0:
320,192,173437,1,0,0:0:0:0:
448,192,173523,1,0,0:0:0:0:
192,192,173523,128,0,173696:0:0:0:0:
320,192,173609,1,0,0:0:0:0:
64,192,173695,128,0,173868:0:0:0:0:
448,192,173696,128,0,173868:0:0:0:0:
192,192,173868,128,0,174040:0:0:0:0:
320,192,173868,128,0,174040:0:0:0:0:
64,192,174040,1,0,0:0:0:0:
448,192,174040,128,0,174213:0:0:0:0:
192,192,174126,1,0,0:0:0:0:
64,192,174213,1,0,0:0:0:0:
320,192,174213,128,0,174386:0:0:0:0:
192,192,174300,1,0,0:0:0:0:
64,192,174386,128,0,174558:0:0:0:0:
448,192,174386,1,0,0:0:0:0:
192,192,174472,1,0,0:0:0:0:
448,192,174558,128,0,174731:0:0:0:0:
320,192,174558,1,0,0:0:0:0:
64,192,174644,1,0,0:0:0:0:
320,192,174731,128,0,174903:0:0:0:0:
192,192,174731,1,0,0:0:0:0:
64,192,174817,1,0,0:0:0:0:
192,192,174903,128,0,175075:0:0:0:0:
448,192,174903,1,0,0:0:0:0:
320,192,174989,1,0,0:0:0:0:
448,192,175075,128,0,175248:0:0:0:0:
64,192,175075,1,0,0:0:0:0:
192,192,175162,1,0,0:0:0:0:
320,192,175248,128,0,175420:0:0:0:0:
64,192,175248,1,0,0:0:0:0:
448,192,175334,1,0,0:0:0:0:
192,192,175420,128,0,175593:0:0:0:0:
64,192,175420,1,0,0:0:0:0:
320,192,175506,1,0,0:0:0:0:
448,192,175593,128,0,175765:0:0:0:0:
64,192,175593,1,0,0:0:0:0:
192,192,175679,1,0,0:0:0:0:
320,192,175765,128,0,175937:0:0:0:0:
64,192,175765,1,0,0:0:0:0:
192,192,175851,1,0,0:0:0:0:
64,192,175937,128,0,176110:0:0:0:0:
448,192,175937,1,0,0:0:0:0:
192,192,176024,1,0,0:0:0:0:
448,192,176110,128,0,176282:0:0:0:0:
320,192,176110,1,0,0:0:0:0:
192,192,176196,1,0,0:0:0:0:
320,192,176282,128,0,176455:0:0:0:0:
64,192,176282,1,0,0:0:0:0:
448,192,176368,1,0,0:0:0:0:
64,192,176455,128,0,176627:0:0:0:0:
192,192,176455,1,0,0:0:0:0:
448,192,176541,1,0,0:0:0:0:
192,192,176627,128,0,176800:0:0:0:0:
320,192,176627,1,0,0:0:0:0:
64,192,176713,1,0,0:0:0:0:
320,192,176799,1,0,0:0:0:0:
448,192,176799,128,0,176971:0:0:0:0:
192,192,176885,1,0,0:0:0:0:
64,192,176971,1,0,0:0:0:0:
320,192,176971,128,0,177144:0:0:0:0:
192,192,177057,1,0,0:0:0:0:
64,192,177144,128,0,177316:0:0:0:0:
448,192,177144,1,0,0:0:0:0:
192,192,177230,1,0,0:0:0:0:
448,192,177316,128,0,177489:0:0:0:0:
320,192,177316,1,0,0:0:0:0:
64,192,177402,1,0,0:0:0:0:
320,192,177489,128,0,177661:0:0:0:0:
192,192,177489,1,0,0:0:0:0:
64,192,177575,1,0,0:0:0:0:
192,192,177661,128,0,177833:0:0:0:0:
448,192,177661,1,0,0:0:0:0:
320,192,177747,1,0,0:0:0:0:
448,192,177833,128,0,178006:0:0:0:0:
64,192,177833,1,0,0:0:0:0:
192,192,177920,1,0,0:0:0:0:
320,192,178006,128,0,178178:0:0:0:0:
64,192,178006,1,0,0:0:0:0:
448,192,178092,1,0,0:0:0:0:
192,192,178178,1,0,0:0:0:0:
320,192,178264,1,0,0:0:0:0:
448,192,178264,1,0,0:0:0:0:
64,192,178264,1,0,0:0:0:0:
192,192,178264,1,0,0:0:0:0:
320,192,178350,1,0,0:0:0:0:
448,192,178350,1,0,0:0:0:0:
64,192,178350,1,0,0:0:0:0:
192,192,178350,1,0,0:0:0:0:
64,192,178437,1,0,0:0:0:0:
192,192,178437,1,0,0:0:0:0:
448,192,178437,1,0,0:0:0:0:
320,192,178437,1,0,0:0:0:0:
320,192,178523,1,0,0:0:0:0:
448,192,178523,1,0,0:0:0:0:
64,192,178523,1,0,0:0:0:0:
192,192,178523,1,0,0:0:0:0:
192,192,178609,1,0,0:0:0:0:
64,192,178609,1,0,0:0:0:0:
448,192,178609,1,0,0:0:0:0:
320,192,178609,1,0,0:0:0:0:
192,192,178695,1,0,0:0:0:0:
320,192,178782,1,0,0:0:0:0:
448,192,178782,1,0,0:0:0:0:
64,192,178782,1,0,0:0:0:0:
192,192,178782,1,0,0:0:0:0:
320,192,178868,1,0,0:0:0:0:
448,192,178868,1,0,0:0:0:0:
64,192,178868,1,0,0:0:0:0:
192,192,178868,1,0,0:0:0:0:
320,192,178954,1,0,0:0:0:0:
448,192,178954,1,0,0:0:0:0:
64,192,178954,1,0,0:0:0:0:
192,192,178954,1,0,0:0:0:0:
320,192,179040,1,0,0:0:0:0:
448,192,179040,1,0,0:0:0:0:
64,192,179040,1,0,0:0:0:0:
192,192,179040,1,0,0:0:0:0:
320,192,179126,1,0,0:0:0:0:
448,192,179126,1,0,0:0:0:0:
64,192,179126,1,0,0:0:0:0:
192,192,179126,1,0,0:0:0:0:
192,192,179213,1,0,0:0:0:0:
320,192,179299,1,0,0:0:0:0:
448,192,179299,1,0,0:0:0:0:
64,192,179299,1,0,0:0:0:0:
192,192,179299,1,0,0:0:0:0:
320,192,179385,1,0,0:0:0:0:
448,192,179385,1,0,0:0:0:0:
64,192,179385,1,0,0:0:0:0:
192,192,179385,1,0,0:0:0:0:
320,192,179471,1,0,0:0:0:0:
448,192,179471,1,0,0:0:0:0:
64,192,179471,1,0,0:0:0:0:
192,192,179471,1,0,0:0:0:0:
64,192,179557,1,0,0:0:0:0:
192,192,179557,1,0,0:0:0:0:
320,192,179557,1,0,0:0:0:0:
448,192,179557,1,0,0:0:0:0:
64,192,179643,1,0,0:0:0:0:
192,192,179643,1,0,0:0:0:0:
192,192,179729,1,0,0:0:0:0:
64,192,179729,1,0,0:0:0:0:
192,192,179815,1,0,0:0:0:0:
64,192,179815,1,0,0:0:0:0:
64,192,179901,1,0,0:0:0:0:
192,192,179901,1,0,0:0:0:0:
320,192,179901,1,0,0:0:0:0:
448,192,179901,1,0,0:0:0:0:
448,192,179987,1,0,0:0:0:0:
320,192,179987,1,0,0:0:0:0:
320,192,180074,1,0,0:0:0:0:
448,192,180074,1,0,0:0:0:0:
448,192,180160,1,0,0:0:0:0:
320,192,180160,1,0,0:0:0:0:
192,192,180246,1,0,0:0:0:0:
64,192,180246,1,0,0:0:0:0:
320,192,180246,1,0,0:0:0:0:
448,192,180246,1,0,0:0:0:0:
448,192,180332,1,0,0:0:0:0:
320,192,180332,1,0,0:0:0:0:
320,192,180418,1,0,0:0:0:0:
192,192,180418,1,0,0:0:0:0:
320,192,180505,1,0,0:0:0:0:
192,192,180505,1,0,0:0:0:0:
64,192,180591,1,0,0:0:0:0:
448,192,180591,1,0,0:0:0:0:
192,192,180591,1,0,0:0:0:0:
320,192,180591,1,0,0:0:0:0:
320,192,180677,1,0,0:0:0:0:
192,192,180677,1,0,0:0:0:0:
320,192,180763,1,0,0:0:0:0:
192,192,180763,1,0,0:0:0:0:
320,192,180850,1,0,0:0:0:0:
192,192,180850,1,0,0:0:0:0:
320,192,180936,1,0,0:0:0:0:
448,192,180936,1,0,0:0:0:0:
192,192,180936,1,0,0:0:0:0:
64,192,180936,1,0,0:0:0:0:
64,192,181022,1,0,0:0:0:0:
192,192,181022,1,0,0:0:0:0:
64,192,181108,1,0,0:0:0:0:
192,192,181108,1,0,0:0:0:0:
192,192,181194,1,0,0:0:0:0:
64,192,181194,1,0,0:0:0:0:
320,192,181281,1,0,0:0:0:0:
448,192,181281,1,0,0:0:0:0:
64,192,181281,1,0,0:0:0:0:
192,192,181281,1,0,0:0:0:0:
192,192,181367,1,0,0:0:0:0:
64,192,181367,1,0,0:0:0:0:
320,192,181453,1,0,0:0:0:0:
192,192,181453,1,0,0:0:0:0:
320,192,181539,1,0,0:0:0:0:
192,192,181539,1,0,0:0:0:0:
64,192,181625,1,0,0:0:0:0:
448,192,181625,1,0,0:0:0:0:
192,192,181625,1,0,0:0:0:0:
320,192,181625,1,0,0:0:0:0:
320,192,181712,1,0,0:0:0:0:
192,192,181712,1,0,0:0:0:0:
320,192,181798,1,0,0:0:0:0:
192,192,181798,1,0,0:0:0:0:
320,192,181884,1,0,0:0:0:0:
192,192,181884,1,0,0:0:0:0:
192,192,181970,1,0,0:0:0:0:
64,192,181970,1,0,0:0:0:0:
320,192,181970,1,0,0:0:0:0:
448,192,181970,1,0,0:0:0:0:
448,192,182056,1,0,0:0:0:0:
320,192,182056,1,0,0:0:0:0:
448,192,182143,1,0,0:0:0:0:
320,192,182143,1,0,0:0:0:0:
448,192,182229,1,0,0:0:0:0:
320,192,182229,1,0,0:0:0:0:
320,192,182315,1,0,0:0:0:0:
448,192,182315,1,0,0:0:0:0:
64,192,182315,1,0,0:0:0:0:
192,192,182315,1,0,0:0:0:0:
192,192,182401,1,0,0:0:0:0:
64,192,182401,1,0,0:0:0:0:
192,192,182487,1,0,0:0:0:0:
64,192,182487,1,0,0:0:0:0:
192,192,182574,1,0,0:0:0:0:
64,192,182574,1,0,0:0:0:0:
320,192,182660,1,0,0:0:0:0:
64,192,182660,1,0,0:0:0:0:
192,192,182660,1,0,0:0:0:0:
448,192,182660,1,0,0:0:0:0:
448,192,182746,1,0,0:0:0:0:
192,192,182746,1,0,0:0:0:0:
448,192,182832,1,0,0:0:0:0:
192,192,182832,1,0,0:0:0:0:
448,192,182918,1,0,0:0:0:0:
192,192,182918,1,0,0:0:0:0:
64,192,183005,1,0,0:0:0:0:
320,192,183005,1,0,0:0:0:0:
192,192,183005,1,0,0:0:0:0:
448,192,183005,1,0,0:0:0:0:
448,192,183091,1,0,0:0:0:0:
192,192,183091,1,0,0:0:0:0:
192,192,183177,1,0,0:0:0:0:
64,192,183177,1,0,0:0:0:0:
192,192,183263,1,0,0:0:0:0:
64,192,183263,1,0,0:0:0:0:
320,192,183350,1,0,0:0:0:0:
448,192,183350,1,0,0:0:0:0:
64,192,183350,1,0,0:0:0:0:
192,192,183350,1,0,0:0:0:0:
192,192,183436,1,0,0:0:0:0:
64,192,183436,1,0,0:0:0:0:
192,192,183522,1,0,0:0:0:0:
64,192,183522,1,0,0:0:0:0:
192,192,183608,1,0,0:0:0:0:
64,192,183608,1,0,0:0:0:0:
192,192,183694,1,0,0:0:0:0:
64,192,183694,1,0,0:0:0:0:
448,192,183694,1,0,0:0:0:0:
320,192,183694,1,0,0:0:0:0:
320,192,183781,1,0,0:0:0:0:
448,192,183781,1,0,0:0:0:0:
320,192,183867,1,0,0:0:0:0:
448,192,183867,1,0,0:0:0:0:
320,192,183953,1,0,0:0:0:0:
448,192,183953,1,0,0:0:0:0:
192,192,184039,1,0,0:0:0:0:
64,192,184039,1,0,0:0:0:0:
448,192,184039,1,0,0:0:0:0:
320,192,184039,1,0,0:0:0:0:
448,192,184125,1,0,0:0:0:0:
320,192,184125,1,0,0:0:0:0:
448,192,184212,1,0,0:0:0:0:
192,192,184212,1,0,0:0:0:0:
448,192,184298,1,0,0:0:0:0:
192,192,184298,1,0,0:0:0:0:
64,192,184384,1,0,0:0:0:0:
320,192,184384,1,0,0:0:0:0:
192,192,184384,1,0,0:0:0:0:
448,192,184384,1,0,0:0:0:0:
448,192,184470,1,0,0:0:0:0:
192,192,184470,1,0,0:0:0:0:
448,192,184556,1,0,0:0:0:0:
192,192,184556,1,0,0:0:0:0:
448,192,184643,1,0,0:0:0:0:
192,192,184643,1,0,0:0:0:0:
192,192,184729,1,0,0:0:0:0:
448,192,184729,1,0,0:0:0:0:
320,192,184729,1,0,0:0:0:0:
64,192,184729,1,0,0:0:0:0:
320,192,184815,1,0,0:0:0:0:
64,192,184815,1,0,0:0:0:0:
320,192,184901,1,0,0:0:0:0:
64,192,184901,1,0,0:0:0:0:
320,192,184987,1,0,0:0:0:0:
64,192,184987,1,0,0:0:0:0:
320,192,185074,1,0,0:0:0:0:
448,192,185074,1,0,0:0:0:0:
64,192,185074,1,0,0:0:0:0:
192,192,185074,1,0,0:0:0:0:
192,192,185160,1,0,0:0:0:0:
64,192,185160,1,0,0:0:0:0:
64,192,185246,1,0,0:0:0:0:
192,192,185246,1,0,0:0:0:0:
192,192,185332,1,0,0:0:0:0:
64,192,185332,1,0,0:0:0:0:
64,192,185418,1,0,0:0:0:0:
192,192,185418,1,0,0:0:0:0:
320,192,185418,1,0,0:0:0:0:
448,192,185418,1,0,0:0:0:0:
448,192,185505,1,0,0:0:0:0:
320,192,185505,1,0,0:0:0:0:
448,192,185591,1,0,0:0:0:0:
320,192,185591,1,0,0:0:0:0:
448,192,185677,1,0,0:0:0:0:
320,192,185677,1,0,0:0:0:0:
64,192,185763,1,0,0:0:0:0:
192,192,185763,1,0,0:0:0:0:
320,192,185763,1,0,0:0:0:0:
448,192,185763,1,0,0:0:0:0:
448,192,185850,1,0,0:0:0:0:
320,192,185850,1,0,0:0:0:0:
192,192,185936,1,0,0:0:0:0:
320,192,185936,1,0,0:0:0:0:
320,192,186022,1,0,0:0:0:0:
192,192,186022,1,0,0:0:0:0:
64,192,186108,1,0,0:0:0:0:
448,192,186108,1,0,0:0:0:0:
192,192,186108,1,0,0:0:0:0:
320,192,186108,1,0,0:0:0:0:
192,192,186194,1,0,0:0:0:0:
320,192,186194,1,0,0:0:0:0:
192,192,186281,1,0,0:0:0:0:
320,192,186281,1,0,0:0:0:0:
192,192,186367,1,0,0:0:0:0:
320,192,186367,1,0,0:0:0:0:
448,192,186453,1,0,0:0:0:0:
320,192,186453,1,0,0:0:0:0:
64,192,186453,1,0,0:0:0:0:
192,192,186453,1,0,0:0:0:0:
320,192,186539,1,0,0:0:0:0:
64,192,186539,1,0,0:0:0:0:
64,192,186625,1,0,0:0:0:0:
320,192,186625,1,0,0:0:0:0:
320,192,186712,1,0,0:0:0:0:
64,192,186712,1,0,0:0:0:0:
448,192,186798,1,0,0:0:0:0:
192,192,186798,1,0,0:0:0:0:
320,192,186798,1,0,0:0:0:0:
64,192,186798,1,0,0:0:0:0:
320,192,186884,1,0,0:0:0:0:
64,192,186884,1,0,0:0:0:0:
320,192,186970,1,0,0:0:0:0:
192,192,186970,1,0,0:0:0:0:
192,192,187056,1,0,0:0:0:0:
320,192,187056,1,0,0:0:0:0:
64,192,187143,1,0,0:0:0:0:
448,192,187143,1,0,0:0:0:0:
192,192,187143,1,0,0:0:0:0:
320,192,187143,1,0,0:0:0:0:
192,192,187229,1,0,0:0:0:0:
320,192,187229,1,0,0:0:0:0:
320,192,187315,1,0,0:0:0:0:
192,192,187315,1,0,0:0:0:0:
320,192,187401,1,0,0:0:0:0:
192,192,187401,1,0,0:0:0:0:
192,192,187487,1,0,0:0:0:0:
448,192,187487,1,0,0:0:0:0:
64,192,187487,1,0,0:0:0:0:
320,192,187487,1,0,0:0:0:0:
320,192,187573,1,0,0:0:0:0:
64,192,187574,1,0,0:0:0:0:
320,192,187659,1,0,0:0:0:0:
64,192,187660,1,0,0:0:0:0:
64,192,187746,1,0,0:0:0:0:
320,192,187746,1,0,0:0:0:0:
320,192,187832,1,0,0:0:0:0:
448,192,187832,1,0,0:0:0:0:
64,192,187832,1,0,0:0:0:0:
192,192,187832,1,0,0:0:0:0:
192,192,187918,1,0,0:0:0:0:
64,192,187918,1,0,0:0:0:0:
192,192,188005,1,0,0:0:0:0:
64,192,188005,1,0,0:0:0:0:
192,192,188091,1,0,0:0:0:0:
64,192,188091,1,0,0:0:0:0:
192,192,188177,1,0,0:0:0:0:
64,192,188177,1,0,0:0:0:0:
320,192,188177,1,0,0:0:0:0:
448,192,188177,1,0,0:0:0:0:
320,192,188263,1,0,0:0:0:0:
448,192,188263,1,0,0:0:0:0:
448,192,188349,1,0,0:0:0:0:
320,192,188349,1,0,0:0:0:0:
320,192,188436,1,0,0:0:0:0:
448,192,188436,1,0,0:0:0:0:
64,192,188522,1,0,0:0:0:0:
192,192,188522,1,0,0:0:0:0:
320,192,188522,1,0,0:0:0:0:
448,192,188522,1,0,0:0:0:0:
448,192,188608,1,0,0:0:0:0:
320,192,188608,1,0,0:0:0:0:
192,192,188694,1,0,0:0:0:0:
448,192,188694,1,0,0:0:0:0:
448,192,188780,1,0,0:0:0:0:
192,192,188781,1,0,0:0:0:0:
448,192,188866,1,0,0:0:0:0:
320,192,188867,1,0,0:0:0:0:
64,192,188867,1,0,0:0:0:0:
192,192,188867,1,0,0:0:0:0:
448,192,188953,1,0,0:0:0:0:
192,192,188953,1,0,0:0:0:0:
192,192,189039,1,0,0:0:0:0:
448,192,189039,1,0,0:0:0:0:
192,192,189125,1,0,0:0:0:0:
448,192,189125,1,0,0:0:0:0:
192,192,189212,1,0,0:0:0:0:
64,192,189212,1,0,0:0:0:0:
320,192,189212,1,0,0:0:0:0:
448,192,189212,128,0,189729:0:0:0:0:
192,192,189298,1,0,0:0:0:0:
320,192,189298,1,0,0:0:0:0:
64,192,189298,1,0,0:0:0:0:
192,192,189384,1,0,0:0:0:0:
64,192,189384,1,0,0:0:0:0:
320,192,189384,1,0,0:0:0:0:
192,192,189470,1,0,0:0:0:0:
320,192,189470,1,0,0:0:0:0:
64,192,189470,1,0,0:0:0:0:
192,192,189556,1,0,0:0:0:0:
64,192,189556,1,0,0:0:0:0:
320,192,189556,1,0,0:0:0:0:
64,192,189643,1,0,0:0:0:0:
192,192,189643,1,0,0:0:0:0:
320,192,189643,1,0,0:0:0:0:
64,192,189729,1,0,0:0:0:0:
192,192,189729,1,0,0:0:0:0:
320,192,189729,128,0,190247:0:0:0:0:
448,192,189815,1,0,0:0:0:0:
64,192,189815,1,0,0:0:0:0:
192,192,189815,1,0,0:0:0:0:
448,192,189901,1,0,0:0:0:0:
64,192,189901,1,0,0:0:0:0:
192,192,189901,1,0,0:0:0:0:
448,192,189987,1,0,0:0:0:0:
64,192,189987,1,0,0:0:0:0:
192,192,189987,1,0,0:0:0:0:
448,192,190074,1,0,0:0:0:0:
64,192,190074,1,0,0:0:0:0:
192,192,190074,1,0,0:0:0:0:
64,192,190160,1,0,0:0:0:0:
192,192,190160,1,0,0:0:0:0:
448,192,190160,1,0,0:0:0:0:
448,192,190246,1,0,0:0:0:0:
64,192,190246,1,0,0:0:0:0:
192,192,190247,128,0,190591:0:0:0:0:
448,192,190332,1,0,0:0:0:0:
64,192,190332,1,0,0:0:0:0:
320,192,190332,1,0,0:0:0:0:
448,192,190418,1,0,0:0:0:0:
320,192,190418,1,0,0:0:0:0:
64,192,190418,1,0,0:0:0:0:
448,192,190505,1,0,0:0:0:0:
64,192,190505,1,0,0:0:0:0:
320,192,190505,1,0,0:0:0:0:
320,192,190591,1,0,0:0:0:0:
448,192,190591,1,0,0:0:0:0:
64,192,190591,1,0,0:0:0:0:
192,192,190677,1,0,0:0:0:0:
64,192,190677,1,0,0:0:0:0:
64,192,190763,1,0,0:0:0:0:
192,192,190763,1,0,0:0:0:0:
64,192,190849,1,0,0:0:0:0:
192,192,190849,1,0,0:0:0:0:
320,192,190935,1,0,0:0:0:0:
448,192,190935,1,0,0:0:0:0:
64,192,190935,1,0,0:0:0:0:
192,192,190935,1,0,0:0:0:0:
320,192,191021,1,0,0:0:0:0:
448,192,191021,1,0,0:0:0:0:
448,192,191108,1,0,0:0:0:0:
320,192,191108,1,0,0:0:0:0:
320,192,191194,1,0,0:0:0:0:
448,192,191194,1,0,0:0:0:0:
320,192,191280,1,0,0:0:0:0:
448,192,191280,1,0,0:0:0:0:
192,192,191280,1,0,0:0:0:0:
64,192,191280,1,0,0:0:0:0:
320,192,191366,1,0,0:0:0:0:
448,192,191366,1,0,0:0:0:0:
192,192,191452,1,0,0:0:0:0:
320,192,191452,1,0,0:0:0:0:
192,192,191539,1,0,0:0:0:0:
320,192,191539,1,0,0:0:0:0:
192,192,191625,1,0,0:0:0:0:
320,192,191625,1,0,0:0:0:0:
64,192,191625,1,0,0:0:0:0:
448,192,191625,1,0,0:0:0:0:
192,192,191711,1,0,0:0:0:0:
320,192,191711,1,0,0:0:0:0:
192,192,191797,1,0,0:0:0:0:
320,192,191797,1,0,0:0:0:0:
192,192,191884,1,0,0:0:0:0:
320,192,191884,1,0,0:0:0:0:
192,192,191970,1,0,0:0:0:0:
64,192,191970,1,0,0:0:0:0:
320,192,191970,1,0,0:0:0:0:
448,192,191970,1,0,0:0:0:0:
192,192,192056,1,0,0:0:0:0:
64,192,192056,1,0,0:0:0:0:
192,192,192142,1,0,0:0:0:0:
64,192,192142,1,0,0:0:0:0:
64,192,192228,1,0,0:0:0:0:
192,192,192228,1,0,0:0:0:0:
64,192,192315,1,0,0:0:0:0:
192,192,192315,1,0,0:0:0:0:
320,192,192315,1,0,0:0:0:0:
448,192,192315,1,0,0:0:0:0:
64,192,192401,1,0,0:0:0:0:
192,192,192401,1,0,0:0:0:0:
192,192,192487,1,0,0:0:0:0:
320,192,192487,1,0,0:0:0:0:
192,192,192573,1,0,0:0:0:0:
320,192,192573,1,0,0:0:0:0:
192,192,192659,1,0,0:0:0:0:
320,192,192659,1,0,0:0:0:0:
64,192,192659,1,0,0:0:0:0:
448,192,192659,1,0,0:0:0:0:
192,192,192746,1,0,0:0:0:0:
320,192,192746,1,0,0:0:0:0:
192,192,192832,1,0,0:0:0:0:
320,192,192832,1,0,0:0:0:0:
192,192,192918,1,0,0:0:0:0:
320,192,192918,1,0,0:0:0:0:
320,192,193004,1,0,0:0:0:0:
448,192,193004,1,0,0:0:0:0:
192,192,193004,1,0,0:0:0:0:
64,192,193004,1,0,0:0:0:0:
320,192,193090,1,0,0:0:0:0:
448,192,193090,1,0,0:0:0:0:
320,192,193177,1,0,0:0:0:0:
448,192,193177,1,0,0:0:0:0:
320,192,193263,1,0,0:0:0:0:
448,192,193263,1,0,0:0:0:0:
64,192,193349,1,0,0:0:0:0:
192,192,193349,1,0,0:0:0:0:
320,192,193349,1,0,0:0:0:0:
448,192,193349,1,0,0:0:0:0:
64,192,193435,1,0,0:0:0:0:
192,192,193435,1,0,0:0:0:0:
64,192,193521,1,0,0:0:0:0:
192,192,193521,1,0,0:0:0:0:
64,192,193608,1,0,0:0:0:0:
192,192,193608,1,0,0:0:0:0:
192,192,193694,1,0,0:0:0:0:
448,192,193694,1,0,0:0:0:0:
320,192,193694,1,0,0:0:0:0:
64,192,193694,1,0,0:0:0:0:
192,192,193780,1,0,0:0:0:0:
448,192,193780,1,0,0:0:0:0:
192,192,193866,1,0,0:0:0:0:
448,192,193866,1,0,0:0:0:0:
192,192,193952,1,0,0:0:0:0:
448,192,193952,1,0,0:0:0:0:
192,192,194039,1,0,0:0:0:0:
448,192,194039,1,0,0:0:0:0:
64,192,194039,1,0,0:0:0:0:
320,192,194039,1,0,0:0:0:0:
192,192,194125,1,0,0:0:0:0:
448,192,194125,1,0,0:0:0:0:
64,192,194211,1,0,0:0:0:0:
192,192,194211,1,0,0:0:0:0:
64,192,194297,1,0,0:0:0:0:
192,192,194297,1,0,0:0:0:0:
64,192,194384,1,0,0:0:0:0:
192,192,194384,1,0,0:0:0:0:
320,192,194384,1,0,0:0:0:0:
448,192,194384,1,0,0:0:0:0:
64,192,194470,1,0,0:0:0:0:
192,192,194470,1,0,0:0:0:0:
64,192,194556,1,0,0:0:0:0:
192,192,194556,1,0,0:0:0:0:
64,192,194642,1,0,0:0:0:0:
192,192,194642,1,0,0:0:0:0:
448,192,194728,1,0,0:0:0:0:
320,192,194728,1,0,0:0:0:0:
192,192,194728,1,0,0:0:0:0:
64,192,194728,1,0,0:0:0:0:
448,192,194815,1,0,0:0:0:0:
320,192,194815,1,0,0:0:0:0:
448,192,194901,1,0,0:0:0:0:
320,192,194901,1,0,0:0:0:0:
448,192,194987,1,0,0:0:0:0:
320,192,194987,1,0,0:0:0:0:
448,192,195073,1,0,0:0:0:0:
320,192,195073,1,0,0:0:0:0:
192,192,195073,1,0,0:0:0:0:
64,192,195073,1,0,0:0:0:0:
320,192,195159,1,0,0:0:0:0:
448,192,195159,1,0,0:0:0:0:
192,192,195246,1,0,0:0:0:0:
448,192,195246,1,0,0:0:0:0:
192,192,195332,1,0,0:0:0:0:
448,192,195332,1,0,0:0:0:0:
192,192,195418,1,0,0:0:0:0:
448,192,195418,1,0,0:0:0:0:
64,192,195418,1,0,0:0:0:0:
320,192,195418,1,0,0:0:0:0:
192,192,195504,1,0,0:0:0:0:
448,192,195504,1,0,0:0:0:0:
192,192,195590,1,0,0:0:0:0:
448,192,195590,1,0,0:0:0:0:
192,192,195677,1,0,0:0:0:0:
448,192,195677,1,0,0:0:0:0:
320,192,195763,1,0,0:0:0:0:
64,192,195763,1,0,0:0:0:0:
192,192,195763,1,0,0:0:0:0:
448,192,195763,1,0,0:0:0:0:
64,192,195849,1,0,0:0:0:0:
320,192,195849,1,0,0:0:0:0:
64,192,195935,1,0,0:0:0:0:
320,192,195935,1,0,0:0:0:0:
64,192,196021,1,0,0:0:0:0:
320,192,196021,1,0,0:0:0:0:
64,192,196108,1,0,0:0:0:0:
192,192,196108,1,0,0:0:0:0:
320,192,196108,1,0,0:0:0:0:
448,192,196108,1,0,0:0:0:0:
64,192,196194,1,0,0:0:0:0:
192,192,196194,1,0,0:0:0:0:
192,192,196280,1,0,0:0:0:0:
64,192,196280,1,0,0:0:0:0:
64,192,196366,1,0,0:0:0:0:
192,192,196366,1,0,0:0:0:0:
320,192,196452,1,0,0:0:0:0:
448,192,196452,1,0,0:0:0:0:
64,192,196452,1,0,0:0:0:0:
192,192,196452,1,0,0:0:0:0:
320,192,196539,1,0,0:0:0:0:
448,192,196539,1,0,0:0:0:0:
320,192,196625,1,0,0:0:0:0:
448,192,196625,1,0,0:0:0:0:
320,192,196711,1,0,0:0:0:0:
448,192,196711,1,0,0:0:0:0:
320,192,196797,1,0,0:0:0:0:
448,192,196797,1,0,0:0:0:0:
64,192,196797,1,0,0:0:0:0:
192,192,196797,1,0,0:0:0:0:
320,192,196884,1,0,0:0:0:0:
448,192,196884,1,0,0:0:0:0:
320,192,196970,1,0,0:0:0:0:
192,192,196970,1,0,0:0:0:0:
192,192,197056,1,0,0:0:0:0:
320,192,197056,1,0,0:0:0:0:
192,192,197142,1,0,0:0:0:0:
320,192,197142,1,0,0:0:0:0:
64,192,197142,1,0,0:0:0:0:
448,192,197142,1,0,0:0:0:0:
320,192,197228,1,0,0:0:0:0:
192,192,197228,1,0,0:0:0:0:
320,192,197315,1,0,0:0:0:0:
192,192,197315,1,0,0:0:0:0:
320,192,197401,1,0,0:0:0:0:
192,192,197401,1,0,0:0:0:0:
64,192,197487,1,0,0:0:0:0:
320,192,197487,1,0,0:0:0:0:
448,192,197487,1,0,0:0:0:0:
192,192,197488,1,0,0:0:0:0:
64,192,197573,1,0,0:0:0:0:
320,192,197573,1,0,0:0:0:0:
320,192,197659,1,0,0:0:0:0:
64,192,197659,1,0,0:0:0:0:
64,192,197746,1,0,0:0:0:0:
320,192,197746,1,0,0:0:0:0:
320,192,197832,1,0,0:0:0:0:
64,192,197832,1,0,0:0:0:0:
448,192,197832,1,0,0:0:0:0:
192,192,197832,1,0,0:0:0:0:
64,192,197918,1,0,0:0:0:0:
320,192,197918,1,0,0:0:0:0:
192,192,198004,1,0,0:0:0:0:
320,192,198004,1,0,0:0:0:0:
320,192,198090,1,0,0:0:0:0:
192,192,198090,1,0,0:0:0:0:
192,192,198177,1,0,0:0:0:0:
320,192,198177,1,0,0:0:0:0:
64,192,198177,1,0,0:0:0:0:
448,192,198177,1,0,0:0:0:0:
320,192,198263,1,0,0:0:0:0:
192,192,198263,1,0,0:0:0:0:
192,192,198349,1,0,0:0:0:0:
320,192,198349,1,0,0:0:0:0:
192,192,198435,1,0,0:0:0:0:
320,192,198435,1,0,0:0:0:0:
64,192,198521,1,0,0:0:0:0:
320,192,198521,1,0,0:0:0:0:
192,192,198521,1,0,0:0:0:0:
448,192,198521,1,0,0:0:0:0:
320,192,198607,1,0,0:0:0:0:
64,192,198608,1,0,0:0:0:0:
320,192,198693,1,0,0:0:0:0:
64,192,198694,1,0,0:0:0:0:
320,192,198780,1,0,0:0:0:0:
64,192,198780,1,0,0:0:0:0:
64,192,198866,1,0,0:0:0:0:
192,192,198866,1,0,0:0:0:0:
320,192,198866,1,0,0:0:0:0:
448,192,198866,1,0,0:0:0:0:
64,192,198952,1,0,0:0:0:0:
192,192,198952,1,0,0:0:0:0:
64,192,199039,1,0,0:0:0:0:
192,192,199039,1,0,0:0:0:0:
64,192,199125,1,0,0:0:0:0:
192,192,199125,1,0,0:0:0:0:
320,192,199211,1,0,0:0:0:0:
448,192,199211,1,0,0:0:0:0:
192,192,199211,1,0,0:0:0:0:
64,192,199211,1,0,0:0:0:0:
448,192,199297,1,0,0:0:0:0:
320,192,199297,1,0,0:0:0:0:
320,192,199383,1,0,0:0:0:0:
448,192,199383,1,0,0:0:0:0:
448,192,199470,1,0,0:0:0:0:
320,192,199470,1,0,0:0:0:0:
320,192,199556,1,0,0:0:0:0:
448,192,199556,1,0,0:0:0:0:
64,192,199556,1,0,0:0:0:0:
192,192,199556,1,0,0:0:0:0:
320,192,199642,1,0,0:0:0:0:
448,192,199642,1,0,0:0:0:0:
448,192,199728,1,0,0:0:0:0:
192,192,199728,1,0,0:0:0:0:
448,192,199814,1,0,0:0:0:0:
192,192,199815,1,0,0:0:0:0:
448,192,199900,1,0,0:0:0:0:
192,192,199901,1,0,0:0:0:0:
64,192,199901,1,0,0:0:0:0:
320,192,199901,1,0,0:0:0:0:
192,192,199987,1,0,0:0:0:0:
448,192,199987,1,0,0:0:0:0:
448,192,200073,1,0,0:0:0:0:
192,192,200073,1,0,0:0:0:0:
448,192,200159,1,0,0:0:0:0:
192,192,200159,1,0,0:0:0:0:
64,192,200246,1,0,0:0:0:0:
320,192,200246,1,0,0:0:0:0:
192,192,200246,1,0,0:0:0:0:
448,192,200247,128,0,200764:0:0:0:0:
320,192,200332,1,0,0:0:0:0:
64,192,200332,1,0,0:0:0:0:
192,192,200332,1,0,0:0:0:0:
64,192,200418,1,0,0:0:0:0:
320,192,200418,1,0,0:0:0:0:
192,192,200418,1,0,0:0:0:0:
320,192,200504,1,0,0:0:0:0:
64,192,200504,1,0,0:0:0:0:
192,192,200504,1,0,0:0:0:0:
64,192,200590,1,0,0:0:0:0:
320,192,200590,1,0,0:0:0:0:
192,192,200590,1,0,0:0:0:0:
64,192,200678,1,0,0:0:0:0:
192,192,200678,1,0,0:0:0:0:
320,192,200678,1,0,0:0:0:0:
192,192,200763,1,0,0:0:0:0:
64,192,200763,1,0,0:0:0:0:
320,192,200764,128,0,201281:0:0:0:0:
192,192,200849,1,0,0:0:0:0:
448,192,200849,1,0,0:0:0:0:
64,192,200849,1,0,0:0:0:0:
192,192,200935,1,0,0:0:0:0:
448,192,200935,1,0,0:0:0:0:
64,192,200935,1,0,0:0:0:0:
192,192,201021,1,0,0:0:0:0:
448,192,201021,1,0,0:0:0:0:
64,192,201021,1,0,0:0:0:0:
192,192,201108,1,0,0:0:0:0:
448,192,201108,1,0,0:0:0:0:
64,192,201108,1,0,0:0:0:0:
64,192,201195,1,0,0:0:0:0:
448,192,201195,1,0,0:0:0:0:
192,192,201195,1,0,0:0:0:0:
64,192,201280,1,0,0:0:0:0:
448,192,201280,1,0,0:0:0:0:
192,192,201281,128,0,201626:0:0:0:0:
64,192,201366,1,0,0:0:0:0:
320,192,201366,1,0,0:0:0:0:
448,192,201366,1,0,0:0:0:0:
320,192,201452,1,0,0:0:0:0:
64,192,201452,1,0,0:0:0:0:
448,192,201452,1,0,0:0:0:0:
64,192,201539,1,0,0:0:0:0:
320,192,201539,1,0,0:0:0:0:
448,192,201539,1,0,0:0:0:0:
64,192,201625,1,0,0:0:0:0:
320,192,201625,1,0,0:0:0:0:
448,192,201625,1,0,0:0:0:0:
192,192,201712,1,0,0:0:0:0:
64,192,201712,1,0,0:0:0:0:
192,192,201798,1,0,0:0:0:0:
64,192,201798,1,0,0:0:0:0:
192,192,201884,1,0,0:0:0:0:
64,192,201884,1,0,0:0:0:0:
64,192,201970,1,0,0:0:0:0:
192,192,201970,1,0,0:0:0:0:
320,192,201970,1,0,0:0:0:0:
448,192,201970,1,0,0:0:0:0:
448,192,202056,1,0,0:0:0:0:
320,192,202056,1,0,0:0:0:0:
320,192,202143,1,0,0:0:0:0:
448,192,202143,1,0,0:0:0:0:
448,192,202229,1,0,0:0:0:0:
320,192,202229,1,0,0:0:0:0:
192,192,202315,1,0,0:0:0:0:
64,192,202315,1,0,0:0:0:0:
320,192,202315,1,0,0:0:0:0:
448,192,202315,1,0,0:0:0:0:
448,192,202401,1,0,0:0:0:0:
320,192,202401,1,0,0:0:0:0:
320,192,202487,1,0,0:0:0:0:
192,192,202487,1,0,0:0:0:0:
320,192,202574,1,0,0:0:0:0:
192,192,202574,1,0,0:0:0:0:
64,192,202660,1,0,0:0:0:0:
448,192,202660,1,0,0:0:0:0:
192,192,202660,1,0,0:0:0:0:
320,192,202660,1,0,0:0:0:0:
320,192,202746,1,0,0:0:0:0:
192,192,202746,1,0,0:0:0:0:
320,192,202832,1,0,0:0:0:0:
192,192,202832,1,0,0:0:0:0:
320,192,202919,1,0,0:0:0:0:
192,192,202919,1,0,0:0:0:0:
320,192,203005,1,0,0:0:0:0:
448,192,203005,1,0,0:0:0:0:
192,192,203005,1,0,0:0:0:0:
64,192,203005,1,0,0:0:0:0:
64,192,203091,1,0,0:0:0:0:
192,192,203091,1,0,0:0:0:0:
64,192,203177,1,0,0:0:0:0:
192,192,203177,1,0,0:0:0:0:
192,192,203263,1,0,0:0:0:0:
64,192,203263,1,0,0:0:0:0:
320,192,203350,1,0,0:0:0:0:
448,192,203350,1,0,0:0:0:0:
64,192,203350,1,0,0:0:0:0:
192,192,203350,1,0,0:0:0:0:
192,192,203436,1,0,0:0:0:0:
64,192,203436,1,0,0:0:0:0:
320,192,203522,1,0,0:0:0:0:
192,192,203522,1,0,0:0:0:0:
320,192,203608,1,0,0:0:0:0:
192,192,203608,1,0,0:0:0:0:
64,192,203694,1,0,0:0:0:0:
448,192,203694,1,0,0:0:0:0:
192,192,203694,1,0,0:0:0:0:
320,192,203694,1,0,0:0:0:0:
320,192,203781,1,0,0:0:0:0:
192,192,203781,1,0,0:0:0:0:
320,192,203867,1,0,0:0:0:0:
192,192,203867,1,0,0:0:0:0:
320,192,203953,1,0,0:0:0:0:
192,192,203953,1,0,0:0:0:0:
192,192,204039,1,0,0:0:0:0:
64,192,204039,1,0,0:0:0:0:
320,192,204039,1,0,0:0:0:0:
448,192,204039,1,0,0:0:0:0:
448,192,204125,1,0,0:0:0:0:
320,192,204125,1,0,0:0:0:0:
448,192,204212,1,0,0:0:0:0:
320,192,204212,1,0,0:0:0:0:
448,192,204298,1,0,0:0:0:0:
320,192,204298,1,0,0:0:0:0:
320,192,204384,1,0,0:0:0:0:
448,192,204384,1,0,0:0:0:0:
64,192,204384,1,0,0:0:0:0:
192,192,204384,1,0,0:0:0:0:
192,192,204470,1,0,0:0:0:0:
64,192,204470,1,0,0:0:0:0:
192,192,204556,1,0,0:0:0:0:
64,192,204556,1,0,0:0:0:0:
192,192,204643,1,0,0:0:0:0:
64,192,204643,1,0,0:0:0:0:
320,192,204729,1,0,0:0:0:0:
64,192,204729,1,0,0:0:0:0:
192,192,204729,1,0,0:0:0:0:
448,192,204729,1,0,0:0:0:0:
448,192,204815,1,0,0:0:0:0:
192,192,204815,1,0,0:0:0:0:
448,192,204901,1,0,0:0:0:0:
192,192,204901,1,0,0:0:0:0:
448,192,204987,1,0,0:0:0:0:
192,192,204987,1,0,0:0:0:0:
64,192,205074,1,0,0:0:0:0:
320,192,205074,1,0,0:0:0:0:
192,192,205074,1,0,0:0:0:0:
448,192,205074,1,0,0:0:0:0:
448,192,205160,1,0,0:0:0:0:
192,192,205160,1,0,0:0:0:0:
192,192,205246,1,0,0:0:0:0:
64,192,205246,1,0,0:0:0:0:
192,192,205332,1,0,0:0:0:0:
64,192,205332,1,0,0:0:0:0:
320,192,205419,1,0,0:0:0:0:
448,192,205419,1,0,0:0:0:0:
64,192,205419,1,0,0:0:0:0:
192,192,205419,1,0,0:0:0:0:
192,192,205505,1,0,0:0:0:0:
64,192,205505,1,0,0:0:0:0:
192,192,205591,1,0,0:0:0:0:
64,192,205591,1,0,0:0:0:0:
192,192,205677,1,0,0:0:0:0:
64,192,205677,1,0,0:0:0:0:
192,192,205763,1,0,0:0:0:0:
64,192,205763,1,0,0:0:0:0:
448,192,205763,1,0,0:0:0:0:
320,192,205763,1,0,0:0:0:0:
320,192,205850,1,0,0:0:0:0:
448,192,205850,1,0,0:0:0:0:
320,192,205936,1,0,0:0:0:0:
448,192,205936,1,0,0:0:0:0:
320,192,206022,1,0,0:0:0:0:
448,192,206022,1,0,0:0:0:0:
192,192,206108,1,0,0:0:0:0:
64,192,206108,1,0,0:0:0:0:
448,192,206108,1,0,0:0:0:0:
320,192,206108,1,0,0:0:0:0:
448,192,206194,1,0,0:0:0:0:
320,192,206194,1,0,0:0:0:0:
448,192,206281,1,0,0:0:0:0:
192,192,206281,1,0,0:0:0:0:
448,192,206367,1,0,0:0:0:0:
192,192,206367,1,0,0:0:0:0:
64,192,206453,1,0,0:0:0:0:
320,192,206453,1,0,0:0:0:0:
192,192,206453,1,0,0:0:0:0:
448,192,206453,1,0,0:0:0:0:
448,192,206539,1,0,0:0:0:0:
192,192,206539,1,0,0:0:0:0:
448,192,206625,1,0,0:0:0:0:
192,192,206625,1,0,0:0:0:0:
448,192,206712,1,0,0:0:0:0:
192,192,206712,1,0,0:0:0:0:
192,192,206798,1,0,0:0:0:0:
448,192,206798,1,0,0:0:0:0:
320,192,206798,1,0,0:0:0:0:
64,192,206798,1,0,0:0:0:0:
320,192,206884,1,0,0:0:0:0:
64,192,206884,1,0,0:0:0:0:
320,192,206970,1,0,0:0:0:0:
64,192,206970,1,0,0:0:0:0:
320,192,207056,1,0,0:0:0:0:
64,192,207056,1,0,0:0:0:0:
320,192,207143,1,0,0:0:0:0:
448,192,207143,1,0,0:0:0:0:
64,192,207143,1,0,0:0:0:0:
192,192,207143,1,0,0:0:0:0:
192,192,207229,1,0,0:0:0:0:
64,192,207229,1,0,0:0:0:0:
64,192,207315,1,0,0:0:0:0:
192,192,207315,1,0,0:0:0:0:
192,192,207401,1,0,0:0:0:0:
64,192,207401,1,0,0:0:0:0:
64,192,207487,1,0,0:0:0:0:
192,192,207487,1,0,0:0:0:0:
320,192,207487,1,0,0:0:0:0:
448,192,207487,1,0,0:0:0:0:
448,192,207574,1,0,0:0:0:0:
320,192,207574,1,0,0:0:0:0:
448,192,207660,1,0,0:0:0:0:
320,192,207660,1,0,0:0:0:0:
448,192,207746,1,0,0:0:0:0:
320,192,207746,1,0,0:0:0:0:
64,192,207832,1,0,0:0:0:0:
192,192,207832,1,0,0:0:0:0:
320,192,207832,1,0,0:0:0:0:
448,192,207832,1,0,0:0:0:0:
448,192,207919,1,0,0:0:0:0:
320,192,207919,1,0,0:0:0:0:
192,192,208005,1,0,0:0:0:0:
320,192,208005,1,0,0:0:0:0:
320,192,208091,1,0,0:0:0:0:
192,192,208091,1,0,0:0:0:0:
64,192,208177,1,0,0:0:0:0:
448,192,208177,1,0,0:0:0:0:
192,192,208177,1,0,0:0:0:0:
320,192,208177,1,0,0:0:0:0:
192,192,208263,1,0,0:0:0:0:
320,192,208263,1,0,0:0:0:0:
192,192,208350,1,0,0:0:0:0:
320,192,208350,1,0,0:0:0:0:
192,192,208436,1,0,0:0:0:0:
320,192,208436,1,0,0:0:0:0:
448,192,208522,1,0,0:0:0:0:
320,192,208522,1,0,0:0:0:0:
64,192,208522,1,0,0:0:0:0:
192,192,208522,1,0,0:0:0:0:
320,192,208608,1,0,0:0:0:0:
64,192,208608,1,0,0:0:0:0:
64,192,208694,1,0,0:0:0:0:
320,192,208694,1,0,0:0:0:0:
320,192,208781,1,0,0:0:0:0:
64,192,208781,1,0,0:0:0:0:
448,192,208867,1,0,0:0:0:0:
192,192,208867,1,0,0:0:0:0:
320,192,208867,1,0,0:0:0:0:
64,192,208867,1,0,0:0:0:0:
320,192,208953,1,0,0:0:0:0:
64,192,208953,1,0,0:0:0:0:
320,192,209039,1,0,0:0:0:0:
192,192,209039,1,0,0:0:0:0:
192,192,209125,1,0,0:0:0:0:
320,192,209125,1,0,0:0:0:0:
64,192,209212,1,0,0:0:0:0:
448,192,209212,1,0,0:0:0:0:
192,192,209212,1,0,0:0:0:0:
320,192,209212,1,0,0:0:0:0:
192,192,209298,1,0,0:0:0:0:
320,192,209298,1,0,0:0:0:0:
320,192,209384,1,0,0:0:0:0:
192,192,209384,1,0,0:0:0:0:
320,192,209470,1,0,0:0:0:0:
192,192,209470,1,0,0:0:0:0:
192,192,209556,1,0,0:0:0:0:
448,192,209556,1,0,0:0:0:0:
64,192,209556,1,0,0:0:0:0:
320,192,209556,1,0,0:0:0:0:
320,192,209642,1,0,0:0:0:0:
64,192,209643,1,0,0:0:0:0:
320,192,209728,1,0,0:0:0:0:
64,192,209729,1,0,0:0:0:0:
64,192,209815,1,0,0:0:0:0:
320,192,209815,1,0,0:0:0:0:
320,192,209901,1,0,0:0:0:0:
448,192,209901,1,0,0:0:0:0:
64,192,209901,1,0,0:0:0:0:
192,192,209901,1,0,0:0:0:0:
192,192,209987,1,0,0:0:0:0:
64,192,209987,1,0,0:0:0:0:
192,192,210074,1,0,0:0:0:0:
64,192,210074,1,0,0:0:0:0:
192,192,210160,1,0,0:0:0:0:
64,192,210160,1,0,0:0:0:0:
192,192,210246,1,0,0:0:0:0:
64,192,210246,1,0,0:0:0:0:
320,192,210246,1,0,0:0:0:0:
448,192,210246,1,0,0:0:0:0:
320,192,210332,1,0,0:0:0:0:
448,192,210332,1,0,0:0:0:0:
448,192,210418,1,0,0:0:0:0:
320,192,210418,1,0,0:0:0:0:
320,192,210505,1,0,0:0:0:0:
448,192,210505,1,0,0:0:0:0:
64,192,210591,1,0,0:0:0:0:
192,192,210591,1,0,0:0:0:0:
320,192,210591,1,0,0:0:0:0:
448,192,210591,1,0,0:0:0:0:
448,192,210677,1,0,0:0:0:0:
320,192,210677,1,0,0:0:0:0:
192,192,210763,1,0,0:0:0:0:
448,192,210763,1,0,0:0:0:0:
448,192,210849,1,0,0:0:0:0:
192,192,210850,1,0,0:0:0:0:
448,192,210935,1,0,0:0:0:0:
320,192,210936,1,0,0:0:0:0:
64,192,210936,1,0,0:0:0:0:
192,192,210936,1,0,0:0:0:0:
448,192,211022,1,0,0:0:0:0:
192,192,211022,1,0,0:0:0:0:
192,192,211108,1,0,0:0:0:0:
448,192,211108,1,0,0:0:0:0:
192,192,211194,1,0,0:0:0:0:
448,192,211194,1,0,0:0:0:0:
192,192,211281,1,0,0:0:0:0:
64,192,211281,1,0,0:0:0:0:
320,192,211281,1,0,0:0:0:0:
448,192,211281,128,0,211798:0:0:0:0:
192,192,211367,1,0,0:0:0:0:
320,192,211367,1,0,0:0:0:0:
64,192,211367,1,0,0:0:0:0:
192,192,211453,1,0,0:0:0:0:
64,192,211453,1,0,0:0:0:0:
320,192,211453,1,0,0:0:0:0:
192,192,211539,1,0,0:0:0:0:
320,192,211539,1,0,0:0:0:0:
64,192,211539,1,0,0:0:0:0:
192,192,211625,1,0,0:0:0:0:
64,192,211625,1,0,0:0:0:0:
320,192,211625,1,0,0:0:0:0:
64,192,211712,1,0,0:0:0:0:
320,192,211712,1,0,0:0:0:0:
192,192,211712,1,0,0:0:0:0:
64,192,211798,1,0,0:0:0:0:
192,192,211798,1,0,0:0:0:0:
320,192,211798,128,0,212315:0:0:0:0:
64,192,211884,1,0,0:0:0:0:
192,192,211884,1,0,0:0:0:0:
448,192,211884,1,0,0:0:0:0:
64,192,211970,1,0,0:0:0:0:
192,192,211970,1,0,0:0:0:0:
448,192,211971,1,0,0:0:0:0:
64,192,212056,1,0,0:0:0:0:
192,192,212056,1,0,0:0:0:0:
448,192,212057,1,0,0:0:0:0:
448,192,212143,1,0,0:0:0:0:
64,192,212143,1,0,0:0:0:0:
192,192,212143,1,0,0:0:0:0:
64,192,212229,1,0,0:0:0:0:
192,192,212229,1,0,0:0:0:0:
448,192,212229,1,0,0:0:0:0:
448,192,212315,1,0,0:0:0:0:
64,192,212315,1,0,0:0:0:0:
192,192,212315,128,0,212660:0:0:0:0:
448,192,212401,1,0,0:0:0:0:
64,192,212401,1,0,0:0:0:0:
320,192,212401,1,0,0:0:0:0:
448,192,212487,1,0,0:0:0:0:
320,192,212487,1,0,0:0:0:0:
64,192,212487,1,0,0:0:0:0:
448,192,212574,1,0,0:0:0:0:
64,192,212574,1,0,0:0:0:0:
320,192,212574,1,0,0:0:0:0:
320,192,212660,1,0,0:0:0:0:
448,192,212660,1,0,0:0:0:0:
64,192,212660,1,0,0:0:0:0:
64,192,212746,1,0,0:0:0:0:
192,192,212746,1,0,0:0:0:0:
320,192,212747,1,0,0:0:0:0:
192,192,212833,1,0,0:0:0:0:
64,192,212833,1,0,0:0:0:0:
320,192,212833,1,0,0:0:0:0:
192,192,212919,1,0,0:0:0:0:
64,192,212919,1,0,0:0:0:0:
320,192,212919,1,0,0:0:0:0:
64,192,213005,1,0,0:0:0:0:
192,192,213005,1,0,0:0:0:0:
320,192,213005,1,0,0:0:0:0:
448,192,213005,1,0,0:0:0:0:
448,192,213091,1,0,0:0:0:0:
320,192,213091,1,0,0:0:0:0:
192,192,213091,1,0,0:0:0:0:
320,192,213178,1,0,0:0:0:0:
448,192,213178,1,0,0:0:0:0:
192,192,213178,1,0,0:0:0:0:
448,192,213264,1,0,0:0:0:0:
320,192,213264,1,0,0:0:0:0:
192,192,213264,1,0,0:0:0:0:
192,192,213350,1,0,0:0:0:0:
64,192,213350,1,0,0:0:0:0:
320,192,213350,1,0,0:0:0:0:
448,192,213350,1,0,0:0:0:0:
448,192,213436,1,0,0:0:0:0:
320,192,213436,1,0,0:0:0:0:
192,192,213436,1,0,0:0:0:0:
64,192,213522,1,0,0:0:0:0:
448,192,213522,1,0,0:0:0:0:
320,192,213522,1,0,0:0:0:0:
64,192,213609,1,0,0:0:0:0:
448,192,213609,1,0,0:0:0:0:
320,192,213609,1,0,0:0:0:0:
64,192,213695,1,0,0:0:0:0:
448,192,213695,1,0,0:0:0:0:
192,192,213695,1,0,0:0:0:0:
320,192,213695,1,0,0:0:0:0:
64,192,213781,1,0,0:0:0:0:
448,192,213781,1,0,0:0:0:0:
320,192,213781,1,0,0:0:0:0:
64,192,213867,1,0,0:0:0:0:
448,192,213867,1,0,0:0:0:0:
320,192,213867,1,0,0:0:0:0:
64,192,213953,1,0,0:0:0:0:
448,192,213953,1,0,0:0:0:0:
320,192,213953,1,0,0:0:0:0:
320,192,214040,1,0,0:0:0:0:
448,192,214040,1,0,0:0:0:0:
192,192,214040,1,0,0:0:0:0:
64,192,214040,1,0,0:0:0:0:
64,192,214126,1,0,0:0:0:0:
192,192,214126,1,0,0:0:0:0:
320,192,214126,1,0,0:0:0:0:
64,192,214212,1,0,0:0:0:0:
192,192,214212,1,0,0:0:0:0:
320,192,214212,1,0,0:0:0:0:
192,192,214298,1,0,0:0:0:0:
64,192,214298,1,0,0:0:0:0:
320,192,214298,1,0,0:0:0:0:
320,192,214385,1,0,0:0:0:0:
448,192,214385,1,0,0:0:0:0:
64,192,214385,1,0,0:0:0:0:
192,192,214385,1,0,0:0:0:0:
192,192,214471,1,0,0:0:0:0:
64,192,214471,1,0,0:0:0:0:
320,192,214471,1,0,0:0:0:0:
448,192,214557,1,0,0:0:0:0:
64,192,214557,1,0,0:0:0:0:
320,192,214557,1,0,0:0:0:0:
448,192,214643,1,0,0:0:0:0:
64,192,214643,1,0,0:0:0:0:
320,192,214643,1,0,0:0:0:0:
64,192,214729,1,0,0:0:0:0:
448,192,214729,1,0,0:0:0:0:
192,192,214729,1,0,0:0:0:0:
320,192,214729,1,0,0:0:0:0:
448,192,214815,1,0,0:0:0:0:
64,192,214815,1,0,0:0:0:0:
320,192,214815,1,0,0:0:0:0:
448,192,214902,1,0,0:0:0:0:
64,192,214902,1,0,0:0:0:0:
320,192,214902,1,0,0:0:0:0:
448,192,214988,1,0,0:0:0:0:
64,192,214988,1,0,0:0:0:0:
320,192,214988,1,0,0:0:0:0:
192,192,215074,1,0,0:0:0:0:
64,192,215074,1,0,0:0:0:0:
320,192,215074,1,0,0:0:0:0:
448,192,215074,1,0,0:0:0:0:
448,192,215160,1,0,0:0:0:0:
320,192,215160,1,0,0:0:0:0:
192,192,215160,1,0,0:0:0:0:
448,192,215247,1,0,0:0:0:0:
320,192,215247,1,0,0:0:0:0:
192,192,215247,1,0,0:0:0:0:
448,192,215333,1,0,0:0:0:0:
320,192,215333,1,0,0:0:0:0:
192,192,215333,1,0,0:0:0:0:
320,192,215419,1,0,0:0:0:0:
448,192,215419,1,0,0:0:0:0:
64,192,215419,1,0,0:0:0:0:
192,192,215419,1,0,0:0:0:0:
192,192,215505,1,0,0:0:0:0:
64,192,215505,1,0,0:0:0:0:
320,192,215505,1,0,0:0:0:0:
192,192,215591,1,0,0:0:0:0:
64,192,215591,1,0,0:0:0:0:
320,192,215591,1,0,0:0:0:0:
192,192,215678,1,0,0:0:0:0:
64,192,215678,1,0,0:0:0:0:
320,192,215678,1,0,0:0:0:0:
320,192,215764,1,0,0:0:0:0:
64,192,215764,1,0,0:0:0:0:
192,192,215764,1,0,0:0:0:0:
448,192,215764,1,0,0:0:0:0:
448,192,215850,1,0,0:0:0:0:
64,192,215850,1,0,0:0:0:0:
320,192,215850,1,0,0:0:0:0:
448,192,215936,1,0,0:0:0:0:
64,192,215936,1,0,0:0:0:0:
320,192,215936,1,0,0:0:0:0:
448,192,216022,1,0,0:0:0:0:
64,192,216022,1,0,0:0:0:0:
320,192,216022,1,0,0:0:0:0:
64,192,216109,1,0,0:0:0:0:
320,192,216109,1,0,0:0:0:0:
192,192,216109,1,0,0:0:0:0:
448,192,216109,1,0,0:0:0:0:
448,192,216195,1,0,0:0:0:0:
64,192,216195,1,0,0:0:0:0:
320,192,216195,1,0,0:0:0:0:
192,192,216281,1,0,0:0:0:0:
64,192,216281,1,0,0:0:0:0:
448,192,216281,1,0,0:0:0:0:
192,192,216367,1,0,0:0:0:0:
64,192,216367,1,0,0:0:0:0:
448,192,216367,1,0,0:0:0:0:
320,192,216454,1,0,0:0:0:0:
448,192,216454,1,0,0:0:0:0:
64,192,216454,1,0,0:0:0:0:
192,192,216454,1,0,0:0:0:0:
192,192,216540,1,0,0:0:0:0:
64,192,216540,1,0,0:0:0:0:
448,192,216540,1,0,0:0:0:0:
192,192,216626,1,0,0:0:0:0:
64,192,216626,1,0,0:0:0:0:
448,192,216626,1,0,0:0:0:0:
192,192,216712,1,0,0:0:0:0:
64,192,216712,1,0,0:0:0:0:
448,192,216712,1,0,0:0:0:0:
192,192,216798,1,0,0:0:0:0:
64,192,216798,1,0,0:0:0:0:
448,192,216798,1,0,0:0:0:0:
320,192,216798,1,0,0:0:0:0:
192,192,216884,1,0,0:0:0:0:
320,192,216885,1,0,0:0:0:0:
448,192,216885,1,0,0:0:0:0:
320,192,216971,1,0,0:0:0:0:
448,192,216971,1,0,0:0:0:0:
192,192,216971,1,0,0:0:0:0:
320,192,217057,1,0,0:0:0:0:
448,192,217057,1,0,0:0:0:0:
192,192,217057,1,0,0:0:0:0:
192,192,217143,1,0,0:0:0:0:
64,192,217143,1,0,0:0:0:0:
448,192,217143,1,0,0:0:0:0:
320,192,217143,1,0,0:0:0:0:
448,192,217229,1,0,0:0:0:0:
320,192,217229,1,0,0:0:0:0:
192,192,217229,1,0,0:0:0:0:
64,192,217315,1,0,0:0:0:0:
320,192,217315,1,0,0:0:0:0:
448,192,217316,1,0,0:0:0:0:
448,192,217402,1,0,0:0:0:0:
64,192,217402,1,0,0:0:0:0:
320,192,217402,1,0,0:0:0:0:
64,192,217488,1,0,0:0:0:0:
320,192,217488,1,0,0:0:0:0:
192,192,217488,1,0,0:0:0:0:
448,192,217488,1,0,0:0:0:0:
448,192,217574,1,0,0:0:0:0:
320,192,217574,1,0,0:0:0:0:
64,192,217574,1,0,0:0:0:0:
448,192,217660,1,0,0:0:0:0:
320,192,217660,1,0,0:0:0:0:
64,192,217660,1,0,0:0:0:0:
448,192,217747,1,0,0:0:0:0:
320,192,217747,1,0,0:0:0:0:
64,192,217747,1,0,0:0:0:0:
192,192,217833,1,0,0:0:0:0:
448,192,217833,1,0,0:0:0:0:
320,192,217833,1,0,0:0:0:0:
64,192,217833,1,0,0:0:0:0:
64,192,217919,1,0,0:0:0:0:
192,192,217919,1,0,0:0:0:0:
448,192,217919,1,0,0:0:0:0:
64,192,218005,1,0,0:0:0:0:
192,192,218005,1,0,0:0:0:0:
448,192,218005,1,0,0:0:0:0:
64,192,218091,1,0,0:0:0:0:
192,192,218091,1,0,0:0:0:0:
448,192,218091,1,0,0:0:0:0:
320,192,218178,1,0,0:0:0:0:
448,192,218178,1,0,0:0:0:0:
64,192,218178,1,0,0:0:0:0:
192,192,218178,1,0,0:0:0:0:
192,192,218264,1,0,0:0:0:0:
64,192,218264,1,0,0:0:0:0:
320,192,218264,1,0,0:0:0:0:
64,192,218350,1,0,0:0:0:0:
192,192,218350,1,0,0:0:0:0:
320,192,218350,1,0,0:0:0:0:
192,192,218436,1,0,0:0:0:0:
64,192,218436,1,0,0:0:0:0:
320,192,218436,1,0,0:0:0:0:
64,192,218522,1,0,0:0:0:0:
192,192,218522,1,0,0:0:0:0:
320,192,218522,1,0,0:0:0:0:
448,192,218522,1,0,0:0:0:0:
448,192,218609,1,0,0:0:0:0:
320,192,218609,1,0,0:0:0:0:
192,192,218609,1,0,0:0:0:0:
448,192,218695,1,0,0:0:0:0:
320,192,218695,1,0,0:0:0:0:
192,192,218695,1,0,0:0:0:0:
448,192,218781,1,0,0:0:0:0:
320,192,218781,1,0,0:0:0:0:
192,192,218781,1,0,0:0:0:0:
64,192,218867,1,0,0:0:0:0:
192,192,218867,1,0,0:0:0:0:
320,192,218867,1,0,0:0:0:0:
448,192,218867,1,0,0:0:0:0:
192,192,218953,1,0,0:0:0:0:
448,192,218954,1,0,0:0:0:0:
320,192,218954,1,0,0:0:0:0:
320,192,219040,1,0,0:0:0:0:
448,192,219040,1,0,0:0:0:0:
64,192,219040,1,0,0:0:0:0:
320,192,219126,1,0,0:0:0:0:
448,192,219126,1,0,0:0:0:0:
64,192,219126,1,0,0:0:0:0:
64,192,219212,1,0,0:0:0:0:
448,192,219212,1,0,0:0:0:0:
192,192,219212,1,0,0:0:0:0:
320,192,219212,1,0,0:0:0:0:
320,192,219298,1,0,0:0:0:0:
64,192,219298,1,0,0:0:0:0:
448,192,219298,1,0,0:0:0:0:
64,192,219384,1,0,0:0:0:0:
448,192,219384,1,0,0:0:0:0:
320,192,219385,1,0,0:0:0:0:
320,192,219471,1,0,0:0:0:0:
64,192,219471,1,0,0:0:0:0:
448,192,219471,1,0,0:0:0:0:
448,192,219557,1,0,0:0:0:0:
320,192,219557,1,0,0:0:0:0:
64,192,219557,1,0,0:0:0:0:
192,192,219557,1,0,0:0:0:0:
64,192,219643,1,0,0:0:0:0:
192,192,219643,1,0,0:0:0:0:
448,192,219643,1,0,0:0:0:0:
64,192,219729,1,0,0:0:0:0:
192,192,219729,1,0,0:0:0:0:
448,192,219729,1,0,0:0:0:0:
192,192,219815,1,0,0:0:0:0:
448,192,219815,1,0,0:0:0:0:
64,192,219816,1,0,0:0:0:0:
448,192,219902,1,0,0:0:0:0:
192,192,219902,1,0,0:0:0:0:
320,192,219902,1,0,0:0:0:0:
64,192,219902,1,0,0:0:0:0:
64,192,219988,1,0,0:0:0:0:
192,192,219988,1,0,0:0:0:0:
448,192,219988,1,0,0:0:0:0:
192,192,220074,1,0,0:0:0:0:
64,192,220074,1,0,0:0:0:0:
448,192,220074,1,0,0:0:0:0:
64,192,220160,1,0,0:0:0:0:
320,192,220160,1,0,0:0:0:0:
448,192,220160,1,0,0:0:0:0:
64,192,220247,1,0,0:0:0:0:
448,192,220247,1,0,0:0:0:0:
192,192,220247,1,0,0:0:0:0:
320,192,220247,1,0,0:0:0:0:
320,192,220333,1,0,0:0:0:0:
448,192,220333,1,0,0:0:0:0:
64,192,220333,1,0,0:0:0:0:
320,192,220419,1,0,0:0:0:0:
64,192,220419,1,0,0:0:0:0:
448,192,220419,1,0,0:0:0:0:
320,192,220505,1,0,0:0:0:0:
64,192,220505,1,0,0:0:0:0:
448,192,220505,1,0,0:0:0:0:
192,192,220591,1,0,0:0:0:0:
448,192,220591,1,0,0:0:0:0:
64,192,220591,1,0,0:0:0:0:
320,192,220591,1,0,0:0:0:0:
64,192,220678,1,0,0:0:0:0:
192,192,220678,1,0,0:0:0:0:
448,192,220678,1,0,0:0:0:0:
64,192,220764,1,0,0:0:0:0:
192,192,220764,1,0,0:0:0:0:
448,192,220764,1,0,0:0:0:0:
64,192,220850,1,0,0:0:0:0:
192,192,220850,1,0,0:0:0:0:
448,192,220850,1,0,0:0:0:0:
320,192,220936,1,0,0:0:0:0:
448,192,220936,1,0,0:0:0:0:
64,192,220936,1,0,0:0:0:0:
192,192,220936,1,0,0:0:0:0:
192,192,221022,1,0,0:0:0:0:
64,192,221022,1,0,0:0:0:0:
320,192,221022,1,0,0:0:0:0:
192,192,221109,1,0,0:0:0:0:
64,192,221109,1,0,0:0:0:0:
320,192,221109,1,0,0:0:0:0:
192,192,221195,1,0,0:0:0:0:
64,192,221195,1,0,0:0:0:0:
320,192,221195,1,0,0:0:0:0:
192,192,221281,1,0,0:0:0:0:
64,192,221281,1,0,0:0:0:0:
320,192,221281,1,0,0:0:0:0:
448,192,221281,1,0,0:0:0:0:
320,192,221367,1,0,0:0:0:0:
448,192,221367,1,0,0:0:0:0:
192,192,221367,1,0,0:0:0:0:
448,192,221453,1,0,0:0:0:0:
320,192,221453,1,0,0:0:0:0:
192,192,221453,1,0,0:0:0:0:
320,192,221540,1,0,0:0:0:0:
448,192,221540,1,0,0:0:0:0:
192,192,221540,1,0,0:0:0:0:
64,192,221626,1,0,0:0:0:0:
192,192,221626,1,0,0:0:0:0:
320,192,221626,1,0,0:0:0:0:
448,192,221626,1,0,0:0:0:0:
448,192,221712,1,0,0:0:0:0:
320,192,221712,1,0,0:0:0:0:
192,192,221712,1,0,0:0:0:0:
64,192,221798,1,0,0:0:0:0:
192,192,221798,1,0,0:0:0:0:
448,192,221798,1,0,0:0:0:0:
64,192,221884,1,0,0:0:0:0:
192,192,221884,1,0,0:0:0:0:
448,192,221884,1,0,0:0:0:0:
192,192,221971,1,0,0:0:0:0:
64,192,221971,1,0,0:0:0:0:
448,192,221971,1,0,0:0:0:0:
192,192,222057,1,0,0:0:0:0:
64,192,222057,1,0,0:0:0:0:
448,192,222057,1,0,0:0:0:0:
192,192,222143,1,0,0:0:0:0:
64,192,222143,1,0,0:0:0:0:
448,192,222143,1,0,0:0:0:0:
192,192,222229,1,0,0:0:0:0:
64,192,222229,1,0,0:0:0:0:
448,192,222229,1,0,0:0:0:0:
64,192,222315,128,0,222488:0:0:0:0:
448,192,222315,1,0,0:0:0:0:
192,192,222316,1,0,0:0:0:0:
320,192,222316,1,0,0:0:0:0:
448,192,222488,128,0,222660:0:0:0:0:
192,192,222488,128,0,222660:0:0:0:0:
320,192,222660,128,0,222833:0:0:0:0:
192,192,222833,128,0,223178:0:0:0:0:
64,192,222833,128,0,223178:0:0:0:0:
448,192,223178,128,0,223350:0:0:0:0:
64,192,223350,128,0,223522:0:0:0:0:
320,192,223350,128,0,223522:0:0:0:0:
192,192,223350,1,0,0:0:0:0:
192,192,223407,1,0,0:0:0:0:
192,192,223465,1,0,0:0:0:0:
448,192,223522,128,0,223695:0:0:0:0:
192,192,223522,1,0,0:0:0:0:
192,192,223580,1,0,0:0:0:0:
192,192,223637,1,0,0:0:0:0:
64,192,223695,1,0,0:0:0:0:
320,192,223695,1,0,0:0:0:0:
64,192,224040,128,0,224083:0:0:0:0:
192,192,224040,128,0,224471:0:0:0:0:
320,192,224040,128,0,224471:0:0:0:0:
448,192,224040,128,0,224083:0:0:0:0:
64,192,224557,128,0,224600:0:0:0:0:
192,192,224557,128,0,224988:0:0:0:0:
320,192,224557,128,0,224988:0:0:0:0:
448,192,224557,128,0,224600:0:0:0:0:
64,192,225074,128,0,229212:0:0:0:0:
192,192,225074,128,0,229212:0:0:0:0:
320,192,225074,128,0,229212:0:0:0:0:
448,192,225074,128,0,229212:0:0:0:0:
