osu file format v12

[General]
AudioFilename: 07. Cry Of The Black Birds.mp3
AudioLeadIn: 0
PreviewTime: -1
Countdown: 0
SampleSet: Soft
StackLeniency: 0.7
Mode: 3
LetterboxInBreaks: 0
SpecialStyle: 0
WidescreenStoryboard: 1

[Editor]
Bookmarks: 11281,21971,22057,22143,22230,22316,22359,22402,22488,22575,22661,33350,43954,44040,44126,44212,44299,44385,44471,44557,44643,44730,55419,66109,66195,66281,66368,66454,66540,66626,66712,66799,77488,88523,99557,110247,110333,110419,110506,110592,110678,110764,110850,110937,113350,124385,135075,135161,135247,135333,135419,135506,135592,135678,135764,146454,157143,157230,157316,157402,157488,157575,157661,157747,157833,168523,179126,179212,179299,179385,179471,179557,179643,179730,179816,179902,190592,201626,212661,221971,222057,222143,222230,222316,222402,222488,222575,222661
DistanceSpacing: 0.8
BeatDivisor: 8
GridSize: 8

[Metadata]
Title:Cry Of The Black Birds
TitleUnicode:Cry Of The Black Birds
Artist:Amon Amarth
ArtistUnicode:Amon Amarth
Creator:Xcrypt
Version:lvl 65 - SHD {WARNING: MAY CAUSE INJURY}
Source:
Tags:melodical viking death metal
BeatmapID:353671
BeatmapSetID:141883

[Difficulty]
HPDrainRate:8
CircleSize:7
OverallDifficulty:7
ApproachRate:5
SliderMultiplier:1.4
SliderTickRate:1

[Events]
//Background and Video events
0,0,"viking-warriors.jpg",0,0
//Break Periods
//Storyboard Layer 0 (Background)
//Storyboard Layer 1 (Fail)
//Storyboard Layer 2 (Pass)
//Storyboard Layer 3 (Foreground)
//Storyboard Sound Samples
//Background Colour Transformations
3,100,163,162,255

[TimingPoints]
247,344.827586206897,4,2,0,30,1,0
247,-166.666666666667,4,2,0,30,0,0
24557,-100,4,2,0,30,0,0
24657,-100,4,2,0,30,0,0
25074,-166.666666666667,4,2,0,30,0,0
26367,-100,4,2,0,30,0,0
26453,-166.666666666667,4,2,0,30,0,0
27335,-100,4,2,0,30,0,0
27833,-166.666666666667,4,2,0,30,0,0
30081,-100,4,2,0,30,0,0
30600,-166.666666666667,4,2,0,30,0,0
35591,-100,4,2,0,30,0,0
36109,-166.666666666667,4,2,0,30,0,0
37402,-100,4,2,0,30,0,0
37488,-166.666666666667,4,2,0,30,0,0
38350,-100,4,2,0,30,0,0
38867,-166.666666666667,4,2,0,30,0,0
41109,-100,4,2,0,30,0,0
41626,-166.666666666667,4,2,0,30,0,0
44384,-125,4,2,0,30,0,0
55419,-125,4,2,0,30,0,0
66453,-100,4,2,0,30,0,0
113350,-166.666666666667,4,2,0,30,0,0
115591,-100,4,2,0,30,0,0
116109,-166.666666666667,4,2,0,30,0,0
117402,-100,4,2,0,30,0,0
117488,-166.666666666667,4,2,0,30,0,0
118350,-100,4,2,0,30,0,0
118867,-166.666666666667,4,2,0,30,0,0
121109,-100,4,2,0,30,0,0
121626,-166.666666666667,4,2,0,30,0,0
126626,-100,4,2,0,30,0,0
127143,-166.666666666667,4,2,0,30,0,0
128436,-100,4,2,0,30,0,0
128522,-166.666666666667,4,2,0,30,0,0
129384,-100,4,2,0,30,0,0
129902,-166.666666666667,4,2,0,30,0,0
132143,-100,4,2,0,30,0,0
132660,-166.666666666667,4,2,0,30,0,0
133953,-100,4,2,0,30,0,0
134040,-166.666666666667,4,2,0,30,0,0
157488,-125,4,2,0,30,0,0
179557,-100,4,2,0,30,0,0
222315,-125,4,2,0,30,0,0

[HitObjects]
256,192,247,128,0,549:0:0:0:0:
36,192,247,1,0,0:0:0:0:
109,192,247,1,0,0:0:0:0:
475,192,247,128,0,548:0:0:0:0:
402,192,247,128,0,936:0:0:0:0:
36,192,419,1,0,0:0:0:0:
329,192,591,128,0,936:0:0:0:0:
475,192,591,128,0,936:0:0:0:0:
36,192,592,1,0,0:0:0:0:
109,192,592,1,0,0:0:0:0:
36,192,764,1,0,0:0:0:0:
36,192,937,1,0,0:0:0:0:
182,192,937,1,0,0:0:0:0:
402,192,1109,128,0,1583:0:0:0:0:
36,192,1109,1,0,0:0:0:0:
109,192,1109,1,0,0:0:0:0:
475,192,1109,128,0,1583:0:0:0:0:
256,192,1109,128,0,2100:0:0:0:0:
36,192,1281,1,0,0:0:0:0:
36,192,1454,1,0,0:0:0:0:
36,192,1626,1,0,0:0:0:0:
109,192,1626,1,0,0:0:0:0:
329,192,1626,128,0,2100:0:0:0:0:
475,192,1626,128,0,2100:0:0:0:0:
36,192,1799,1,0,0:0:0:0:
36,192,1971,1,0,0:0:0:0:
36,192,2143,1,0,0:0:0:0:
182,192,2143,1,0,0:0:0:0:
402,192,2143,128,0,2618:0:0:0:0:
256,192,2143,128,0,2618:0:0:0:0:
329,192,2143,128,0,3178:0:0:0:0:
36,192,2316,1,0,0:0:0:0:
36,192,2488,1,0,0:0:0:0:
402,192,2660,128,0,3178:0:0:0:0:
36,192,2661,1,0,0:0:0:0:
475,192,2661,128,0,3178:0:0:0:0:
182,192,2747,1,0,0:0:0:0:
36,192,2833,1,0,0:0:0:0:
182,192,2919,1,0,0:0:0:0:
36,192,3006,1,0,0:0:0:0:
109,192,3006,1,0,0:0:0:0:
36,192,3178,1,0,0:0:0:0:
36,192,3350,1,0,0:0:0:0:
109,192,3350,1,0,0:0:0:0:
256,192,3350,128,0,3824:0:0:0:0:
475,192,3350,128,0,3824:0:0:0:0:
329,192,3350,128,0,4341:0:0:0:0:
36,192,3523,1,0,0:0:0:0:
36,192,3695,1,0,0:0:0:0:
182,192,3695,1,0,0:0:0:0:
36,192,3868,1,0,0:0:0:0:
109,192,3868,1,0,0:0:0:0:
402,192,3868,128,0,4342:0:0:0:0:
256,192,3868,128,0,4342:0:0:0:0:
36,192,4040,1,0,0:0:0:0:
36,192,4212,1,0,0:0:0:0:
329,192,4384,128,0,4859:0:0:0:0:
402,192,4384,128,0,5376:0:0:0:0:
36,192,4385,1,0,0:0:0:0:
109,192,4385,1,0,0:0:0:0:
475,192,4385,128,0,4859:0:0:0:0:
36,192,4557,1,0,0:0:0:0:
36,192,4730,1,0,0:0:0:0:
182,192,4902,1,0,0:0:0:0:
36,192,4902,1,0,0:0:0:0:
329,192,4902,128,0,5376:0:0:0:0:
475,192,4902,128,0,5376:0:0:0:0:
256,192,4902,128,0,5376:0:0:0:0:
36,192,5075,1,0,0:0:0:0:
36,192,5247,1,0,0:0:0:0:
36,192,5419,1,0,0:0:0:0:
109,192,5419,1,0,0:0:0:0:
256,192,5419,128,0,5721:0:0:0:0:
402,192,5419,128,0,5721:0:0:0:0:
475,192,5419,128,0,6065:0:0:0:0:
182,192,5419,1,0,0:0:0:0:
182,192,5505,1,0,0:0:0:0:
36,192,5506,1,0,0:0:0:0:
109,192,5506,1,0,0:0:0:0:
182,192,5591,1,0,0:0:0:0:
36,192,5592,1,0,0:0:0:0:
109,192,5592,1,0,0:0:0:0:
36,192,5678,1,0,0:0:0:0:
109,192,5678,1,0,0:0:0:0:
182,192,5678,1,0,0:0:0:0:
36,192,5764,128,0,6066:0:0:0:0:
109,192,5764,128,0,6066:0:0:0:0:
256,192,5764,128,0,6066:0:0:0:0:
329,192,5764,128,0,6066:0:0:0:0:
182,192,5764,128,0,6065:0:0:0:0:
36,192,6109,1,0,0:0:0:0:
109,192,6109,1,0,0:0:0:0:
475,192,6109,128,0,6454:0:0:0:0:
402,192,6109,128,0,6454:0:0:0:0:
182,192,6109,1,0,0:0:0:0:
36,192,6281,1,0,0:0:0:0:
36,192,6454,1,0,0:0:0:0:
182,192,6454,1,0,0:0:0:0:
36,192,6626,1,0,0:0:0:0:
109,192,6626,1,0,0:0:0:0:
329,192,6626,128,0,6971:0:0:0:0:
475,192,6626,128,0,6971:0:0:0:0:
36,192,6799,1,0,0:0:0:0:
36,192,6971,1,0,0:0:0:0:
36,192,7143,1,0,0:0:0:0:
109,192,7143,1,0,0:0:0:0:
475,192,7143,128,0,7488:0:0:0:0:
256,192,7143,128,0,7488:0:0:0:0:
36,192,7316,1,0,0:0:0:0:
36,192,7488,1,0,0:0:0:0:
475,192,7661,128,0,8006:0:0:0:0:
36,192,7661,1,0,0:0:0:0:
182,192,7661,1,0,0:0:0:0:
329,192,7661,128,0,8006:0:0:0:0:
36,192,7833,1,0,0:0:0:0:
36,192,8006,1,0,0:0:0:0:
36,192,8178,1,0,0:0:0:0:
402,192,8178,128,0,8480:0:0:0:0:
475,192,8178,128,0,8824:0:0:0:0:
329,192,8178,128,0,8479:0:0:0:0:
182,192,8264,1,0,0:0:0:0:
36,192,8350,1,0,0:0:0:0:
182,192,8437,1,0,0:0:0:0:
329,192,8522,128,0,9212:0:0:0:0:
36,192,8523,1,0,0:0:0:0:
109,192,8523,1,0,0:0:0:0:
256,192,8523,128,0,8825:0:0:0:0:
36,192,8695,1,0,0:0:0:0:
475,192,8868,128,0,9212:0:0:0:0:
36,192,8868,1,0,0:0:0:0:
109,192,8868,1,0,0:0:0:0:
402,192,8868,128,0,9212:0:0:0:0:
36,192,9040,1,0,0:0:0:0:
36,192,9212,1,0,0:0:0:0:
182,192,9212,1,0,0:0:0:0:
109,192,9385,1,0,0:0:0:0:
36,192,9385,1,0,0:0:0:0:
329,192,9385,128,0,9730:0:0:0:0:
475,192,9385,128,0,9730:0:0:0:0:
36,192,9557,1,0,0:0:0:0:
36,192,9730,1,0,0:0:0:0:
329,192,9902,128,0,10247:0:0:0:0:
182,192,9902,1,0,0:0:0:0:
109,192,9902,1,0,0:0:0:0:
402,192,9902,128,0,10247:0:0:0:0:
182,192,9988,1,0,0:0:0:0:
109,192,9988,1,0,0:0:0:0:
109,192,10074,1,0,0:0:0:0:
182,192,10075,1,0,0:0:0:0:
109,192,10160,1,0,0:0:0:0:
182,192,10161,1,0,0:0:0:0:
182,192,10247,1,0,0:0:0:0:
109,192,10247,1,0,0:0:0:0:
182,192,10333,1,0,0:0:0:0:
109,192,10333,1,0,0:0:0:0:
256,192,10419,128,0,10764:0:0:0:0:
182,192,10419,1,0,0:0:0:0:
109,192,10419,1,0,0:0:0:0:
475,192,10419,128,0,10764:0:0:0:0:
36,192,10419,1,0,0:0:0:0:
36,192,10505,1,0,0:0:0:0:
109,192,10506,1,0,0:0:0:0:
36,192,10591,1,0,0:0:0:0:
109,192,10592,1,0,0:0:0:0:
109,192,10678,1,0,0:0:0:0:
36,192,10678,1,0,0:0:0:0:
109,192,10764,1,0,0:0:0:0:
36,192,10764,1,0,0:0:0:0:
109,192,10850,1,0,0:0:0:0:
36,192,10850,1,0,0:0:0:0:
256,192,10936,128,0,11971:0:0:0:0:
475,192,10936,128,0,11238:0:0:0:0:
182,192,10936,1,0,0:0:0:0:
109,192,10937,1,0,0:0:0:0:
36,192,10937,1,0,0:0:0:0:
402,192,10937,128,0,11238:0:0:0:0:
182,192,11022,1,0,0:0:0:0:
36,192,11023,1,0,0:0:0:0:
36,192,11109,1,0,0:0:0:0:
182,192,11109,1,0,0:0:0:0:
36,192,11195,1,0,0:0:0:0:
182,192,11195,1,0,0:0:0:0:
329,192,11281,128,0,11583:0:0:0:0:
109,192,11281,128,0,11583:0:0:0:0:
402,192,11281,128,0,11971:0:0:0:0:
475,192,11626,128,0,11971:0:0:0:0:
109,192,11626,128,0,11971:0:0:0:0:
36,192,11971,1,0,0:0:0:0:
182,192,11971,1,0,0:0:0:0:
402,192,12143,128,0,12617:0:0:0:0:
36,192,12143,1,0,0:0:0:0:
109,192,12143,1,0,0:0:0:0:
256,192,12143,128,0,13134:0:0:0:0:
475,192,12143,128,0,13652:0:0:0:0:
36,192,12315,1,0,0:0:0:0:
36,192,12488,1,0,0:0:0:0:
36,192,12660,1,0,0:0:0:0:
109,192,12660,1,0,0:0:0:0:
329,192,12660,128,0,13652:0:0:0:0:
36,192,12833,1,0,0:0:0:0:
36,192,13005,1,0,0:0:0:0:
36,192,13177,1,0,0:0:0:0:
182,192,13177,1,0,0:0:0:0:
402,192,13178,128,0,14212:0:0:0:0:
36,192,13350,1,0,0:0:0:0:
36,192,13522,1,0,0:0:0:0:
36,192,13695,1,0,0:0:0:0:
475,192,13695,128,0,14212:0:0:0:0:
256,192,13695,128,0,14212:0:0:0:0:
182,192,13781,1,0,0:0:0:0:
36,192,13867,1,0,0:0:0:0:
182,192,13953,1,0,0:0:0:0:
36,192,14040,1,0,0:0:0:0:
109,192,14040,1,0,0:0:0:0:
36,192,14212,1,0,0:0:0:0:
402,192,14384,128,0,14859:0:0:0:0:
36,192,14384,1,0,0:0:0:0:
109,192,14384,1,0,0:0:0:0:
329,192,14384,128,0,15376:0:0:0:0:
475,192,14384,128,0,14859:0:0:0:0:
36,192,14557,1,0,0:0:0:0:
36,192,14729,1,0,0:0:0:0:
182,192,14729,1,0,0:0:0:0:
36,192,14902,1,0,0:0:0:0:
109,192,14902,1,0,0:0:0:0:
402,192,14902,128,0,15893:0:0:0:0:
256,192,14902,128,0,15376:0:0:0:0:
475,192,14902,128,0,15376:0:0:0:0:
36,192,15074,1,0,0:0:0:0:
36,192,15246,1,0,0:0:0:0:
36,192,15419,1,0,0:0:0:0:
109,192,15419,1,0,0:0:0:0:
475,192,15419,128,0,15893:0:0:0:0:
329,192,15419,128,0,15893:0:0:0:0:
36,192,15591,1,0,0:0:0:0:
36,192,15764,1,0,0:0:0:0:
402,192,15936,128,0,16410:0:0:0:0:
182,192,15936,1,0,0:0:0:0:
36,192,15936,1,0,0:0:0:0:
329,192,15936,128,0,16755:0:0:0:0:
475,192,15936,128,0,17100:0:0:0:0:
36,192,16109,1,0,0:0:0:0:
36,192,16281,1,0,0:0:0:0:
36,192,16453,1,0,0:0:0:0:
109,192,16453,1,0,0:0:0:0:
256,192,16453,128,0,16755:0:0:0:0:
402,192,16453,128,0,17100:0:0:0:0:
182,192,16453,1,0,0:0:0:0:
36,192,16540,1,0,0:0:0:0:
109,192,16540,1,0,0:0:0:0:
182,192,16540,1,0,0:0:0:0:
36,192,16626,1,0,0:0:0:0:
109,192,16626,1,0,0:0:0:0:
182,192,16626,1,0,0:0:0:0:
36,192,16712,1,0,0:0:0:0:
109,192,16712,1,0,0:0:0:0:
182,192,16712,1,0,0:0:0:0:
36,192,16798,128,0,17100:0:0:0:0:
109,192,16798,128,0,17100:0:0:0:0:
256,192,16798,128,0,17488:0:0:0:0:
329,192,16798,128,0,17100:0:0:0:0:
182,192,16798,128,0,17100:0:0:0:0:
36,192,17143,1,0,0:0:0:0:
109,192,17143,1,0,0:0:0:0:
475,192,17143,128,0,17488:0:0:0:0:
402,192,17143,128,0,17488:0:0:0:0:
182,192,17143,1,0,0:0:0:0:
36,192,17315,1,0,0:0:0:0:
36,192,17488,1,0,0:0:0:0:
182,192,17488,1,0,0:0:0:0:
36,192,17660,1,0,0:0:0:0:
109,192,17660,1,0,0:0:0:0:
329,192,17660,128,0,18005:0:0:0:0:
475,192,17660,128,0,18005:0:0:0:0:
36,192,17833,1,0,0:0:0:0:
36,192,18005,1,0,0:0:0:0:
36,192,18177,1,0,0:0:0:0:
109,192,18177,1,0,0:0:0:0:
475,192,18177,128,0,18522:0:0:0:0:
256,192,18177,128,0,18522:0:0:0:0:
36,192,18350,1,0,0:0:0:0:
36,192,18522,1,0,0:0:0:0:
475,192,18695,128,0,19040:0:0:0:0:
36,192,18695,1,0,0:0:0:0:
182,192,18695,1,0,0:0:0:0:
329,192,18695,128,0,19040:0:0:0:0:
36,192,18867,1,0,0:0:0:0:
36,192,19040,1,0,0:0:0:0:
36,192,19212,1,0,0:0:0:0:
329,192,19212,128,0,19514:0:0:0:0:
402,192,19212,128,0,19514:0:0:0:0:
475,192,19212,128,0,19859:0:0:0:0:
182,192,19298,1,0,0:0:0:0:
36,192,19384,1,0,0:0:0:0:
182,192,19471,1,0,0:0:0:0:
36,192,19557,1,0,0:0:0:0:
109,192,19557,1,0,0:0:0:0:
329,192,19557,128,0,19859:0:0:0:0:
256,192,19557,128,0,20247:0:0:0:0:
36,192,19729,1,0,0:0:0:0:
475,192,19902,128,0,20246:0:0:0:0:
36,192,19902,1,0,0:0:0:0:
109,192,19902,1,0,0:0:0:0:
402,192,19902,128,0,20246:0:0:0:0:
36,192,20074,1,0,0:0:0:0:
36,192,20246,1,0,0:0:0:0:
182,192,20246,1,0,0:0:0:0:
109,192,20419,1,0,0:0:0:0:
36,192,20419,1,0,0:0:0:0:
329,192,20419,128,0,20764:0:0:0:0:
475,192,20419,128,0,20764:0:0:0:0:
36,192,20591,1,0,0:0:0:0:
36,192,20764,1,0,0:0:0:0:
36,192,20937,1,0,0:0:0:0:
329,192,20937,128,0,21109:0:0:0:0:
182,192,20937,1,0,0:0:0:0:
109,192,21023,1,0,0:0:0:0:
36,192,21109,1,0,0:0:0:0:
402,192,21109,128,0,21281:0:0:0:0:
182,192,21109,1,0,0:0:0:0:
109,192,21195,1,0,0:0:0:0:
36,192,21281,1,0,0:0:0:0:
329,192,21281,128,0,21454:0:0:0:0:
182,192,21281,1,0,0:0:0:0:
109,192,21368,1,0,0:0:0:0:
36,192,21454,1,0,0:0:0:0:
256,192,21454,128,0,21799:0:0:0:0:
182,192,21454,1,0,0:0:0:0:
109,192,21540,1,0,0:0:0:0:
36,192,21626,1,0,0:0:0:0:
182,192,21626,1,0,0:0:0:0:
109,192,21712,1,0,0:0:0:0:
36,192,21799,1,0,0:0:0:0:
329,192,21799,128,0,21971:0:0:0:0:
182,192,21799,1,0,0:0:0:0:
109,192,21885,1,0,0:0:0:0:
36,192,21971,1,0,0:0:0:0:
402,192,21971,128,0,22143:0:0:0:0:
182,192,21971,1,0,0:0:0:0:
256,192,21971,1,0,0:0:0:0:
36,192,22143,1,0,0:0:0:0:
475,192,22143,128,0,22316:0:0:0:0:
182,192,22143,1,0,0:0:0:0:
256,192,22143,1,0,0:0:0:0:
402,192,22230,1,0,0:0:0:0:
329,192,22273,1,0,0:0:0:0:
256,192,22316,1,0,0:0:0:0:
109,192,22316,128,0,22747:0:0:0:0:
182,192,22316,1,0,0:0:0:0:
36,192,22316,1,0,0:0:0:0:
182,192,22488,128,0,22919:0:0:0:0:
475,192,22660,128,0,22703:0:0:0:0:
329,192,22661,128,0,23092:0:0:0:0:
256,192,22661,128,0,23092:0:0:0:0:
36,192,22661,128,0,23092:0:0:0:0:
402,192,22661,128,0,23092:0:0:0:0:
109,192,22833,128,0,23264:0:0:0:0:
182,192,23006,128,0,23437:0:0:0:0:
329,192,23178,128,0,23609:0:0:0:0:
36,192,23178,128,0,23609:0:0:0:0:
475,192,23178,128,0,23609:0:0:0:0:
402,192,23178,128,0,23221:0:0:0:0:
256,192,23178,128,0,23609:0:0:0:0:
109,192,23350,128,0,23781:0:0:0:0:
182,192,23523,128,0,23954:0:0:0:0:
475,192,23695,128,0,24126:0:0:0:0:
36,192,23695,128,0,24126:0:0:0:0:
402,192,23695,128,0,24126:0:0:0:0:
329,192,23695,128,0,23738:0:0:0:0:
256,192,23695,128,0,24126:0:0:0:0:
109,192,23868,128,0,24299:0:0:0:0:
182,192,24040,128,0,24557:0:0:0:0:
329,192,24212,128,0,24557:0:0:0:0:
36,192,24212,128,0,24557:0:0:0:0:
402,192,24212,128,0,24255:0:0:0:0:
256,192,24212,128,0,24557:0:0:0:0:
475,192,24212,128,0,24557:0:0:0:0:
109,192,24385,128,0,24557:0:0:0:0:
182,192,24686,1,0,0:0:0:0:
329,192,24686,1,0,0:0:0:0:
402,192,24729,1,0,0:0:0:0:
256,192,24729,1,0,0:0:0:0:
109,192,24729,1,0,0:0:0:0:
36,192,24902,1,0,0:0:0:0:
109,192,24902,1,0,0:0:0:0:
256,192,24902,1,0,0:0:0:0:
402,192,24902,1,0,0:0:0:0:
475,192,24902,1,0,0:0:0:0:
109,192,25075,128,0,25506:0:0:0:0:
182,192,25247,128,0,25678:0:0:0:0:
256,192,25419,128,0,25850:0:0:0:0:
475,192,25419,128,0,25462:0:0:0:0:
36,192,25419,128,0,25850:0:0:0:0:
402,192,25419,128,0,25850:0:0:0:0:
329,192,25419,128,0,25850:0:0:0:0:
109,192,25592,128,0,26023:0:0:0:0:
182,192,25764,128,0,26195:0:0:0:0:
402,192,25936,128,0,25979:0:0:0:0:
475,192,25937,128,0,26368:0:0:0:0:
36,192,25937,128,0,26368:0:0:0:0:
256,192,25937,128,0,26368:0:0:0:0:
329,192,25937,128,0,26368:0:0:0:0:
109,192,26109,128,0,26368:0:0:0:0:
182,192,26281,128,0,26368:0:0:0:0:
329,192,26453,128,0,26497:0:0:0:0:
36,192,26454,128,0,26885:0:0:0:0:
256,192,26454,128,0,26885:0:0:0:0:
475,192,26454,128,0,26885:0:0:0:0:
402,192,26454,128,0,26885:0:0:0:0:
109,192,26454,128,0,26540:0:0:0:0:
182,192,26454,128,0,26712:0:0:0:0:
109,192,26626,128,0,27057:0:0:0:0:
182,192,26799,128,0,27316:0:0:0:0:
36,192,26971,128,0,27316:0:0:0:0:
402,192,26971,128,0,27014:0:0:0:0:
475,192,26971,128,0,27316:0:0:0:0:
256,192,26971,128,0,27316:0:0:0:0:
329,192,26971,128,0,27316:0:0:0:0:
109,192,27144,128,0,27316:0:0:0:0:
36,192,27402,1,0,0:0:0:0:
475,192,27402,1,0,0:0:0:0:
182,192,27445,1,0,0:0:0:0:
329,192,27445,1,0,0:0:0:0:
402,192,27488,1,0,0:0:0:0:
256,192,27488,1,0,0:0:0:0:
109,192,27488,1,0,0:0:0:0:
36,192,27660,1,0,0:0:0:0:
109,192,27660,1,0,0:0:0:0:
256,192,27660,1,0,0:0:0:0:
402,192,27660,1,0,0:0:0:0:
475,192,27660,1,0,0:0:0:0:
109,192,27833,128,0,28264:0:0:0:0:
182,192,28006,128,0,28437:0:0:0:0:
402,192,28178,128,0,28609:0:0:0:0:
475,192,28178,128,0,28609:0:0:0:0:
36,192,28178,128,0,28609:0:0:0:0:
256,192,28178,128,0,28609:0:0:0:0:
329,192,28178,128,0,28221:0:0:0:0:
109,192,28350,128,0,28781:0:0:0:0:
182,192,28523,128,0,28954:0:0:0:0:
402,192,28695,128,0,29126:0:0:0:0:
475,192,28695,128,0,29126:0:0:0:0:
36,192,28695,128,0,29126:0:0:0:0:
256,192,28695,128,0,29126:0:0:0:0:
329,192,28695,128,0,28738:0:0:0:0:
109,192,28868,128,0,29299:0:0:0:0:
182,192,29040,128,0,29471:0:0:0:0:
402,192,29212,128,0,29643:0:0:0:0:
329,192,29212,128,0,29643:0:0:0:0:
36,192,29212,128,0,29643:0:0:0:0:
256,192,29212,128,0,29255:0:0:0:0:
475,192,29212,128,0,29643:0:0:0:0:
109,192,29385,128,0,29816:0:0:0:0:
182,192,29557,128,0,30075:0:0:0:0:
329,192,29729,128,0,29772:0:0:0:0:
402,192,29730,128,0,30075:0:0:0:0:
475,192,29730,128,0,30075:0:0:0:0:
36,192,29730,128,0,30075:0:0:0:0:
256,192,29730,128,0,30075:0:0:0:0:
109,192,29902,128,0,30075:0:0:0:0:
36,192,30247,1,0,0:0:0:0:
109,192,30247,1,0,0:0:0:0:
182,192,30247,1,0,0:0:0:0:
256,192,30247,1,0,0:0:0:0:
329,192,30247,1,0,0:0:0:0:
402,192,30247,1,0,0:0:0:0:
109,192,30419,1,0,0:0:0:0:
182,192,30419,1,0,0:0:0:0:
256,192,30419,1,0,0:0:0:0:
329,192,30419,1,0,0:0:0:0:
402,192,30419,1,0,0:0:0:0:
475,192,30419,1,0,0:0:0:0:
109,192,30592,128,0,31023:0:0:0:0:
182,192,30764,128,0,31195:0:0:0:0:
329,192,30936,128,0,30979:0:0:0:0:
402,192,30937,128,0,31368:0:0:0:0:
475,192,30937,128,0,31368:0:0:0:0:
36,192,30937,128,0,31368:0:0:0:0:
256,192,30937,128,0,31368:0:0:0:0:
109,192,31109,128,0,31540:0:0:0:0:
182,192,31281,128,0,31799:0:0:0:0:
329,192,31453,128,0,31497:0:0:0:0:
402,192,31454,128,0,31799:0:0:0:0:
475,192,31454,128,0,31799:0:0:0:0:
36,192,31454,128,0,31799:0:0:0:0:
256,192,31454,128,0,31799:0:0:0:0:
109,192,31626,128,0,31799:0:0:0:0:
329,192,31885,1,0,0:0:0:0:
475,192,31885,1,0,0:0:0:0:
402,192,31928,1,0,0:0:0:0:
256,192,31971,128,0,33609:0:0:0:0:
36,192,31971,128,0,33609:0:0:0:0:
329,192,31971,1,0,0:0:0:0:
475,192,31971,1,0,0:0:0:0:
109,192,32143,1,0,0:0:0:0:
475,192,32143,1,0,0:0:0:0:
182,192,32230,1,0,0:0:0:0:
402,192,32230,1,0,0:0:0:0:
109,192,32316,1,0,0:0:0:0:
329,192,32316,1,0,0:0:0:0:
182,192,32402,1,0,0:0:0:0:
402,192,32402,1,0,0:0:0:0:
109,192,32488,1,0,0:0:0:0:
475,192,32488,1,0,0:0:0:0:
182,192,32575,1,0,0:0:0:0:
402,192,32575,1,0,0:0:0:0:
109,192,32661,1,0,0:0:0:0:
329,192,32661,1,0,0:0:0:0:
182,192,32747,1,0,0:0:0:0:
402,192,32747,1,0,0:0:0:0:
109,192,32833,1,0,0:0:0:0:
475,192,32833,1,0,0:0:0:0:
182,192,32919,1,0,0:0:0:0:
402,192,32919,1,0,0:0:0:0:
109,192,33006,1,0,0:0:0:0:
329,192,33006,1,0,0:0:0:0:
182,192,33092,1,0,0:0:0:0:
402,192,33092,1,0,0:0:0:0:
109,192,33178,1,0,0:0:0:0:
402,192,33178,1,0,0:0:0:0:
182,192,33221,1,0,0:0:0:0:
329,192,33221,1,0,0:0:0:0:
109,192,33264,1,0,0:0:0:0:
402,192,33264,1,0,0:0:0:0:
182,192,33307,1,0,0:0:0:0:
329,192,33307,1,0,0:0:0:0:
182,192,33522,128,0,33953:0:0:0:0:
329,192,33695,128,0,34126:0:0:0:0:
256,192,33695,128,0,34126:0:0:0:0:
36,192,33695,128,0,34126:0:0:0:0:
475,192,33695,128,0,33738:0:0:0:0:
402,192,33695,128,0,34126:0:0:0:0:
109,192,33867,128,0,34298:0:0:0:0:
182,192,34040,128,0,34471:0:0:0:0:
329,192,34212,128,0,34643:0:0:0:0:
36,192,34212,128,0,34643:0:0:0:0:
475,192,34212,128,0,34643:0:0:0:0:
402,192,34212,128,0,34255:0:0:0:0:
256,192,34212,128,0,34643:0:0:0:0:
109,192,34384,128,0,34815:0:0:0:0:
182,192,34557,128,0,34988:0:0:0:0:
475,192,34729,128,0,35160:0:0:0:0:
36,192,34729,128,0,35160:0:0:0:0:
402,192,34729,128,0,35160:0:0:0:0:
329,192,34729,128,0,34772:0:0:0:0:
256,192,34729,128,0,35160:0:0:0:0:
109,192,34902,128,0,35333:0:0:0:0:
182,192,35074,128,0,35591:0:0:0:0:
329,192,35246,128,0,35591:0:0:0:0:
36,192,35246,128,0,35591:0:0:0:0:
256,192,35246,128,0,35591:0:0:0:0:
475,192,35246,128,0,35591:0:0:0:0:
402,192,35247,128,0,35290:0:0:0:0:
109,192,35419,128,0,35591:0:0:0:0:
182,192,35721,1,0,0:0:0:0:
329,192,35721,1,0,0:0:0:0:
402,192,35764,1,0,0:0:0:0:
256,192,35764,1,0,0:0:0:0:
109,192,35764,1,0,0:0:0:0:
36,192,35936,1,0,0:0:0:0:
109,192,35936,1,0,0:0:0:0:
256,192,35936,1,0,0:0:0:0:
402,192,35936,1,0,0:0:0:0:
475,192,35936,1,0,0:0:0:0:
109,192,36109,128,0,36540:0:0:0:0:
182,192,36281,128,0,36712:0:0:0:0:
256,192,36453,128,0,36884:0:0:0:0:
475,192,36453,128,0,36497:0:0:0:0:
36,192,36453,128,0,36884:0:0:0:0:
402,192,36453,128,0,36884:0:0:0:0:
329,192,36453,128,0,36884:0:0:0:0:
109,192,36626,128,0,37057:0:0:0:0:
182,192,36798,128,0,37229:0:0:0:0:
475,192,36971,128,0,37402:0:0:0:0:
402,192,36971,128,0,37014:0:0:0:0:
36,192,36971,128,0,37402:0:0:0:0:
256,192,36971,128,0,37402:0:0:0:0:
329,192,36971,128,0,37402:0:0:0:0:
109,192,37143,128,0,37402:0:0:0:0:
182,192,37316,128,0,37402:0:0:0:0:
36,192,37488,128,0,37919:0:0:0:0:
256,192,37488,128,0,37919:0:0:0:0:
329,192,37488,128,0,37531:0:0:0:0:
475,192,37488,128,0,37919:0:0:0:0:
402,192,37488,128,0,37919:0:0:0:0:
109,192,37488,128,0,37575:0:0:0:0:
182,192,37488,128,0,37747:0:0:0:0:
109,192,37660,128,0,38091:0:0:0:0:
182,192,37833,128,0,38350:0:0:0:0:
36,192,38005,128,0,38350:0:0:0:0:
402,192,38005,128,0,38048:0:0:0:0:
475,192,38005,128,0,38350:0:0:0:0:
256,192,38005,128,0,38350:0:0:0:0:
329,192,38005,128,0,38350:0:0:0:0:
109,192,38178,128,0,38350:0:0:0:0:
36,192,38436,1,0,0:0:0:0:
475,192,38436,1,0,0:0:0:0:
182,192,38479,1,0,0:0:0:0:
329,192,38479,1,0,0:0:0:0:
109,192,38522,1,0,0:0:0:0:
256,192,38522,1,0,0:0:0:0:
402,192,38522,1,0,0:0:0:0:
475,192,38695,1,0,0:0:0:0:
402,192,38695,1,0,0:0:0:0:
256,192,38695,1,0,0:0:0:0:
109,192,38695,1,0,0:0:0:0:
36,192,38695,1,0,0:0:0:0:
109,192,38867,128,0,39298:0:0:0:0:
182,192,39040,128,0,39471:0:0:0:0:
402,192,39212,128,0,39643:0:0:0:0:
475,192,39212,128,0,39643:0:0:0:0:
36,192,39212,128,0,39643:0:0:0:0:
256,192,39212,128,0,39643:0:0:0:0:
329,192,39212,128,0,39255:0:0:0:0:
109,192,39384,128,0,39815:0:0:0:0:
182,192,39557,128,0,39988:0:0:0:0:
402,192,39729,128,0,40160:0:0:0:0:
475,192,39729,128,0,40160:0:0:0:0:
36,192,39729,128,0,40160:0:0:0:0:
256,192,39729,128,0,40160:0:0:0:0:
329,192,39729,128,0,39772:0:0:0:0:
109,192,39902,128,0,40333:0:0:0:0:
182,192,40074,128,0,40505:0:0:0:0:
402,192,40246,128,0,40677:0:0:0:0:
329,192,40246,128,0,40677:0:0:0:0:
36,192,40246,128,0,40677:0:0:0:0:
475,192,40246,128,0,40677:0:0:0:0:
256,192,40247,128,0,40290:0:0:0:0:
109,192,40419,128,0,40850:0:0:0:0:
182,192,40591,128,0,41109:0:0:0:0:
402,192,40764,128,0,41109:0:0:0:0:
475,192,40764,128,0,41109:0:0:0:0:
36,192,40764,128,0,41109:0:0:0:0:
256,192,40764,128,0,41109:0:0:0:0:
329,192,40764,128,0,40807:0:0:0:0:
109,192,40936,128,0,41109:0:0:0:0:
36,192,41281,1,0,0:0:0:0:
109,192,41281,1,0,0:0:0:0:
182,192,41281,1,0,0:0:0:0:
256,192,41281,1,0,0:0:0:0:
329,192,41281,1,0,0:0:0:0:
402,192,41281,1,0,0:0:0:0:
109,192,41453,1,0,0:0:0:0:
182,192,41453,1,0,0:0:0:0:
256,192,41453,1,0,0:0:0:0:
329,192,41453,1,0,0:0:0:0:
402,192,41453,1,0,0:0:0:0:
475,192,41453,1,0,0:0:0:0:
109,192,41626,128,0,42057:0:0:0:0:
182,192,41798,128,0,42229:0:0:0:0:
402,192,41971,128,0,42402:0:0:0:0:
475,192,41971,128,0,42402:0:0:0:0:
36,192,41971,128,0,42402:0:0:0:0:
256,192,41971,128,0,42402:0:0:0:0:
329,192,41971,128,0,42014:0:0:0:0:
109,192,42143,128,0,42574:0:0:0:0:
182,192,42315,128,0,42833:0:0:0:0:
402,192,42488,128,0,42833:0:0:0:0:
475,192,42488,128,0,42833:0:0:0:0:
36,192,42488,128,0,42833:0:0:0:0:
256,192,42488,128,0,42833:0:0:0:0:
329,192,42488,128,0,42531:0:0:0:0:
109,192,42660,128,0,42833:0:0:0:0:
329,192,42919,1,0,0:0:0:0:
475,192,42919,1,0,0:0:0:0:
402,192,42962,1,0,0:0:0:0:
329,192,43005,1,0,0:0:0:0:
475,192,43005,1,0,0:0:0:0:
36,192,43006,128,0,44342:0:0:0:0:
256,192,43006,128,0,44342:0:0:0:0:
109,192,43177,1,0,0:0:0:0:
475,192,43177,1,0,0:0:0:0:
182,192,43264,1,0,0:0:0:0:
402,192,43264,1,0,0:0:0:0:
109,192,43350,1,0,0:0:0:0:
329,192,43350,1,0,0:0:0:0:
182,192,43436,1,0,0:0:0:0:
402,192,43436,1,0,0:0:0:0:
109,192,43522,1,0,0:0:0:0:
475,192,43522,1,0,0:0:0:0:
182,192,43609,1,0,0:0:0:0:
402,192,43609,1,0,0:0:0:0:
109,192,43695,1,0,0:0:0:0:
329,192,43695,1,0,0:0:0:0:
182,192,43781,1,0,0:0:0:0:
402,192,43781,1,0,0:0:0:0:
109,192,43867,1,0,0:0:0:0:
475,192,43867,1,0,0:0:0:0:
182,192,43953,1,0,0:0:0:0:
402,192,43953,1,0,0:0:0:0:
109,192,44040,1,0,0:0:0:0:
329,192,44040,1,0,0:0:0:0:
182,192,44126,1,0,0:0:0:0:
402,192,44126,1,0,0:0:0:0:
475,192,44212,1,0,0:0:0:0:
109,192,44212,1,0,0:0:0:0:
402,192,44299,1,0,0:0:0:0:
182,192,44299,1,0,0:0:0:0:
36,192,44385,128,0,49816:0:0:0:0:
329,192,44385,1,0,0:0:0:0:
475,192,44385,1,0,0:0:0:0:
109,192,44385,128,0,44428:0:0:0:0:
402,192,44471,1,0,0:0:0:0:
475,192,44557,1,0,0:0:0:0:
182,192,44557,128,0,44600:0:0:0:0:
402,192,44643,1,0,0:0:0:0:
109,192,44730,1,0,0:0:0:0:
475,192,44730,128,0,44773:0:0:0:0:
329,192,44730,128,0,44773:0:0:0:0:
256,192,44730,1,0,0:0:0:0:
182,192,44816,1,0,0:0:0:0:
329,192,44902,1,0,0:0:0:0:
109,192,44902,128,0,44945:0:0:0:0:
402,192,44988,1,0,0:0:0:0:
329,192,45075,1,0,0:0:0:0:
182,192,45075,128,0,45118:0:0:0:0:
256,192,45075,1,0,0:0:0:0:
475,192,45161,1,0,0:0:0:0:
109,192,45247,1,0,0:0:0:0:
402,192,45247,128,0,45290:0:0:0:0:
329,192,45247,128,0,45290:0:0:0:0:
182,192,45333,1,0,0:0:0:0:
475,192,45419,1,0,0:0:0:0:
109,192,45419,128,0,45462:0:0:0:0:
256,192,45419,1,0,0:0:0:0:
402,192,45506,1,0,0:0:0:0:
329,192,45592,1,0,0:0:0:0:
182,192,45592,128,0,45635:0:0:0:0:
402,192,45678,1,0,0:0:0:0:
109,192,45764,1,0,0:0:0:0:
329,192,45764,128,0,45807:0:0:0:0:
475,192,45764,128,0,45807:0:0:0:0:
256,192,45764,1,0,0:0:0:0:
182,192,45850,1,0,0:0:0:0:
402,192,45937,1,0,0:0:0:0:
109,192,45937,128,0,45980:0:0:0:0:
475,192,46023,1,0,0:0:0:0:
402,192,46109,1,0,0:0:0:0:
182,192,46109,128,0,46152:0:0:0:0:
256,192,46109,1,0,0:0:0:0:
109,192,46195,1,0,0:0:0:0:
182,192,46281,1,0,0:0:0:0:
402,192,46281,128,0,46325:0:0:0:0:
475,192,46281,128,0,46325:0:0:0:0:
329,192,46368,1,0,0:0:0:0:
402,192,46454,1,0,0:0:0:0:
109,192,46454,128,0,46497:0:0:0:0:
256,192,46454,1,0,0:0:0:0:
475,192,46540,1,0,0:0:0:0:
329,192,46626,1,0,0:0:0:0:
182,192,46626,128,0,46669:0:0:0:0:
402,192,46712,1,0,0:0:0:0:
475,192,46799,128,0,46842:0:0:0:0:
402,192,46799,128,0,46842:0:0:0:0:
109,192,46799,1,0,0:0:0:0:
256,192,46799,1,0,0:0:0:0:
182,192,46885,1,0,0:0:0:0:
329,192,46971,128,0,47014:0:0:0:0:
402,192,46971,128,0,47014:0:0:0:0:
109,192,46971,1,0,0:0:0:0:
182,192,47057,1,0,0:0:0:0:
475,192,47143,1,0,0:0:0:0:
109,192,47143,128,0,47187:0:0:0:0:
256,192,47143,1,0,0:0:0:0:
329,192,47230,1,0,0:0:0:0:
402,192,47316,1,0,0:0:0:0:
182,192,47316,128,0,47359:0:0:0:0:
109,192,47402,1,0,0:0:0:0:
256,192,47488,1,0,0:0:0:0:
329,192,47488,1,0,0:0:0:0:
402,192,47488,128,0,47531:0:0:0:0:
475,192,47488,128,0,47531:0:0:0:0:
182,192,47575,1,0,0:0:0:0:
402,192,47661,1,0,0:0:0:0:
109,192,47661,128,0,47704:0:0:0:0:
329,192,47747,1,0,0:0:0:0:
256,192,47833,1,0,0:0:0:0:
402,192,47833,1,0,0:0:0:0:
182,192,47833,128,0,47876:0:0:0:0:
109,192,47919,1,0,0:0:0:0:
182,192,48006,1,0,0:0:0:0:
329,192,48006,128,0,48049:0:0:0:0:
402,192,48006,128,0,48049:0:0:0:0:
475,192,48092,1,0,0:0:0:0:
256,192,48178,1,0,0:0:0:0:
329,192,48178,1,0,0:0:0:0:
109,192,48178,128,0,48221:0:0:0:0:
475,192,48264,1,0,0:0:0:0:
402,192,48350,1,0,0:0:0:0:
182,192,48350,128,0,48393:0:0:0:0:
109,192,48437,1,0,0:0:0:0:
475,192,48523,1,0,0:0:0:0:
329,192,48523,128,0,48566:0:0:0:0:
402,192,48523,128,0,48566:0:0:0:0:
256,192,48523,1,0,0:0:0:0:
182,192,48609,1,0,0:0:0:0:
329,192,48695,1,0,0:0:0:0:
109,192,48695,128,0,48738:0:0:0:0:
402,192,48781,1,0,0:0:0:0:
256,192,48868,1,0,0:0:0:0:
475,192,48868,1,0,0:0:0:0:
182,192,48868,128,0,48911:0:0:0:0:
109,192,48954,1,0,0:0:0:0:
182,192,49040,1,0,0:0:0:0:
402,192,49040,128,0,49083:0:0:0:0:
475,192,49040,128,0,49083:0:0:0:0:
329,192,49126,1,0,0:0:0:0:
256,192,49212,1,0,0:0:0:0:
182,192,49212,1,0,0:0:0:0:
109,192,49212,128,0,49256:0:0:0:0:
329,192,49299,1,0,0:0:0:0:
402,192,49385,1,0,0:0:0:0:
182,192,49385,128,0,49428:0:0:0:0:
475,192,49471,1,0,0:0:0:0:
256,192,49557,1,0,0:0:0:0:
109,192,49557,1,0,0:0:0:0:
402,192,49557,128,0,49600:0:0:0:0:
475,192,49557,128,0,49600:0:0:0:0:
182,192,49643,1,0,0:0:0:0:
256,192,49730,1,0,0:0:0:0:
109,192,49730,1,0,0:0:0:0:
329,192,49730,128,0,49773:0:0:0:0:
402,192,49730,128,0,49773:0:0:0:0:
475,192,49902,128,0,55419:0:0:0:0:
182,192,49902,1,0,0:0:0:0:
256,192,49902,1,0,0:0:0:0:
329,192,49902,1,0,0:0:0:0:
36,192,49902,128,0,49945:0:0:0:0:
402,192,49988,1,0,0:0:0:0:
109,192,50075,128,0,50118:0:0:0:0:
329,192,50075,1,0,0:0:0:0:
182,192,50161,1,0,0:0:0:0:
329,192,50247,128,0,50290:0:0:0:0:
402,192,50247,128,0,50290:0:0:0:0:
256,192,50247,1,0,0:0:0:0:
36,192,50247,1,0,0:0:0:0:
109,192,50333,1,0,0:0:0:0:
36,192,50419,128,0,50462:0:0:0:0:
182,192,50419,1,0,0:0:0:0:
329,192,50506,1,0,0:0:0:0:
109,192,50592,128,0,50635:0:0:0:0:
256,192,50592,1,0,0:0:0:0:
182,192,50592,1,0,0:0:0:0:
36,192,50678,1,0,0:0:0:0:
329,192,50764,128,0,50807:0:0:0:0:
402,192,50764,128,0,50807:0:0:0:0:
182,192,50764,1,0,0:0:0:0:
109,192,50850,1,0,0:0:0:0:
36,192,50937,128,0,50980:0:0:0:0:
256,192,50937,1,0,0:0:0:0:
329,192,50937,1,0,0:0:0:0:
182,192,51023,1,0,0:0:0:0:
109,192,51109,128,0,51152:0:0:0:0:
329,192,51109,1,0,0:0:0:0:
402,192,51195,1,0,0:0:0:0:
329,192,51281,128,0,51325:0:0:0:0:
182,192,51281,128,0,51325:0:0:0:0:
256,192,51281,1,0,0:0:0:0:
109,192,51281,1,0,0:0:0:0:
402,192,51368,1,0,0:0:0:0:
36,192,51454,128,0,51497:0:0:0:0:
329,192,51454,1,0,0:0:0:0:
182,192,51540,1,0,0:0:0:0:
109,192,51626,128,0,51669:0:0:0:0:
256,192,51626,1,0,0:0:0:0:
36,192,51626,1,0,0:0:0:0:
182,192,51712,1,0,0:0:0:0:
329,192,51799,128,0,51842:0:0:0:0:
402,192,51799,128,0,51842:0:0:0:0:
109,192,51799,1,0,0:0:0:0:
182,192,51885,1,0,0:0:0:0:
36,192,51971,128,0,52014:0:0:0:0:
256,192,51971,1,0,0:0:0:0:
402,192,51971,1,0,0:0:0:0:
329,192,52057,1,0,0:0:0:0:
109,192,52143,128,0,52187:0:0:0:0:
182,192,52143,1,0,0:0:0:0:
36,192,52230,1,0,0:0:0:0:
329,192,52316,128,0,52359:0:0:0:0:
402,192,52316,128,0,52359:0:0:0:0:
256,192,52316,1,0,0:0:0:0:
109,192,52316,1,0,0:0:0:0:
36,192,52402,1,0,0:0:0:0:
329,192,52488,128,0,52531:0:0:0:0:
182,192,52488,128,0,52531:0:0:0:0:
109,192,52488,1,0,0:0:0:0:
402,192,52575,1,0,0:0:0:0:
36,192,52661,128,0,52704:0:0:0:0:
256,192,52661,1,0,0:0:0:0:
182,192,52661,1,0,0:0:0:0:
329,192,52747,1,0,0:0:0:0:
109,192,52833,128,0,52876:0:0:0:0:
402,192,52833,1,0,0:0:0:0:
182,192,52919,1,0,0:0:0:0:
329,192,53006,128,0,53049:0:0:0:0:
402,192,53006,128,0,53049:0:0:0:0:
256,192,53006,1,0,0:0:0:0:
109,192,53006,1,0,0:0:0:0:
182,192,53092,1,0,0:0:0:0:
36,192,53178,128,0,53221:0:0:0:0:
329,192,53178,1,0,0:0:0:0:
402,192,53264,1,0,0:0:0:0:
109,192,53350,128,0,53393:0:0:0:0:
256,192,53350,1,0,0:0:0:0:
329,192,53350,1,0,0:0:0:0:
182,192,53437,1,0,0:0:0:0:
329,192,53523,128,0,53566:0:0:0:0:
402,192,53523,128,0,53566:0:0:0:0:
109,192,53523,1,0,0:0:0:0:
182,192,53609,1,0,0:0:0:0:
36,192,53695,128,0,53738:0:0:0:0:
329,192,53695,1,0,0:0:0:0:
256,192,53695,1,0,0:0:0:0:
182,192,53781,1,0,0:0:0:0:
109,192,53868,128,0,53911:0:0:0:0:
256,192,54040,1,0,0:0:0:0:
402,192,54040,1,0,0:0:0:0:
109,192,54040,1,0,0:0:0:0:
182,192,54040,1,0,0:0:0:0:
329,192,54040,1,0,0:0:0:0:
36,192,54040,1,0,0:0:0:0:
256,192,54126,1,0,0:0:0:0:
402,192,54126,1,0,0:0:0:0:
109,192,54126,1,0,0:0:0:0:
256,192,54212,1,0,0:0:0:0:
402,192,54212,1,0,0:0:0:0:
109,192,54212,1,0,0:0:0:0:
109,192,54298,1,0,0:0:0:0:
256,192,54299,1,0,0:0:0:0:
402,192,54299,1,0,0:0:0:0:
109,192,54384,1,0,0:0:0:0:
256,192,54385,1,0,0:0:0:0:
402,192,54385,1,0,0:0:0:0:
182,192,54557,1,0,0:0:0:0:
256,192,54557,1,0,0:0:0:0:
109,192,54557,1,0,0:0:0:0:
329,192,54557,1,0,0:0:0:0:
402,192,54557,1,0,0:0:0:0:
36,192,54557,1,0,0:0:0:0:
182,192,54643,1,0,0:0:0:0:
256,192,54643,1,0,0:0:0:0:
109,192,54643,1,0,0:0:0:0:
109,192,54729,1,0,0:0:0:0:
182,192,54730,1,0,0:0:0:0:
256,192,54730,1,0,0:0:0:0:
109,192,54815,1,0,0:0:0:0:
182,192,54816,1,0,0:0:0:0:
256,192,54816,1,0,0:0:0:0:
182,192,54902,1,0,0:0:0:0:
256,192,54902,1,0,0:0:0:0:
109,192,54902,1,0,0:0:0:0:
256,192,55074,1,0,0:0:0:0:
329,192,55074,1,0,0:0:0:0:
402,192,55074,1,0,0:0:0:0:
36,192,55074,1,0,0:0:0:0:
109,192,55075,1,0,0:0:0:0:
182,192,55075,1,0,0:0:0:0:
36,192,55160,1,0,0:0:0:0:
109,192,55161,1,0,0:0:0:0:
182,192,55161,1,0,0:0:0:0:
109,192,55247,1,0,0:0:0:0:
182,192,55247,1,0,0:0:0:0:
36,192,55247,1,0,0:0:0:0:
109,192,55333,1,0,0:0:0:0:
182,192,55333,1,0,0:0:0:0:
36,192,55333,1,0,0:0:0:0:
36,192,55419,128,0,60850:0:0:0:0:
109,192,55419,128,0,55462:0:0:0:0:
256,192,55419,1,0,0:0:0:0:
329,192,55419,1,0,0:0:0:0:
402,192,55419,1,0,0:0:0:0:
182,192,55506,1,0,0:0:0:0:
329,192,55592,1,0,0:0:0:0:
256,192,55592,128,0,55635:0:0:0:0:
402,192,55678,1,0,0:0:0:0:
475,192,55764,128,0,55807:0:0:0:0:
329,192,55764,128,0,55807:0:0:0:0:
256,192,55764,1,0,0:0:0:0:
109,192,55764,1,0,0:0:0:0:
182,192,55850,1,0,0:0:0:0:
329,192,55936,1,0,0:0:0:0:
109,192,55936,128,0,55979:0:0:0:0:
402,192,56022,1,0,0:0:0:0:
329,192,56109,1,0,0:0:0:0:
182,192,56109,128,0,56152:0:0:0:0:
256,192,56109,1,0,0:0:0:0:
475,192,56195,1,0,0:0:0:0:
109,192,56281,1,0,0:0:0:0:
402,192,56281,128,0,56324:0:0:0:0:
329,192,56281,128,0,56324:0:0:0:0:
182,192,56367,1,0,0:0:0:0:
475,192,56453,1,0,0:0:0:0:
109,192,56453,128,0,56496:0:0:0:0:
256,192,56453,1,0,0:0:0:0:
402,192,56540,1,0,0:0:0:0:
329,192,56626,1,0,0:0:0:0:
182,192,56626,128,0,56669:0:0:0:0:
402,192,56712,1,0,0:0:0:0:
109,192,56798,1,0,0:0:0:0:
329,192,56798,128,0,56841:0:0:0:0:
475,192,56798,128,0,56841:0:0:0:0:
256,192,56798,1,0,0:0:0:0:
182,192,56884,1,0,0:0:0:0:
402,192,56971,1,0,0:0:0:0:
109,192,56971,128,0,57014:0:0:0:0:
475,192,57057,1,0,0:0:0:0:
402,192,57143,1,0,0:0:0:0:
182,192,57143,128,0,57186:0:0:0:0:
256,192,57143,1,0,0:0:0:0:
109,192,57229,1,0,0:0:0:0:
182,192,57315,1,0,0:0:0:0:
402,192,57315,128,0,57359:0:0:0:0:
475,192,57315,128,0,57359:0:0:0:0:
329,192,57402,1,0,0:0:0:0:
402,192,57488,1,0,0:0:0:0:
109,192,57488,128,0,57531:0:0:0:0:
256,192,57488,1,0,0:0:0:0:
475,192,57574,1,0,0:0:0:0:
329,192,57660,1,0,0:0:0:0:
182,192,57660,128,0,57703:0:0:0:0:
402,192,57746,1,0,0:0:0:0:
475,192,57833,128,0,57876:0:0:0:0:
402,192,57833,128,0,57876:0:0:0:0:
109,192,57833,1,0,0:0:0:0:
256,192,57833,1,0,0:0:0:0:
182,192,57919,1,0,0:0:0:0:
329,192,58005,128,0,58048:0:0:0:0:
402,192,58005,128,0,58048:0:0:0:0:
109,192,58005,1,0,0:0:0:0:
182,192,58091,1,0,0:0:0:0:
475,192,58177,1,0,0:0:0:0:
109,192,58177,128,0,58221:0:0:0:0:
256,192,58177,1,0,0:0:0:0:
329,192,58264,1,0,0:0:0:0:
402,192,58350,1,0,0:0:0:0:
182,192,58350,128,0,58393:0:0:0:0:
109,192,58436,1,0,0:0:0:0:
256,192,58522,1,0,0:0:0:0:
329,192,58522,1,0,0:0:0:0:
402,192,58522,128,0,58565:0:0:0:0:
475,192,58522,128,0,58565:0:0:0:0:
182,192,58609,1,0,0:0:0:0:
402,192,58695,1,0,0:0:0:0:
109,192,58695,128,0,58738:0:0:0:0:
329,192,58781,1,0,0:0:0:0:
256,192,58867,1,0,0:0:0:0:
402,192,58867,1,0,0:0:0:0:
182,192,58867,128,0,58910:0:0:0:0:
109,192,58953,1,0,0:0:0:0:
182,192,59040,1,0,0:0:0:0:
329,192,59040,128,0,59083:0:0:0:0:
402,192,59040,128,0,59083:0:0:0:0:
475,192,59126,1,0,0:0:0:0:
256,192,59212,1,0,0:0:0:0:
329,192,59212,1,0,0:0:0:0:
109,192,59212,128,0,59255:0:0:0:0:
475,192,59298,1,0,0:0:0:0:
402,192,59384,1,0,0:0:0:0:
182,192,59384,128,0,59427:0:0:0:0:
109,192,59471,1,0,0:0:0:0:
475,192,59557,1,0,0:0:0:0:
329,192,59557,128,0,59600:0:0:0:0:
402,192,59557,128,0,59600:0:0:0:0:
256,192,59557,1,0,0:0:0:0:
182,192,59643,1,0,0:0:0:0:
329,192,59729,1,0,0:0:0:0:
109,192,59729,128,0,59772:0:0:0:0:
402,192,59815,1,0,0:0:0:0:
256,192,59902,1,0,0:0:0:0:
475,192,59902,1,0,0:0:0:0:
182,192,59902,128,0,59945:0:0:0:0:
109,192,59988,1,0,0:0:0:0:
182,192,60074,1,0,0:0:0:0:
402,192,60074,128,0,60117:0:0:0:0:
475,192,60074,128,0,60117:0:0:0:0:
329,192,60160,1,0,0:0:0:0:
256,192,60246,1,0,0:0:0:0:
182,192,60246,1,0,0:0:0:0:
109,192,60246,128,0,60290:0:0:0:0:
329,192,60333,1,0,0:0:0:0:
402,192,60419,1,0,0:0:0:0:
182,192,60419,128,0,60462:0:0:0:0:
475,192,60505,1,0,0:0:0:0:
256,192,60591,1,0,0:0:0:0:
109,192,60591,1,0,0:0:0:0:
402,192,60591,128,0,60634:0:0:0:0:
475,192,60591,128,0,60634:0:0:0:0:
182,192,60677,1,0,0:0:0:0:
109,192,60764,1,0,0:0:0:0:
329,192,60764,128,0,60807:0:0:0:0:
402,192,60764,128,0,60807:0:0:0:0:
256,192,60764,1,0,0:0:0:0:
36,192,60936,128,0,60979:0:0:0:0:
475,192,60936,128,0,66453:0:0:0:0:
182,192,60936,1,0,0:0:0:0:
256,192,60936,1,0,0:0:0:0:
329,192,60936,1,0,0:0:0:0:
402,192,61022,1,0,0:0:0:0:
109,192,61109,128,0,61152:0:0:0:0:
329,192,61109,1,0,0:0:0:0:
182,192,61195,1,0,0:0:0:0:
329,192,61281,128,0,61324:0:0:0:0:
402,192,61281,128,0,61324:0:0:0:0:
256,192,61281,1,0,0:0:0:0:
36,192,61281,1,0,0:0:0:0:
109,192,61367,1,0,0:0:0:0:
36,192,61453,128,0,61496:0:0:0:0:
182,192,61453,1,0,0:0:0:0:
329,192,61540,1,0,0:0:0:0:
109,192,61626,128,0,61669:0:0:0:0:
256,192,61626,1,0,0:0:0:0:
182,192,61626,1,0,0:0:0:0:
36,192,61712,1,0,0:0:0:0:
329,192,61798,128,0,61841:0:0:0:0:
402,192,61798,128,0,61841:0:0:0:0:
182,192,61798,1,0,0:0:0:0:
109,192,61884,1,0,0:0:0:0:
36,192,61971,128,0,62014:0:0:0:0:
256,192,61971,1,0,0:0:0:0:
329,192,61971,1,0,0:0:0:0:
182,192,62057,1,0,0:0:0:0:
109,192,62143,128,0,62186:0:0:0:0:
329,192,62143,1,0,0:0:0:0:
402,192,62229,1,0,0:0:0:0:
329,192,62315,128,0,62359:0:0:0:0:
182,192,62315,128,0,62359:0:0:0:0:
256,192,62315,1,0,0:0:0:0:
109,192,62315,1,0,0:0:0:0:
402,192,62402,1,0,0:0:0:0:
36,192,62488,128,0,62531:0:0:0:0:
329,192,62488,1,0,0:0:0:0:
182,192,62574,1,0,0:0:0:0:
109,192,62660,128,0,62703:0:0:0:0:
256,192,62660,1,0,0:0:0:0:
36,192,62660,1,0,0:0:0:0:
182,192,62746,1,0,0:0:0:0:
329,192,62833,128,0,62876:0:0:0:0:
402,192,62833,128,0,62876:0:0:0:0:
109,192,62833,1,0,0:0:0:0:
182,192,62919,1,0,0:0:0:0:
36,192,63005,128,0,63048:0:0:0:0:
256,192,63005,1,0,0:0:0:0:
402,192,63005,1,0,0:0:0:0:
329,192,63091,1,0,0:0:0:0:
109,192,63177,128,0,63221:0:0:0:0:
182,192,63177,1,0,0:0:0:0:
36,192,63264,1,0,0:0:0:0:
329,192,63350,128,0,63393:0:0:0:0:
402,192,63350,128,0,63393:0:0:0:0:
256,192,63350,1,0,0:0:0:0:
109,192,63350,1,0,0:0:0:0:
36,192,63436,1,0,0:0:0:0:
329,192,63522,128,0,63565:0:0:0:0:
182,192,63522,128,0,63565:0:0:0:0:
109,192,63522,1,0,0:0:0:0:
402,192,63609,1,0,0:0:0:0:
36,192,63695,128,0,63738:0:0:0:0:
256,192,63695,1,0,0:0:0:0:
182,192,63695,1,0,0:0:0:0:
329,192,63781,1,0,0:0:0:0:
109,192,63867,128,0,63910:0:0:0:0:
402,192,63868,1,0,0:0:0:0:
182,192,63953,1,0,0:0:0:0:
329,192,64040,128,0,64083:0:0:0:0:
402,192,64040,128,0,64083:0:0:0:0:
256,192,64040,1,0,0:0:0:0:
109,192,64040,1,0,0:0:0:0:
182,192,64126,1,0,0:0:0:0:
36,192,64212,128,0,64255:0:0:0:0:
329,192,64212,1,0,0:0:0:0:
402,192,64298,1,0,0:0:0:0:
109,192,64384,128,0,64427:0:0:0:0:
256,192,64384,1,0,0:0:0:0:
329,192,64384,1,0,0:0:0:0:
182,192,64471,1,0,0:0:0:0:
329,192,64557,128,0,64600:0:0:0:0:
402,192,64557,128,0,64600:0:0:0:0:
109,192,64557,1,0,0:0:0:0:
182,192,64643,1,0,0:0:0:0:
36,192,64729,128,0,64772:0:0:0:0:
329,192,64729,1,0,0:0:0:0:
256,192,64729,1,0,0:0:0:0:
182,192,64815,1,0,0:0:0:0:
109,192,64902,128,0,64945:0:0:0:0:
256,192,65074,1,0,0:0:0:0:
402,192,65074,1,0,0:0:0:0:
109,192,65074,1,0,0:0:0:0:
182,192,65074,1,0,0:0:0:0:
329,192,65074,1,0,0:0:0:0:
36,192,65074,1,0,0:0:0:0:
256,192,65160,1,0,0:0:0:0:
402,192,65160,1,0,0:0:0:0:
109,192,65160,1,0,0:0:0:0:
256,192,65246,1,0,0:0:0:0:
402,192,65246,1,0,0:0:0:0:
109,192,65247,1,0,0:0:0:0:
256,192,65333,1,0,0:0:0:0:
402,192,65333,1,0,0:0:0:0:
109,192,65333,1,0,0:0:0:0:
256,192,65419,1,0,0:0:0:0:
402,192,65419,1,0,0:0:0:0:
109,192,65419,1,0,0:0:0:0:
182,192,65591,1,0,0:0:0:0:
256,192,65591,1,0,0:0:0:0:
109,192,65591,1,0,0:0:0:0:
329,192,65591,1,0,0:0:0:0:
402,192,65591,1,0,0:0:0:0:
36,192,65591,1,0,0:0:0:0:
182,192,65677,1,0,0:0:0:0:
256,192,65677,1,0,0:0:0:0:
109,192,65678,1,0,0:0:0:0:
182,192,65764,1,0,0:0:0:0:
256,192,65764,1,0,0:0:0:0:
109,192,65764,1,0,0:0:0:0:
182,192,65850,1,0,0:0:0:0:
256,192,65850,1,0,0:0:0:0:
109,192,65850,1,0,0:0:0:0:
182,192,65936,1,0,0:0:0:0:
256,192,65936,1,0,0:0:0:0:
109,192,65936,1,0,0:0:0:0:
109,192,66109,1,0,0:0:0:0:
182,192,66109,1,0,0:0:0:0:
256,192,66109,1,0,0:0:0:0:
329,192,66109,1,0,0:0:0:0:
402,192,66109,1,0,0:0:0:0:
36,192,66109,1,0,0:0:0:0:
109,192,66195,1,0,0:0:0:0:
182,192,66195,1,0,0:0:0:0:
36,192,66195,1,0,0:0:0:0:
109,192,66281,1,0,0:0:0:0:
182,192,66281,1,0,0:0:0:0:
36,192,66281,1,0,0:0:0:0:
109,192,66367,1,0,0:0:0:0:
182,192,66367,1,0,0:0:0:0:
36,192,66367,1,0,0:0:0:0:
36,192,66454,128,0,66799:0:0:0:0:
256,192,66454,128,0,66497:0:0:0:0:
329,192,66454,128,0,66497:0:0:0:0:
402,192,66454,128,0,66497:0:0:0:0:
182,192,66540,1,0,0:0:0:0:
475,192,66540,1,0,0:0:0:0:
402,192,66626,1,0,0:0:0:0:
109,192,66626,1,0,0:0:0:0:
182,192,66712,1,0,0:0:0:0:
329,192,66712,1,0,0:0:0:0:
109,192,66798,1,0,0:0:0:0:
256,192,66798,1,0,0:0:0:0:
475,192,66798,1,0,0:0:0:0:
402,192,66799,128,0,67316:0:0:0:0:
182,192,66885,1,0,0:0:0:0:
329,192,66885,1,0,0:0:0:0:
36,192,66971,1,0,0:0:0:0:
475,192,66971,1,0,0:0:0:0:
329,192,67057,1,0,0:0:0:0:
109,192,67057,1,0,0:0:0:0:
256,192,67143,1,0,0:0:0:0:
182,192,67143,1,0,0:0:0:0:
36,192,67143,1,0,0:0:0:0:
109,192,67230,1,0,0:0:0:0:
475,192,67230,1,0,0:0:0:0:
329,192,67316,128,0,67833:0:0:0:0:
182,192,67316,1,0,0:0:0:0:
36,192,67316,1,0,0:0:0:0:
109,192,67402,1,0,0:0:0:0:
475,192,67402,1,0,0:0:0:0:
182,192,67488,1,0,0:0:0:0:
256,192,67488,1,0,0:0:0:0:
402,192,67488,1,0,0:0:0:0:
36,192,67575,1,0,0:0:0:0:
475,192,67575,1,0,0:0:0:0:
109,192,67661,1,0,0:0:0:0:
182,192,67661,1,0,0:0:0:0:
402,192,67747,1,0,0:0:0:0:
475,192,67747,1,0,0:0:0:0:
109,192,67833,128,0,68350:0:0:0:0:
36,192,67833,1,0,0:0:0:0:
182,192,67833,1,0,0:0:0:0:
256,192,67833,1,0,0:0:0:0:
402,192,67919,1,0,0:0:0:0:
475,192,67919,1,0,0:0:0:0:
329,192,68006,1,0,0:0:0:0:
182,192,68006,1,0,0:0:0:0:
36,192,68092,1,0,0:0:0:0:
402,192,68092,1,0,0:0:0:0:
182,192,68178,1,0,0:0:0:0:
256,192,68178,1,0,0:0:0:0:
329,192,68178,1,0,0:0:0:0:
402,192,68264,1,0,0:0:0:0:
36,192,68264,1,0,0:0:0:0:
329,192,68350,128,0,68868:0:0:0:0:
475,192,68350,1,0,0:0:0:0:
182,192,68350,1,0,0:0:0:0:
402,192,68437,1,0,0:0:0:0:
36,192,68437,1,0,0:0:0:0:
182,192,68522,1,0,0:0:0:0:
256,192,68522,1,0,0:0:0:0:
475,192,68522,1,0,0:0:0:0:
109,192,68609,1,0,0:0:0:0:
402,192,68609,1,0,0:0:0:0:
36,192,68695,1,0,0:0:0:0:
182,192,68695,1,0,0:0:0:0:
109,192,68781,1,0,0:0:0:0:
475,192,68781,1,0,0:0:0:0:
36,192,68867,1,0,0:0:0:0:
182,192,68867,1,0,0:0:0:0:
256,192,68867,1,0,0:0:0:0:
402,192,68868,128,0,69212:0:0:0:0:
109,192,68954,1,0,0:0:0:0:
475,192,68954,1,0,0:0:0:0:
36,192,69040,1,0,0:0:0:0:
329,192,69040,1,0,0:0:0:0:
109,192,69126,1,0,0:0:0:0:
182,192,69126,1,0,0:0:0:0:
36,192,69212,128,0,69557:0:0:0:0:
256,192,69212,128,0,69256:0:0:0:0:
329,192,69212,128,0,69256:0:0:0:0:
475,192,69212,128,0,69256:0:0:0:0:
182,192,69299,1,0,0:0:0:0:
402,192,69299,1,0,0:0:0:0:
109,192,69385,1,0,0:0:0:0:
329,192,69385,1,0,0:0:0:0:
475,192,69471,1,0,0:0:0:0:
182,192,69471,1,0,0:0:0:0:
329,192,69557,128,0,70075:0:0:0:0:
109,192,69557,1,0,0:0:0:0:
256,192,69557,1,0,0:0:0:0:
402,192,69557,1,0,0:0:0:0:
182,192,69643,1,0,0:0:0:0:
475,192,69643,1,0,0:0:0:0:
36,192,69730,1,0,0:0:0:0:
402,192,69730,1,0,0:0:0:0:
109,192,69816,1,0,0:0:0:0:
475,192,69816,1,0,0:0:0:0:
36,192,69902,1,0,0:0:0:0:
182,192,69902,1,0,0:0:0:0:
256,192,69902,1,0,0:0:0:0:
109,192,69988,1,0,0:0:0:0:
402,192,69988,1,0,0:0:0:0:
182,192,70075,128,0,70592:0:0:0:0:
36,192,70075,1,0,0:0:0:0:
475,192,70075,1,0,0:0:0:0:
402,192,70161,1,0,0:0:0:0:
109,192,70161,1,0,0:0:0:0:
256,192,70247,1,0,0:0:0:0:
329,192,70247,1,0,0:0:0:0:
475,192,70247,1,0,0:0:0:0:
402,192,70333,1,0,0:0:0:0:
109,192,70333,1,0,0:0:0:0:
36,192,70419,1,0,0:0:0:0:
329,192,70419,1,0,0:0:0:0:
402,192,70506,1,0,0:0:0:0:
109,192,70506,1,0,0:0:0:0:
36,192,70591,1,0,0:0:0:0:
256,192,70591,1,0,0:0:0:0:
329,192,70591,1,0,0:0:0:0:
475,192,70592,128,0,71109:0:0:0:0:
109,192,70678,1,0,0:0:0:0:
402,192,70678,1,0,0:0:0:0:
182,192,70764,1,0,0:0:0:0:
36,192,70764,1,0,0:0:0:0:
109,192,70850,1,0,0:0:0:0:
329,192,70850,1,0,0:0:0:0:
182,192,70936,1,0,0:0:0:0:
256,192,70936,1,0,0:0:0:0:
402,192,70936,1,0,0:0:0:0:
109,192,71023,1,0,0:0:0:0:
36,192,71023,1,0,0:0:0:0:
329,192,71109,128,0,71626:0:0:0:0:
182,192,71109,1,0,0:0:0:0:
402,192,71109,1,0,0:0:0:0:
109,192,71195,1,0,0:0:0:0:
36,192,71195,1,0,0:0:0:0:
182,192,71281,1,0,0:0:0:0:
256,192,71281,1,0,0:0:0:0:
475,192,71281,1,0,0:0:0:0:
402,192,71368,1,0,0:0:0:0:
109,192,71368,1,0,0:0:0:0:
36,192,71454,1,0,0:0:0:0:
182,192,71454,1,0,0:0:0:0:
402,192,71540,1,0,0:0:0:0:
109,192,71540,1,0,0:0:0:0:
182,192,71626,128,0,71971:0:0:0:0:
36,192,71626,1,0,0:0:0:0:
256,192,71626,1,0,0:0:0:0:
475,192,71626,1,0,0:0:0:0:
402,192,71712,1,0,0:0:0:0:
109,192,71712,1,0,0:0:0:0:
36,192,71799,1,0,0:0:0:0:
329,192,71799,1,0,0:0:0:0:
475,192,71885,1,0,0:0:0:0:
109,192,71885,1,0,0:0:0:0:
36,192,71971,128,0,72316:0:0:0:0:
256,192,71971,128,0,72014:0:0:0:0:
329,192,71971,128,0,72014:0:0:0:0:
402,192,71971,128,0,72014:0:0:0:0:
109,192,72057,1,0,0:0:0:0:
475,192,72057,1,0,0:0:0:0:
182,192,72143,1,0,0:0:0:0:
329,192,72143,1,0,0:0:0:0:
402,192,72230,1,0,0:0:0:0:
109,192,72230,1,0,0:0:0:0:
182,192,72315,1,0,0:0:0:0:
256,192,72315,1,0,0:0:0:0:
329,192,72315,1,0,0:0:0:0:
475,192,72316,128,0,72833:0:0:0:0:
402,192,72402,1,0,0:0:0:0:
109,192,72402,1,0,0:0:0:0:
182,192,72488,1,0,0:0:0:0:
36,192,72488,1,0,0:0:0:0:
329,192,72575,1,0,0:0:0:0:
402,192,72575,1,0,0:0:0:0:
109,192,72660,1,0,0:0:0:0:
182,192,72660,1,0,0:0:0:0:
256,192,72660,1,0,0:0:0:0:
36,192,72747,1,0,0:0:0:0:
402,192,72747,1,0,0:0:0:0:
329,192,72833,128,0,73350:0:0:0:0:
182,192,72833,1,0,0:0:0:0:
109,192,72833,1,0,0:0:0:0:
36,192,72919,1,0,0:0:0:0:
402,192,72919,1,0,0:0:0:0:
182,192,73005,1,0,0:0:0:0:
256,192,73005,1,0,0:0:0:0:
475,192,73005,1,0,0:0:0:0:
402,192,73092,1,0,0:0:0:0:
109,192,73092,1,0,0:0:0:0:
36,192,73178,1,0,0:0:0:0:
182,192,73178,1,0,0:0:0:0:
109,192,73264,1,0,0:0:0:0:
402,192,73264,1,0,0:0:0:0:
182,192,73350,128,0,73868:0:0:0:0:
36,192,73350,1,0,0:0:0:0:
256,192,73350,1,0,0:0:0:0:
475,192,73350,1,0,0:0:0:0:
402,192,73437,1,0,0:0:0:0:
109,192,73437,1,0,0:0:0:0:
329,192,73523,1,0,0:0:0:0:
475,192,73523,1,0,0:0:0:0:
109,192,73609,1,0,0:0:0:0:
36,192,73609,1,0,0:0:0:0:
256,192,73695,1,0,0:0:0:0:
329,192,73695,1,0,0:0:0:0:
475,192,73695,1,0,0:0:0:0:
402,192,73781,1,0,0:0:0:0:
109,192,73781,1,0,0:0:0:0:
329,192,73868,128,0,74385:0:0:0:0:
36,192,73868,1,0,0:0:0:0:
475,192,73868,1,0,0:0:0:0:
109,192,73954,1,0,0:0:0:0:
402,192,73954,1,0,0:0:0:0:
36,192,74040,1,0,0:0:0:0:
182,192,74040,1,0,0:0:0:0:
256,192,74040,1,0,0:0:0:0:
109,192,74126,1,0,0:0:0:0:
475,192,74126,1,0,0:0:0:0:
402,192,74212,1,0,0:0:0:0:
36,192,74212,1,0,0:0:0:0:
109,192,74299,1,0,0:0:0:0:
475,192,74299,1,0,0:0:0:0:
36,192,74384,1,0,0:0:0:0:
256,192,74384,1,0,0:0:0:0:
402,192,74384,1,0,0:0:0:0:
182,192,74385,128,0,74730:0:0:0:0:
109,192,74471,1,0,0:0:0:0:
475,192,74471,1,0,0:0:0:0:
402,192,74557,1,0,0:0:0:0:
329,192,74557,1,0,0:0:0:0:
109,192,74643,1,0,0:0:0:0:
475,192,74643,1,0,0:0:0:0:
36,192,74730,128,0,75075:0:0:0:0:
256,192,74730,128,0,74773:0:0:0:0:
329,192,74730,128,0,74773:0:0:0:0:
402,192,74730,128,0,74773:0:0:0:0:
182,192,74816,1,0,0:0:0:0:
475,192,74816,1,0,0:0:0:0:
402,192,74902,1,0,0:0:0:0:
109,192,74902,1,0,0:0:0:0:
182,192,74988,1,0,0:0:0:0:
329,192,74988,1,0,0:0:0:0:
109,192,75074,1,0,0:0:0:0:
256,192,75074,1,0,0:0:0:0:
402,192,75074,1,0,0:0:0:0:
475,192,75075,128,0,75592:0:0:0:0:
182,192,75161,1,0,0:0:0:0:
329,192,75161,1,0,0:0:0:0:
109,192,75247,1,0,0:0:0:0:
36,192,75247,1,0,0:0:0:0:
182,192,75333,1,0,0:0:0:0:
329,192,75333,1,0,0:0:0:0:
109,192,75419,1,0,0:0:0:0:
256,192,75419,1,0,0:0:0:0:
402,192,75419,1,0,0:0:0:0:
329,192,75506,1,0,0:0:0:0:
36,192,75506,1,0,0:0:0:0:
402,192,75592,128,0,76109:0:0:0:0:
182,192,75592,1,0,0:0:0:0:
109,192,75592,1,0,0:0:0:0:
329,192,75678,1,0,0:0:0:0:
475,192,75678,1,0,0:0:0:0:
36,192,75764,1,0,0:0:0:0:
182,192,75764,1,0,0:0:0:0:
256,192,75764,1,0,0:0:0:0:
109,192,75850,1,0,0:0:0:0:
475,192,75850,1,0,0:0:0:0:
182,192,75937,1,0,0:0:0:0:
329,192,75937,1,0,0:0:0:0:
329,192,76109,128,0,76626:0:0:0:0:
256,192,76109,1,0,0:0:0:0:
475,192,76109,1,0,0:0:0:0:
109,192,76195,1,0,0:0:0:0:
36,192,76195,1,0,0:0:0:0:
182,192,76195,1,0,0:0:0:0:
109,192,76281,1,0,0:0:0:0:
36,192,76281,1,0,0:0:0:0:
182,192,76281,1,0,0:0:0:0:
182,192,76367,1,0,0:0:0:0:
109,192,76368,1,0,0:0:0:0:
36,192,76368,1,0,0:0:0:0:
182,192,76453,1,0,0:0:0:0:
109,192,76454,1,0,0:0:0:0:
36,192,76454,1,0,0:0:0:0:
109,192,76540,1,0,0:0:0:0:
36,192,76540,1,0,0:0:0:0:
182,192,76540,1,0,0:0:0:0:
182,192,76626,128,0,77143:0:0:0:0:
256,192,76626,1,0,0:0:0:0:
402,192,76626,1,0,0:0:0:0:
475,192,76798,1,0,0:0:0:0:
402,192,76799,1,0,0:0:0:0:
329,192,76799,1,0,0:0:0:0:
475,192,76884,1,0,0:0:0:0:
402,192,76885,1,0,0:0:0:0:
329,192,76885,1,0,0:0:0:0:
402,192,76971,1,0,0:0:0:0:
329,192,76971,1,0,0:0:0:0:
475,192,76971,1,0,0:0:0:0:
402,192,77057,1,0,0:0:0:0:
329,192,77057,1,0,0:0:0:0:
475,192,77057,1,0,0:0:0:0:
109,192,77143,128,0,77488:0:0:0:0:
256,192,77143,1,0,0:0:0:0:
475,192,77230,1,0,0:0:0:0:
36,192,77230,1,0,0:0:0:0:
329,192,77230,1,0,0:0:0:0:
402,192,77230,1,0,0:0:0:0:
182,192,77230,1,0,0:0:0:0:
402,192,77316,1,0,0:0:0:0:
475,192,77316,1,0,0:0:0:0:
36,192,77316,1,0,0:0:0:0:
329,192,77316,1,0,0:0:0:0:
182,192,77316,1,0,0:0:0:0:
402,192,77402,1,0,0:0:0:0:
475,192,77402,1,0,0:0:0:0:
36,192,77402,1,0,0:0:0:0:
329,192,77402,1,0,0:0:0:0:
182,192,77402,1,0,0:0:0:0:
256,192,77488,128,0,77531:0:0:0:0:
402,192,77488,128,0,77531:0:0:0:0:
475,192,77488,128,0,77531:0:0:0:0:
36,192,77488,128,0,77833:0:0:0:0:
329,192,77575,1,0,0:0:0:0:
182,192,77575,1,0,0:0:0:0:
402,192,77660,1,0,0:0:0:0:
109,192,77660,1,0,0:0:0:0:
182,192,77746,1,0,0:0:0:0:
329,192,77746,1,0,0:0:0:0:
402,192,77833,128,0,78350:0:0:0:0:
109,192,77833,1,0,0:0:0:0:
256,192,77833,1,0,0:0:0:0:
475,192,77833,1,0,0:0:0:0:
182,192,77919,1,0,0:0:0:0:
329,192,77919,1,0,0:0:0:0:
36,192,78005,1,0,0:0:0:0:
475,192,78005,1,0,0:0:0:0:
329,192,78091,1,0,0:0:0:0:
109,192,78091,1,0,0:0:0:0:
36,192,78178,1,0,0:0:0:0:
182,192,78178,1,0,0:0:0:0:
256,192,78178,1,0,0:0:0:0:
109,192,78264,1,0,0:0:0:0:
475,192,78264,1,0,0:0:0:0:
329,192,78350,128,0,78867:0:0:0:0:
182,192,78350,1,0,0:0:0:0:
36,192,78350,1,0,0:0:0:0:
109,192,78436,1,0,0:0:0:0:
475,192,78436,1,0,0:0:0:0:
182,192,78522,1,0,0:0:0:0:
256,192,78522,1,0,0:0:0:0:
402,192,78522,1,0,0:0:0:0:
36,192,78609,1,0,0:0:0:0:
475,192,78609,1,0,0:0:0:0:
109,192,78695,1,0,0:0:0:0:
182,192,78695,1,0,0:0:0:0:
402,192,78781,1,0,0:0:0:0:
475,192,78781,1,0,0:0:0:0:
109,192,78867,128,0,79384:0:0:0:0:
36,192,78867,1,0,0:0:0:0:
182,192,78867,1,0,0:0:0:0:
256,192,78867,1,0,0:0:0:0:
402,192,78953,1,0,0:0:0:0:
475,192,78953,1,0,0:0:0:0:
329,192,79040,1,0,0:0:0:0:
182,192,79040,1,0,0:0:0:0:
36,192,79126,1,0,0:0:0:0:
402,192,79126,1,0,0:0:0:0:
182,192,79212,1,0,0:0:0:0:
256,192,79212,1,0,0:0:0:0:
329,192,79212,1,0,0:0:0:0:
402,192,79298,1,0,0:0:0:0:
36,192,79298,1,0,0:0:0:0:
329,192,79384,128,0,79902:0:0:0:0:
475,192,79384,1,0,0:0:0:0:
182,192,79384,1,0,0:0:0:0:
402,192,79471,1,0,0:0:0:0:
36,192,79471,1,0,0:0:0:0:
256,192,79557,1,0,0:0:0:0:
182,192,79557,1,0,0:0:0:0:
475,192,79557,1,0,0:0:0:0:
109,192,79643,1,0,0:0:0:0:
402,192,79643,1,0,0:0:0:0:
36,192,79729,1,0,0:0:0:0:
182,192,79729,1,0,0:0:0:0:
109,192,79815,1,0,0:0:0:0:
475,192,79815,1,0,0:0:0:0:
402,192,79902,128,0,80246:0:0:0:0:
36,192,79902,1,0,0:0:0:0:
182,192,79902,1,0,0:0:0:0:
256,192,79902,1,0,0:0:0:0:
109,192,79988,1,0,0:0:0:0:
475,192,79988,1,0,0:0:0:0:
36,192,80074,1,0,0:0:0:0:
329,192,80074,1,0,0:0:0:0:
109,192,80160,1,0,0:0:0:0:
182,192,80160,1,0,0:0:0:0:
36,192,80246,128,0,80591:0:0:0:0:
256,192,80246,128,0,80290:0:0:0:0:
329,192,80246,128,0,80290:0:0:0:0:
475,192,80246,128,0,80290:0:0:0:0:
182,192,80333,1,0,0:0:0:0:
402,192,80333,1,0,0:0:0:0:
109,192,80419,1,0,0:0:0:0:
329,192,80419,1,0,0:0:0:0:
475,192,80505,1,0,0:0:0:0:
182,192,80505,1,0,0:0:0:0:
329,192,80591,128,0,81109:0:0:0:0:
109,192,80591,1,0,0:0:0:0:
256,192,80591,1,0,0:0:0:0:
402,192,80591,1,0,0:0:0:0:
182,192,80677,1,0,0:0:0:0:
475,192,80677,1,0,0:0:0:0:
36,192,80764,1,0,0:0:0:0:
402,192,80764,1,0,0:0:0:0:
109,192,80850,1,0,0:0:0:0:
475,192,80850,1,0,0:0:0:0:
36,192,80936,1,0,0:0:0:0:
182,192,80936,1,0,0:0:0:0:
256,192,80936,1,0,0:0:0:0:
109,192,81022,1,0,0:0:0:0:
402,192,81022,1,0,0:0:0:0:
182,192,81109,128,0,81626:0:0:0:0:
36,192,81109,1,0,0:0:0:0:
475,192,81109,1,0,0:0:0:0:
402,192,81195,1,0,0:0:0:0:
109,192,81195,1,0,0:0:0:0:
256,192,81281,1,0,0:0:0:0:
329,192,81281,1,0,0:0:0:0:
475,192,81281,1,0,0:0:0:0:
402,192,81367,1,0,0:0:0:0:
109,192,81367,1,0,0:0:0:0:
36,192,81453,1,0,0:0:0:0:
329,192,81453,1,0,0:0:0:0:
402,192,81540,1,0,0:0:0:0:
109,192,81540,1,0,0:0:0:0:
475,192,81626,128,0,82143:0:0:0:0:
36,192,81626,1,0,0:0:0:0:
256,192,81626,1,0,0:0:0:0:
329,192,81626,1,0,0:0:0:0:
109,192,81712,1,0,0:0:0:0:
402,192,81712,1,0,0:0:0:0:
182,192,81798,1,0,0:0:0:0:
36,192,81798,1,0,0:0:0:0:
109,192,81884,1,0,0:0:0:0:
329,192,81884,1,0,0:0:0:0:
182,192,81971,1,0,0:0:0:0:
256,192,81971,1,0,0:0:0:0:
402,192,81971,1,0,0:0:0:0:
109,192,82057,1,0,0:0:0:0:
36,192,82057,1,0,0:0:0:0:
329,192,82143,128,0,82660:0:0:0:0:
182,192,82143,1,0,0:0:0:0:
402,192,82143,1,0,0:0:0:0:
109,192,82229,1,0,0:0:0:0:
36,192,82229,1,0,0:0:0:0:
182,192,82315,1,0,0:0:0:0:
256,192,82315,1,0,0:0:0:0:
475,192,82315,1,0,0:0:0:0:
402,192,82402,1,0,0:0:0:0:
109,192,82402,1,0,0:0:0:0:
36,192,82488,1,0,0:0:0:0:
182,192,82488,1,0,0:0:0:0:
402,192,82574,1,0,0:0:0:0:
109,192,82574,1,0,0:0:0:0:
182,192,82660,128,0,83005:0:0:0:0:
36,192,82660,1,0,0:0:0:0:
256,192,82660,1,0,0:0:0:0:
475,192,82660,1,0,0:0:0:0:
402,192,82746,1,0,0:0:0:0:
109,192,82746,1,0,0:0:0:0:
36,192,82833,1,0,0:0:0:0:
329,192,82833,1,0,0:0:0:0:
475,192,82919,1,0,0:0:0:0:
109,192,82919,1,0,0:0:0:0:
36,192,83005,128,0,83350:0:0:0:0:
256,192,83005,128,0,83048:0:0:0:0:
329,192,83005,128,0,83048:0:0:0:0:
402,192,83005,128,0,83048:0:0:0:0:
109,192,83091,1,0,0:0:0:0:
475,192,83091,1,0,0:0:0:0:
182,192,83177,1,0,0:0:0:0:
329,192,83177,1,0,0:0:0:0:
402,192,83264,1,0,0:0:0:0:
109,192,83264,1,0,0:0:0:0:
475,192,83350,128,0,83867:0:0:0:0:
182,192,83350,1,0,0:0:0:0:
256,192,83350,1,0,0:0:0:0:
329,192,83350,1,0,0:0:0:0:
402,192,83436,1,0,0:0:0:0:
109,192,83436,1,0,0:0:0:0:
182,192,83522,1,0,0:0:0:0:
36,192,83522,1,0,0:0:0:0:
329,192,83609,1,0,0:0:0:0:
402,192,83609,1,0,0:0:0:0:
109,192,83695,1,0,0:0:0:0:
182,192,83695,1,0,0:0:0:0:
256,192,83695,1,0,0:0:0:0:
36,192,83781,1,0,0:0:0:0:
402,192,83781,1,0,0:0:0:0:
329,192,83867,128,0,84384:0:0:0:0:
182,192,83867,1,0,0:0:0:0:
109,192,83867,1,0,0:0:0:0:
36,192,83953,1,0,0:0:0:0:
402,192,83953,1,0,0:0:0:0:
182,192,84040,1,0,0:0:0:0:
256,192,84040,1,0,0:0:0:0:
475,192,84040,1,0,0:0:0:0:
402,192,84126,1,0,0:0:0:0:
109,192,84126,1,0,0:0:0:0:
36,192,84212,1,0,0:0:0:0:
182,192,84212,1,0,0:0:0:0:
109,192,84298,1,0,0:0:0:0:
402,192,84298,1,0,0:0:0:0:
182,192,84384,128,0,84902:0:0:0:0:
36,192,84384,1,0,0:0:0:0:
256,192,84384,1,0,0:0:0:0:
475,192,84384,1,0,0:0:0:0:
402,192,84471,1,0,0:0:0:0:
109,192,84471,1,0,0:0:0:0:
329,192,84557,1,0,0:0:0:0:
475,192,84557,1,0,0:0:0:0:
109,192,84643,1,0,0:0:0:0:
36,192,84643,1,0,0:0:0:0:
256,192,84729,1,0,0:0:0:0:
329,192,84729,1,0,0:0:0:0:
475,192,84729,1,0,0:0:0:0:
402,192,84815,1,0,0:0:0:0:
109,192,84815,1,0,0:0:0:0:
329,192,84902,128,0,85419:0:0:0:0:
36,192,84902,1,0,0:0:0:0:
475,192,84902,1,0,0:0:0:0:
109,192,84988,1,0,0:0:0:0:
402,192,84988,1,0,0:0:0:0:
256,192,85074,1,0,0:0:0:0:
182,192,85074,1,0,0:0:0:0:
36,192,85074,1,0,0:0:0:0:
109,192,85160,1,0,0:0:0:0:
475,192,85160,1,0,0:0:0:0:
402,192,85246,1,0,0:0:0:0:
36,192,85246,1,0,0:0:0:0:
109,192,85333,1,0,0:0:0:0:
475,192,85333,1,0,0:0:0:0:
182,192,85419,128,0,85764:0:0:0:0:
36,192,85419,1,0,0:0:0:0:
256,192,85419,1,0,0:0:0:0:
402,192,85419,1,0,0:0:0:0:
109,192,85505,1,0,0:0:0:0:
475,192,85505,1,0,0:0:0:0:
402,192,85591,1,0,0:0:0:0:
329,192,85591,1,0,0:0:0:0:
109,192,85677,1,0,0:0:0:0:
475,192,85677,1,0,0:0:0:0:
36,192,85764,128,0,86109:0:0:0:0:
256,192,85764,128,0,85807:0:0:0:0:
329,192,85764,128,0,85807:0:0:0:0:
402,192,85764,128,0,85807:0:0:0:0:
182,192,85850,1,0,0:0:0:0:
475,192,85850,1,0,0:0:0:0:
402,192,85936,1,0,0:0:0:0:
109,192,85936,1,0,0:0:0:0:
182,192,86022,1,0,0:0:0:0:
329,192,86022,1,0,0:0:0:0:
475,192,86109,128,0,86626:0:0:0:0:
109,192,86109,1,0,0:0:0:0:
256,192,86109,1,0,0:0:0:0:
402,192,86109,1,0,0:0:0:0:
182,192,86195,1,0,0:0:0:0:
329,192,86195,1,0,0:0:0:0:
109,192,86281,1,0,0:0:0:0:
36,192,86281,1,0,0:0:0:0:
182,192,86367,1,0,0:0:0:0:
329,192,86367,1,0,0:0:0:0:
109,192,86453,1,0,0:0:0:0:
256,192,86453,1,0,0:0:0:0:
402,192,86453,1,0,0:0:0:0:
329,192,86540,1,0,0:0:0:0:
36,192,86540,1,0,0:0:0:0:
402,192,86626,128,0,87143:0:0:0:0:
182,192,86626,1,0,0:0:0:0:
109,192,86626,1,0,0:0:0:0:
329,192,86712,1,0,0:0:0:0:
475,192,86712,1,0,0:0:0:0:
256,192,86798,1,0,0:0:0:0:
182,192,86798,1,0,0:0:0:0:
36,192,86798,1,0,0:0:0:0:
109,192,86884,1,0,0:0:0:0:
475,192,86884,1,0,0:0:0:0:
182,192,86971,1,0,0:0:0:0:
329,192,86971,1,0,0:0:0:0:
329,192,87143,128,0,87660:0:0:0:0:
256,192,87143,1,0,0:0:0:0:
475,192,87143,1,0,0:0:0:0:
109,192,87229,1,0,0:0:0:0:
36,192,87229,1,0,0:0:0:0:
182,192,87229,1,0,0:0:0:0:
109,192,87315,1,0,0:0:0:0:
36,192,87315,1,0,0:0:0:0:
182,192,87315,1,0,0:0:0:0:
109,192,87402,1,0,0:0:0:0:
36,192,87402,1,0,0:0:0:0:
182,192,87402,1,0,0:0:0:0:
109,192,87488,1,0,0:0:0:0:
36,192,87488,1,0,0:0:0:0:
182,192,87488,1,0,0:0:0:0:
109,192,87574,1,0,0:0:0:0:
36,192,87574,1,0,0:0:0:0:
182,192,87574,1,0,0:0:0:0:
182,192,87660,128,0,88177:0:0:0:0:
256,192,87660,1,0,0:0:0:0:
402,192,87660,1,0,0:0:0:0:
475,192,87660,1,0,0:0:0:0:
475,192,87747,1,0,0:0:0:0:
402,192,87747,1,0,0:0:0:0:
256,192,87747,1,0,0:0:0:0:
329,192,87833,1,0,0:0:0:0:
402,192,87833,1,0,0:0:0:0:
109,192,87833,1,0,0:0:0:0:
402,192,87919,1,0,0:0:0:0:
329,192,87919,1,0,0:0:0:0:
109,192,87919,1,0,0:0:0:0:
329,192,88005,1,0,0:0:0:0:
109,192,88005,1,0,0:0:0:0:
402,192,88006,1,0,0:0:0:0:
109,192,88091,1,0,0:0:0:0:
402,192,88092,1,0,0:0:0:0:
329,192,88092,1,0,0:0:0:0:
109,192,88177,128,0,88522:0:0:0:0:
36,192,88178,1,0,0:0:0:0:
475,192,88178,1,0,0:0:0:0:
256,192,88178,1,0,0:0:0:0:
329,192,88264,1,0,0:0:0:0:
402,192,88264,1,0,0:0:0:0:
182,192,88264,1,0,0:0:0:0:
402,192,88350,1,0,0:0:0:0:
329,192,88350,1,0,0:0:0:0:
182,192,88350,1,0,0:0:0:0:
402,192,88436,1,0,0:0:0:0:
329,192,88436,1,0,0:0:0:0:
182,192,88436,1,0,0:0:0:0:
256,192,88523,128,0,88566:0:0:0:0:
402,192,88523,128,0,88566:0:0:0:0:
475,192,88523,128,0,88566:0:0:0:0:
36,192,88523,128,0,88868:0:0:0:0:
182,192,88609,1,0,0:0:0:0:
329,192,88609,1,0,0:0:0:0:
109,192,88695,1,0,0:0:0:0:
402,192,88695,1,0,0:0:0:0:
329,192,88781,1,0,0:0:0:0:
182,192,88781,1,0,0:0:0:0:
109,192,88867,1,0,0:0:0:0:
256,192,88867,1,0,0:0:0:0:
475,192,88867,1,0,0:0:0:0:
402,192,88868,128,0,89385:0:0:0:0:
329,192,88954,1,0,0:0:0:0:
182,192,88954,1,0,0:0:0:0:
475,192,89040,1,0,0:0:0:0:
36,192,89040,1,0,0:0:0:0:
109,192,89126,1,0,0:0:0:0:
329,192,89126,1,0,0:0:0:0:
36,192,89212,1,0,0:0:0:0:
182,192,89212,1,0,0:0:0:0:
256,192,89212,1,0,0:0:0:0:
475,192,89299,1,0,0:0:0:0:
109,192,89299,1,0,0:0:0:0:
36,192,89385,1,0,0:0:0:0:
182,192,89385,1,0,0:0:0:0:
329,192,89385,128,0,89902:0:0:0:0:
475,192,89471,1,0,0:0:0:0:
109,192,89471,1,0,0:0:0:0:
182,192,89557,1,0,0:0:0:0:
256,192,89557,1,0,0:0:0:0:
402,192,89557,1,0,0:0:0:0:
475,192,89644,1,0,0:0:0:0:
36,192,89644,1,0,0:0:0:0:
182,192,89730,1,0,0:0:0:0:
109,192,89730,1,0,0:0:0:0:
475,192,89816,1,0,0:0:0:0:
402,192,89816,1,0,0:0:0:0:
109,192,89902,128,0,90419:0:0:0:0:
36,192,89902,1,0,0:0:0:0:
182,192,89902,1,0,0:0:0:0:
256,192,89902,1,0,0:0:0:0:
475,192,89988,1,0,0:0:0:0:
402,192,89988,1,0,0:0:0:0:
182,192,90075,1,0,0:0:0:0:
329,192,90075,1,0,0:0:0:0:
402,192,90161,1,0,0:0:0:0:
36,192,90161,1,0,0:0:0:0:
182,192,90247,1,0,0:0:0:0:
256,192,90247,1,0,0:0:0:0:
329,192,90247,1,0,0:0:0:0:
36,192,90333,1,0,0:0:0:0:
402,192,90333,1,0,0:0:0:0:
182,192,90419,1,0,0:0:0:0:
475,192,90419,1,0,0:0:0:0:
329,192,90419,128,0,90937:0:0:0:0:
36,192,90506,1,0,0:0:0:0:
402,192,90506,1,0,0:0:0:0:
182,192,90591,1,0,0:0:0:0:
256,192,90591,1,0,0:0:0:0:
475,192,90591,1,0,0:0:0:0:
402,192,90678,1,0,0:0:0:0:
109,192,90678,1,0,0:0:0:0:
182,192,90764,1,0,0:0:0:0:
36,192,90764,1,0,0:0:0:0:
475,192,90850,1,0,0:0:0:0:
109,192,90850,1,0,0:0:0:0:
36,192,90936,1,0,0:0:0:0:
182,192,90936,1,0,0:0:0:0:
256,192,90936,1,0,0:0:0:0:
402,192,90937,128,0,91281:0:0:0:0:
475,192,91023,1,0,0:0:0:0:
109,192,91023,1,0,0:0:0:0:
329,192,91109,1,0,0:0:0:0:
36,192,91109,1,0,0:0:0:0:
182,192,91195,1,0,0:0:0:0:
109,192,91195,1,0,0:0:0:0:
329,192,91281,128,0,91325:0:0:0:0:
475,192,91281,128,0,91325:0:0:0:0:
36,192,91281,128,0,91626:0:0:0:0:
256,192,91281,128,0,91325:0:0:0:0:
402,192,91368,1,0,0:0:0:0:
182,192,91368,1,0,0:0:0:0:
329,192,91454,1,0,0:0:0:0:
109,192,91454,1,0,0:0:0:0:
182,192,91540,1,0,0:0:0:0:
475,192,91540,1,0,0:0:0:0:
329,192,91626,128,0,92144:0:0:0:0:
109,192,91626,1,0,0:0:0:0:
256,192,91626,1,0,0:0:0:0:
402,192,91626,1,0,0:0:0:0:
475,192,91712,1,0,0:0:0:0:
182,192,91712,1,0,0:0:0:0:
402,192,91799,1,0,0:0:0:0:
36,192,91799,1,0,0:0:0:0:
475,192,91885,1,0,0:0:0:0:
109,192,91885,1,0,0:0:0:0:
36,192,91971,1,0,0:0:0:0:
182,192,91971,1,0,0:0:0:0:
256,192,91971,1,0,0:0:0:0:
402,192,92057,1,0,0:0:0:0:
109,192,92057,1,0,0:0:0:0:
475,192,92144,1,0,0:0:0:0:
36,192,92144,1,0,0:0:0:0:
182,192,92144,128,0,92661:0:0:0:0:
109,192,92230,1,0,0:0:0:0:
402,192,92230,1,0,0:0:0:0:
256,192,92315,1,0,0:0:0:0:
329,192,92315,1,0,0:0:0:0:
475,192,92315,1,0,0:0:0:0:
109,192,92402,1,0,0:0:0:0:
402,192,92402,1,0,0:0:0:0:
329,192,92488,1,0,0:0:0:0:
36,192,92488,1,0,0:0:0:0:
109,192,92575,1,0,0:0:0:0:
402,192,92575,1,0,0:0:0:0:
329,192,92660,1,0,0:0:0:0:
256,192,92660,1,0,0:0:0:0:
36,192,92660,1,0,0:0:0:0:
475,192,92661,128,0,93178:0:0:0:0:
402,192,92747,1,0,0:0:0:0:
109,192,92747,1,0,0:0:0:0:
36,192,92833,1,0,0:0:0:0:
182,192,92833,1,0,0:0:0:0:
329,192,92919,1,0,0:0:0:0:
109,192,92919,1,0,0:0:0:0:
182,192,93005,1,0,0:0:0:0:
256,192,93005,1,0,0:0:0:0:
402,192,93005,1,0,0:0:0:0:
36,192,93092,1,0,0:0:0:0:
109,192,93092,1,0,0:0:0:0:
402,192,93178,1,0,0:0:0:0:
182,192,93178,1,0,0:0:0:0:
329,192,93178,128,0,93695:0:0:0:0:
36,192,93264,1,0,0:0:0:0:
109,192,93264,1,0,0:0:0:0:
182,192,93350,1,0,0:0:0:0:
256,192,93350,1,0,0:0:0:0:
475,192,93350,1,0,0:0:0:0:
109,192,93437,1,0,0:0:0:0:
402,192,93437,1,0,0:0:0:0:
182,192,93523,1,0,0:0:0:0:
36,192,93523,1,0,0:0:0:0:
109,192,93609,1,0,0:0:0:0:
402,192,93609,1,0,0:0:0:0:
182,192,93695,128,0,94040:0:0:0:0:
36,192,93695,1,0,0:0:0:0:
256,192,93695,1,0,0:0:0:0:
475,192,93695,1,0,0:0:0:0:
109,192,93781,1,0,0:0:0:0:
402,192,93781,1,0,0:0:0:0:
329,192,93868,1,0,0:0:0:0:
36,192,93868,1,0,0:0:0:0:
109,192,93954,1,0,0:0:0:0:
475,192,93954,1,0,0:0:0:0:
329,192,94040,128,0,94083:0:0:0:0:
402,192,94040,128,0,94083:0:0:0:0:
36,192,94040,128,0,94385:0:0:0:0:
256,192,94040,128,0,94083:0:0:0:0:
475,192,94126,1,0,0:0:0:0:
109,192,94126,1,0,0:0:0:0:
329,192,94212,1,0,0:0:0:0:
182,192,94212,1,0,0:0:0:0:
109,192,94299,1,0,0:0:0:0:
402,192,94299,1,0,0:0:0:0:
182,192,94384,1,0,0:0:0:0:
256,192,94384,1,0,0:0:0:0:
329,192,94384,1,0,0:0:0:0:
475,192,94385,128,0,94902:0:0:0:0:
109,192,94471,1,0,0:0:0:0:
402,192,94471,1,0,0:0:0:0:
36,192,94557,1,0,0:0:0:0:
182,192,94557,1,0,0:0:0:0:
402,192,94644,1,0,0:0:0:0:
329,192,94644,1,0,0:0:0:0:
109,192,94729,1,0,0:0:0:0:
182,192,94729,1,0,0:0:0:0:
256,192,94729,1,0,0:0:0:0:
402,192,94816,1,0,0:0:0:0:
36,192,94816,1,0,0:0:0:0:
109,192,94902,1,0,0:0:0:0:
182,192,94902,1,0,0:0:0:0:
329,192,94902,128,0,95419:0:0:0:0:
402,192,94988,1,0,0:0:0:0:
36,192,94988,1,0,0:0:0:0:
182,192,95074,1,0,0:0:0:0:
256,192,95074,1,0,0:0:0:0:
475,192,95074,1,0,0:0:0:0:
109,192,95161,1,0,0:0:0:0:
402,192,95161,1,0,0:0:0:0:
182,192,95247,1,0,0:0:0:0:
36,192,95247,1,0,0:0:0:0:
402,192,95333,1,0,0:0:0:0:
109,192,95333,1,0,0:0:0:0:
182,192,95419,128,0,95937:0:0:0:0:
36,192,95419,1,0,0:0:0:0:
256,192,95419,1,0,0:0:0:0:
475,192,95419,1,0,0:0:0:0:
109,192,95506,1,0,0:0:0:0:
402,192,95506,1,0,0:0:0:0:
475,192,95592,1,0,0:0:0:0:
329,192,95592,1,0,0:0:0:0:
36,192,95678,1,0,0:0:0:0:
109,192,95678,1,0,0:0:0:0:
256,192,95764,1,0,0:0:0:0:
329,192,95764,1,0,0:0:0:0:
475,192,95764,1,0,0:0:0:0:
109,192,95850,1,0,0:0:0:0:
402,192,95850,1,0,0:0:0:0:
475,192,95937,1,0,0:0:0:0:
36,192,95937,1,0,0:0:0:0:
329,192,95937,128,0,96454:0:0:0:0:
402,192,96023,1,0,0:0:0:0:
109,192,96023,1,0,0:0:0:0:
36,192,96109,1,0,0:0:0:0:
182,192,96109,1,0,0:0:0:0:
256,192,96109,1,0,0:0:0:0:
475,192,96195,1,0,0:0:0:0:
109,192,96195,1,0,0:0:0:0:
36,192,96281,1,0,0:0:0:0:
402,192,96281,1,0,0:0:0:0:
475,192,96368,1,0,0:0:0:0:
109,192,96368,1,0,0:0:0:0:
36,192,96453,1,0,0:0:0:0:
256,192,96453,1,0,0:0:0:0:
402,192,96453,1,0,0:0:0:0:
182,192,96454,128,0,96799:0:0:0:0:
475,192,96540,1,0,0:0:0:0:
109,192,96540,1,0,0:0:0:0:
329,192,96626,1,0,0:0:0:0:
402,192,96626,1,0,0:0:0:0:
475,192,96712,1,0,0:0:0:0:
109,192,96712,1,0,0:0:0:0:
329,192,96799,128,0,96842:0:0:0:0:
402,192,96799,128,0,96842:0:0:0:0:
36,192,96799,128,0,97144:0:0:0:0:
256,192,96799,128,0,96842:0:0:0:0:
475,192,96885,1,0,0:0:0:0:
182,192,96885,1,0,0:0:0:0:
109,192,96971,1,0,0:0:0:0:
402,192,96971,1,0,0:0:0:0:
329,192,97057,1,0,0:0:0:0:
182,192,97057,1,0,0:0:0:0:
109,192,97143,1,0,0:0:0:0:
256,192,97143,1,0,0:0:0:0:
402,192,97143,1,0,0:0:0:0:
475,192,97144,128,0,97661:0:0:0:0:
329,192,97230,1,0,0:0:0:0:
182,192,97230,1,0,0:0:0:0:
36,192,97316,1,0,0:0:0:0:
109,192,97316,1,0,0:0:0:0:
329,192,97402,1,0,0:0:0:0:
182,192,97402,1,0,0:0:0:0:
109,192,97488,1,0,0:0:0:0:
256,192,97488,1,0,0:0:0:0:
402,192,97488,1,0,0:0:0:0:
36,192,97575,1,0,0:0:0:0:
329,192,97575,1,0,0:0:0:0:
109,192,97661,1,0,0:0:0:0:
182,192,97661,1,0,0:0:0:0:
402,192,97661,128,0,98178:0:0:0:0:
475,192,97747,1,0,0:0:0:0:
329,192,97747,1,0,0:0:0:0:
256,192,97833,1,0,0:0:0:0:
182,192,97833,1,0,0:0:0:0:
36,192,97833,1,0,0:0:0:0:
475,192,97919,1,0,0:0:0:0:
109,192,97919,1,0,0:0:0:0:
329,192,98006,1,0,0:0:0:0:
182,192,98006,1,0,0:0:0:0:
329,192,98178,128,0,98695:0:0:0:0:
256,192,98178,1,0,0:0:0:0:
475,192,98178,1,0,0:0:0:0:
36,192,98264,1,0,0:0:0:0:
109,192,98264,1,0,0:0:0:0:
182,192,98264,1,0,0:0:0:0:
36,192,98350,1,0,0:0:0:0:
109,192,98350,1,0,0:0:0:0:
182,192,98350,1,0,0:0:0:0:
182,192,98436,1,0,0:0:0:0:
36,192,98437,1,0,0:0:0:0:
109,192,98437,1,0,0:0:0:0:
182,192,98522,1,0,0:0:0:0:
36,192,98523,1,0,0:0:0:0:
109,192,98523,1,0,0:0:0:0:
36,192,98609,1,0,0:0:0:0:
109,192,98609,1,0,0:0:0:0:
182,192,98609,1,0,0:0:0:0:
182,192,98695,128,0,99212:0:0:0:0:
256,192,98695,1,0,0:0:0:0:
402,192,98695,1,0,0:0:0:0:
475,192,98867,1,0,0:0:0:0:
329,192,98868,1,0,0:0:0:0:
402,192,98868,1,0,0:0:0:0:
475,192,98953,1,0,0:0:0:0:
329,192,98954,1,0,0:0:0:0:
402,192,98954,1,0,0:0:0:0:
329,192,99040,1,0,0:0:0:0:
402,192,99040,1,0,0:0:0:0:
475,192,99040,1,0,0:0:0:0:
329,192,99126,1,0,0:0:0:0:
402,192,99126,1,0,0:0:0:0:
475,192,99126,1,0,0:0:0:0:
109,192,99212,128,0,99557:0:0:0:0:
256,192,99212,1,0,0:0:0:0:
402,192,99299,1,0,0:0:0:0:
182,192,99299,1,0,0:0:0:0:
329,192,99299,1,0,0:0:0:0:
475,192,99299,1,0,0:0:0:0:
36,192,99299,1,0,0:0:0:0:
329,192,99385,1,0,0:0:0:0:
182,192,99385,1,0,0:0:0:0:
36,192,99385,1,0,0:0:0:0:
402,192,99385,1,0,0:0:0:0:
475,192,99385,1,0,0:0:0:0:
329,192,99471,1,0,0:0:0:0:
182,192,99471,1,0,0:0:0:0:
36,192,99471,1,0,0:0:0:0:
402,192,99471,1,0,0:0:0:0:
475,192,99471,1,0,0:0:0:0:
402,192,99557,128,0,99600:0:0:0:0:
475,192,99557,128,0,99600:0:0:0:0:
256,192,99557,128,0,99600:0:0:0:0:
36,192,99557,128,0,99902:0:0:0:0:
182,192,99643,1,0,0:0:0:0:
329,192,99643,1,0,0:0:0:0:
402,192,99729,1,0,0:0:0:0:
109,192,99729,1,0,0:0:0:0:
182,192,99815,1,0,0:0:0:0:
329,192,99815,1,0,0:0:0:0:
402,192,99902,128,0,100419:0:0:0:0:
109,192,99902,1,0,0:0:0:0:
475,192,99902,1,0,0:0:0:0:
256,192,99902,1,0,0:0:0:0:
182,192,99988,1,0,0:0:0:0:
329,192,99988,1,0,0:0:0:0:
36,192,100074,1,0,0:0:0:0:
475,192,100074,1,0,0:0:0:0:
329,192,100160,1,0,0:0:0:0:
109,192,100160,1,0,0:0:0:0:
36,192,100247,1,0,0:0:0:0:
182,192,100247,1,0,0:0:0:0:
256,192,100247,1,0,0:0:0:0:
109,192,100333,1,0,0:0:0:0:
475,192,100333,1,0,0:0:0:0:
329,192,100419,128,0,100936:0:0:0:0:
182,192,100419,1,0,0:0:0:0:
36,192,100419,1,0,0:0:0:0:
109,192,100505,1,0,0:0:0:0:
475,192,100505,1,0,0:0:0:0:
182,192,100591,1,0,0:0:0:0:
256,192,100591,1,0,0:0:0:0:
402,192,100591,1,0,0:0:0:0:
36,192,100678,1,0,0:0:0:0:
475,192,100678,1,0,0:0:0:0:
109,192,100764,1,0,0:0:0:0:
182,192,100764,1,0,0:0:0:0:
402,192,100850,1,0,0:0:0:0:
475,192,100850,1,0,0:0:0:0:
109,192,100936,128,0,101453:0:0:0:0:
36,192,100936,1,0,0:0:0:0:
182,192,100936,1,0,0:0:0:0:
256,192,100936,1,0,0:0:0:0:
402,192,101022,1,0,0:0:0:0:
475,192,101022,1,0,0:0:0:0:
329,192,101109,1,0,0:0:0:0:
182,192,101109,1,0,0:0:0:0:
36,192,101195,1,0,0:0:0:0:
402,192,101195,1,0,0:0:0:0:
182,192,101281,1,0,0:0:0:0:
256,192,101281,1,0,0:0:0:0:
329,192,101281,1,0,0:0:0:0:
402,192,101367,1,0,0:0:0:0:
36,192,101367,1,0,0:0:0:0:
329,192,101453,128,0,101971:0:0:0:0:
475,192,101453,1,0,0:0:0:0:
182,192,101453,1,0,0:0:0:0:
402,192,101540,1,0,0:0:0:0:
36,192,101540,1,0,0:0:0:0:
182,192,101626,1,0,0:0:0:0:
256,192,101626,1,0,0:0:0:0:
475,192,101626,1,0,0:0:0:0:
109,192,101712,1,0,0:0:0:0:
402,192,101712,1,0,0:0:0:0:
36,192,101798,1,0,0:0:0:0:
182,192,101798,1,0,0:0:0:0:
109,192,101884,1,0,0:0:0:0:
475,192,101884,1,0,0:0:0:0:
402,192,101971,128,0,102315:0:0:0:0:
36,192,101971,1,0,0:0:0:0:
182,192,101971,1,0,0:0:0:0:
256,192,101971,1,0,0:0:0:0:
109,192,102057,1,0,0:0:0:0:
475,192,102057,1,0,0:0:0:0:
36,192,102143,1,0,0:0:0:0:
329,192,102143,1,0,0:0:0:0:
109,192,102229,1,0,0:0:0:0:
182,192,102229,1,0,0:0:0:0:
36,192,102315,128,0,102660:0:0:0:0:
256,192,102315,128,0,102359:0:0:0:0:
329,192,102315,128,0,102359:0:0:0:0:
475,192,102315,128,0,102359:0:0:0:0:
182,192,102402,1,0,0:0:0:0:
402,192,102402,1,0,0:0:0:0:
109,192,102488,1,0,0:0:0:0:
329,192,102488,1,0,0:0:0:0:
475,192,102574,1,0,0:0:0:0:
182,192,102574,1,0,0:0:0:0:
329,192,102660,128,0,103178:0:0:0:0:
109,192,102660,1,0,0:0:0:0:
256,192,102660,1,0,0:0:0:0:
402,192,102660,1,0,0:0:0:0:
182,192,102746,1,0,0:0:0:0:
475,192,102746,1,0,0:0:0:0:
36,192,102833,1,0,0:0:0:0:
402,192,102833,1,0,0:0:0:0:
109,192,102919,1,0,0:0:0:0:
475,192,102919,1,0,0:0:0:0:
36,192,103005,1,0,0:0:0:0:
182,192,103005,1,0,0:0:0:0:
256,192,103005,1,0,0:0:0:0:
109,192,103091,1,0,0:0:0:0:
402,192,103091,1,0,0:0:0:0:
182,192,103178,128,0,103695:0:0:0:0:
36,192,103178,1,0,0:0:0:0:
475,192,103178,1,0,0:0:0:0:
402,192,103264,1,0,0:0:0:0:
109,192,103264,1,0,0:0:0:0:
256,192,103350,1,0,0:0:0:0:
329,192,103350,1,0,0:0:0:0:
475,192,103350,1,0,0:0:0:0:
402,192,103436,1,0,0:0:0:0:
109,192,103436,1,0,0:0:0:0:
36,192,103522,1,0,0:0:0:0:
329,192,103522,1,0,0:0:0:0:
402,192,103609,1,0,0:0:0:0:
109,192,103609,1,0,0:0:0:0:
475,192,103695,128,0,104212:0:0:0:0:
36,192,103695,1,0,0:0:0:0:
256,192,103695,1,0,0:0:0:0:
329,192,103695,1,0,0:0:0:0:
109,192,103781,1,0,0:0:0:0:
402,192,103781,1,0,0:0:0:0:
182,192,103867,1,0,0:0:0:0:
36,192,103867,1,0,0:0:0:0:
109,192,103953,1,0,0:0:0:0:
329,192,103953,1,0,0:0:0:0:
182,192,104040,1,0,0:0:0:0:
256,192,104040,1,0,0:0:0:0:
402,192,104040,1,0,0:0:0:0:
109,192,104126,1,0,0:0:0:0:
36,192,104126,1,0,0:0:0:0:
329,192,104212,128,0,104729:0:0:0:0:
182,192,104212,1,0,0:0:0:0:
402,192,104212,1,0,0:0:0:0:
109,192,104298,1,0,0:0:0:0:
36,192,104298,1,0,0:0:0:0:
182,192,104384,1,0,0:0:0:0:
256,192,104384,1,0,0:0:0:0:
475,192,104384,1,0,0:0:0:0:
402,192,104471,1,0,0:0:0:0:
109,192,104471,1,0,0:0:0:0:
36,192,104557,1,0,0:0:0:0:
182,192,104557,1,0,0:0:0:0:
402,192,104643,1,0,0:0:0:0:
109,192,104643,1,0,0:0:0:0:
182,192,104729,128,0,105074:0:0:0:0:
36,192,104729,1,0,0:0:0:0:
256,192,104729,1,0,0:0:0:0:
475,192,104729,1,0,0:0:0:0:
402,192,104815,1,0,0:0:0:0:
109,192,104815,1,0,0:0:0:0:
36,192,104902,1,0,0:0:0:0:
329,192,104902,1,0,0:0:0:0:
475,192,104988,1,0,0:0:0:0:
109,192,104988,1,0,0:0:0:0:
36,192,105074,128,0,105419:0:0:0:0:
256,192,105074,128,0,105117:0:0:0:0:
329,192,105074,128,0,105117:0:0:0:0:
402,192,105074,128,0,105117:0:0:0:0:
109,192,105160,1,0,0:0:0:0:
475,192,105160,1,0,0:0:0:0:
182,192,105246,1,0,0:0:0:0:
329,192,105246,1,0,0:0:0:0:
402,192,105333,1,0,0:0:0:0:
109,192,105333,1,0,0:0:0:0:
475,192,105419,128,0,105936:0:0:0:0:
182,192,105419,1,0,0:0:0:0:
256,192,105419,1,0,0:0:0:0:
329,192,105419,1,0,0:0:0:0:
402,192,105505,1,0,0:0:0:0:
109,192,105505,1,0,0:0:0:0:
182,192,105591,1,0,0:0:0:0:
36,192,105591,1,0,0:0:0:0:
329,192,105678,1,0,0:0:0:0:
402,192,105678,1,0,0:0:0:0:
109,192,105764,1,0,0:0:0:0:
182,192,105764,1,0,0:0:0:0:
256,192,105764,1,0,0:0:0:0:
36,192,105850,1,0,0:0:0:0:
402,192,105850,1,0,0:0:0:0:
329,192,105936,128,0,106453:0:0:0:0:
182,192,105936,1,0,0:0:0:0:
109,192,105936,1,0,0:0:0:0:
36,192,106022,1,0,0:0:0:0:
402,192,106022,1,0,0:0:0:0:
182,192,106109,1,0,0:0:0:0:
256,192,106109,1,0,0:0:0:0:
475,192,106109,1,0,0:0:0:0:
402,192,106195,1,0,0:0:0:0:
109,192,106195,1,0,0:0:0:0:
36,192,106281,1,0,0:0:0:0:
182,192,106281,1,0,0:0:0:0:
109,192,106367,1,0,0:0:0:0:
402,192,106367,1,0,0:0:0:0:
182,192,106453,128,0,106971:0:0:0:0:
36,192,106453,1,0,0:0:0:0:
256,192,106453,1,0,0:0:0:0:
475,192,106453,1,0,0:0:0:0:
402,192,106540,1,0,0:0:0:0:
109,192,106540,1,0,0:0:0:0:
329,192,106626,1,0,0:0:0:0:
475,192,106626,1,0,0:0:0:0:
109,192,106712,1,0,0:0:0:0:
36,192,106712,1,0,0:0:0:0:
256,192,106798,1,0,0:0:0:0:
329,192,106798,1,0,0:0:0:0:
475,192,106798,1,0,0:0:0:0:
402,192,106884,1,0,0:0:0:0:
109,192,106884,1,0,0:0:0:0:
329,192,106971,128,0,107488:0:0:0:0:
36,192,106971,1,0,0:0:0:0:
475,192,106971,1,0,0:0:0:0:
109,192,107057,1,0,0:0:0:0:
402,192,107057,1,0,0:0:0:0:
36,192,107143,1,0,0:0:0:0:
182,192,107143,1,0,0:0:0:0:
256,192,107143,1,0,0:0:0:0:
109,192,107229,1,0,0:0:0:0:
475,192,107229,1,0,0:0:0:0:
402,192,107315,1,0,0:0:0:0:
36,192,107315,1,0,0:0:0:0:
109,192,107402,1,0,0:0:0:0:
475,192,107402,1,0,0:0:0:0:
182,192,107488,128,0,107833:0:0:0:0:
36,192,107488,1,0,0:0:0:0:
256,192,107488,1,0,0:0:0:0:
402,192,107488,1,0,0:0:0:0:
109,192,107574,1,0,0:0:0:0:
475,192,107574,1,0,0:0:0:0:
402,192,107660,1,0,0:0:0:0:
329,192,107660,1,0,0:0:0:0:
109,192,107746,1,0,0:0:0:0:
475,192,107746,1,0,0:0:0:0:
36,192,107833,128,0,108178:0:0:0:0:
256,192,107833,128,0,107876:0:0:0:0:
329,192,107833,128,0,107876:0:0:0:0:
402,192,107833,128,0,107876:0:0:0:0:
182,192,107919,1,0,0:0:0:0:
475,192,107919,1,0,0:0:0:0:
402,192,108005,1,0,0:0:0:0:
109,192,108005,1,0,0:0:0:0:
182,192,108091,1,0,0:0:0:0:
329,192,108091,1,0,0:0:0:0:
475,192,108178,128,0,108695:0:0:0:0:
109,192,108178,1,0,0:0:0:0:
256,192,108178,1,0,0:0:0:0:
402,192,108178,1,0,0:0:0:0:
182,192,108264,1,0,0:0:0:0:
329,192,108264,1,0,0:0:0:0:
109,192,108350,1,0,0:0:0:0:
36,192,108350,1,0,0:0:0:0:
182,192,108436,1,0,0:0:0:0:
329,192,108436,1,0,0:0:0:0:
109,192,108522,1,0,0:0:0:0:
256,192,108522,1,0,0:0:0:0:
402,192,108522,1,0,0:0:0:0:
329,192,108609,1,0,0:0:0:0:
36,192,108609,1,0,0:0:0:0:
402,192,108695,128,0,109212:0:0:0:0:
182,192,108695,1,0,0:0:0:0:
109,192,108695,1,0,0:0:0:0:
329,192,108781,1,0,0:0:0:0:
475,192,108781,1,0,0:0:0:0:
36,192,108867,1,0,0:0:0:0:
182,192,108867,1,0,0:0:0:0:
256,192,108867,1,0,0:0:0:0:
109,192,108953,1,0,0:0:0:0:
475,192,108953,1,0,0:0:0:0:
182,192,109040,1,0,0:0:0:0:
329,192,109040,1,0,0:0:0:0:
329,192,109212,128,0,109729:0:0:0:0:
182,192,109212,1,0,0:0:0:0:
256,192,109212,1,0,0:0:0:0:
475,192,109212,1,0,0:0:0:0:
109,192,109298,1,0,0:0:0:0:
36,192,109298,1,0,0:0:0:0:
402,192,109299,1,0,0:0:0:0:
109,192,109384,1,0,0:0:0:0:
36,192,109384,1,0,0:0:0:0:
402,192,109385,1,0,0:0:0:0:
109,192,109471,1,0,0:0:0:0:
36,192,109471,1,0,0:0:0:0:
402,192,109471,1,0,0:0:0:0:
109,192,109557,1,0,0:0:0:0:
36,192,109557,1,0,0:0:0:0:
402,192,109557,1,0,0:0:0:0:
109,192,109643,1,0,0:0:0:0:
36,192,109643,1,0,0:0:0:0:
402,192,109643,1,0,0:0:0:0:
182,192,109729,128,0,110246:0:0:0:0:
256,192,109729,1,0,0:0:0:0:
402,192,109729,1,0,0:0:0:0:
475,192,109729,1,0,0:0:0:0:
329,192,109816,1,0,0:0:0:0:
109,192,109816,1,0,0:0:0:0:
36,192,109816,1,0,0:0:0:0:
329,192,109902,1,0,0:0:0:0:
109,192,109902,1,0,0:0:0:0:
36,192,109902,1,0,0:0:0:0:
329,192,109988,1,0,0:0:0:0:
36,192,109988,1,0,0:0:0:0:
109,192,109988,1,0,0:0:0:0:
329,192,110074,1,0,0:0:0:0:
109,192,110075,1,0,0:0:0:0:
36,192,110075,1,0,0:0:0:0:
329,192,110160,1,0,0:0:0:0:
36,192,110161,1,0,0:0:0:0:
109,192,110161,1,0,0:0:0:0:
109,192,110246,128,0,110591:0:0:0:0:
256,192,110247,1,0,0:0:0:0:
475,192,110333,1,0,0:0:0:0:
36,192,110333,1,0,0:0:0:0:
329,192,110333,1,0,0:0:0:0:
402,192,110333,1,0,0:0:0:0:
182,192,110333,1,0,0:0:0:0:
402,192,110419,1,0,0:0:0:0:
475,192,110419,1,0,0:0:0:0:
36,192,110419,1,0,0:0:0:0:
329,192,110419,1,0,0:0:0:0:
182,192,110419,1,0,0:0:0:0:
402,192,110505,1,0,0:0:0:0:
475,192,110505,1,0,0:0:0:0:
36,192,110505,1,0,0:0:0:0:
329,192,110505,1,0,0:0:0:0:
182,192,110505,1,0,0:0:0:0:
36,192,110591,128,0,110634:0:0:0:0:
256,192,110591,128,0,110634:0:0:0:0:
475,192,110591,128,0,110634:0:0:0:0:
402,192,110592,128,0,111540:0:0:0:0:
329,192,110592,128,0,111023:0:0:0:0:
182,192,110592,128,0,111023:0:0:0:0:
109,192,110678,1,0,0:0:0:0:
256,192,110764,1,0,0:0:0:0:
475,192,110850,1,0,0:0:0:0:
256,192,110937,1,0,0:0:0:0:
109,192,111023,1,0,0:0:0:0:
109,192,111109,128,0,112057:0:0:0:0:
182,192,111109,128,0,111540:0:0:0:0:
329,192,111109,128,0,111540:0:0:0:0:
475,192,111109,128,0,111152:0:0:0:0:
256,192,111109,128,0,111152:0:0:0:0:
36,192,111109,128,0,111152:0:0:0:0:
475,192,111195,1,0,0:0:0:0:
256,192,111281,1,0,0:0:0:0:
36,192,111368,1,0,0:0:0:0:
256,192,111454,1,0,0:0:0:0:
475,192,111540,1,0,0:0:0:0:
182,192,111626,128,0,112057:0:0:0:0:
329,192,111626,128,0,112057:0:0:0:0:
402,192,111626,128,0,112575:0:0:0:0:
36,192,111626,128,0,111669:0:0:0:0:
256,192,111626,128,0,111669:0:0:0:0:
475,192,111626,128,0,111669:0:0:0:0:
36,192,111712,1,0,0:0:0:0:
256,192,111799,1,0,0:0:0:0:
475,192,111885,1,0,0:0:0:0:
256,192,111971,1,0,0:0:0:0:
36,192,112057,1,0,0:0:0:0:
182,192,112143,128,0,112575:0:0:0:0:
329,192,112143,128,0,112575:0:0:0:0:
475,192,112143,128,0,112575:0:0:0:0:
256,192,112143,128,0,112187:0:0:0:0:
109,192,112143,128,0,112187:0:0:0:0:
36,192,112143,128,0,112187:0:0:0:0:
256,192,112230,1,0,0:0:0:0:
109,192,112316,1,0,0:0:0:0:
36,192,112402,1,0,0:0:0:0:
109,192,112488,1,0,0:0:0:0:
256,192,112575,1,0,0:0:0:0:
109,192,112661,128,0,112919:0:0:0:0:
402,192,112661,128,0,112919:0:0:0:0:
475,192,112661,128,0,112919:0:0:0:0:
256,192,112661,128,0,112704:0:0:0:0:
182,192,112661,128,0,112704:0:0:0:0:
329,192,112661,128,0,112704:0:0:0:0:
36,192,112747,1,0,0:0:0:0:
256,192,112833,1,0,0:0:0:0:
329,192,112919,1,0,0:0:0:0:
329,192,113006,128,0,113264:0:0:0:0:
182,192,113006,128,0,113264:0:0:0:0:
109,192,113006,128,0,113264:0:0:0:0:
256,192,113006,128,0,113049:0:0:0:0:
402,192,113006,128,0,113049:0:0:0:0:
475,192,113006,128,0,113049:0:0:0:0:
36,192,113092,1,0,0:0:0:0:
256,192,113178,1,0,0:0:0:0:
475,192,113264,1,0,0:0:0:0:
182,192,113350,128,0,113781:0:0:0:0:
109,192,113350,128,0,115592:0:0:0:0:
402,192,113350,128,0,114126:0:0:0:0:
475,192,113350,128,0,113609:0:0:0:0:
36,192,113350,128,0,113609:0:0:0:0:
329,192,113350,128,0,113954:0:0:0:0:
475,192,113695,128,0,115592:0:0:0:0:
36,192,113695,128,0,114126:0:0:0:0:
256,192,113695,128,0,113738:0:0:0:0:
182,192,113868,128,0,114299:0:0:0:0:
329,192,114040,128,0,114471:0:0:0:0:
402,192,114212,128,0,115161:0:0:0:0:
36,192,114212,128,0,114643:0:0:0:0:
256,192,114212,128,0,114256:0:0:0:0:
182,192,114385,128,0,114816:0:0:0:0:
329,192,114557,128,0,114643:0:0:0:0:
329,192,114730,128,0,114988:0:0:0:0:
36,192,114730,128,0,115161:0:0:0:0:
256,192,114730,128,0,114773:0:0:0:0:
182,192,114902,128,0,115333:0:0:0:0:
329,192,115075,128,0,115592:0:0:0:0:
402,192,115247,128,0,115592:0:0:0:0:
36,192,115247,128,0,115592:0:0:0:0:
256,192,115247,128,0,115290:0:0:0:0:
182,192,115419,128,0,115592:0:0:0:0:
36,192,115678,1,0,0:0:0:0:
475,192,115678,1,0,0:0:0:0:
182,192,115721,1,0,0:0:0:0:
329,192,115721,1,0,0:0:0:0:
256,192,115764,1,0,0:0:0:0:
109,192,115764,1,0,0:0:0:0:
109,192,115936,1,0,0:0:0:0:
256,192,115936,1,0,0:0:0:0:
402,192,116109,128,0,116885:0:0:0:0:
109,192,116109,128,0,117402:0:0:0:0:
182,192,116109,128,0,116540:0:0:0:0:
36,192,116109,128,0,116368:0:0:0:0:
475,192,116109,128,0,116368:0:0:0:0:
329,192,116109,128,0,116195:0:0:0:0:
329,192,116281,128,0,116712:0:0:0:0:
36,192,116454,128,0,116885:0:0:0:0:
475,192,116454,128,0,117402:0:0:0:0:
256,192,116454,128,0,116497:0:0:0:0:
182,192,116627,128,0,117058:0:0:0:0:
329,192,116799,128,0,117230:0:0:0:0:
402,192,116971,128,0,117402:0:0:0:0:
36,192,116971,128,0,117402:0:0:0:0:
256,192,116971,128,0,117015:0:0:0:0:
182,192,117143,128,0,117402:0:0:0:0:
329,192,117316,128,0,117402:0:0:0:0:
402,192,117488,128,0,117919:0:0:0:0:
475,192,117488,128,0,118350:0:0:0:0:
109,192,117488,128,0,118350:0:0:0:0:
182,192,117488,128,0,117575:0:0:0:0:
329,192,117489,128,0,117747:0:0:0:0:
256,192,117489,128,0,117532:0:0:0:0:
36,192,117489,128,0,117920:0:0:0:0:
182,192,117661,128,0,118092:0:0:0:0:
329,192,117834,128,0,118351:0:0:0:0:
402,192,118006,128,0,118351:0:0:0:0:
36,192,118006,128,0,118351:0:0:0:0:
256,192,118006,128,0,118049:0:0:0:0:
182,192,118178,128,0,118351:0:0:0:0:
36,192,118436,1,0,0:0:0:0:
475,192,118436,1,0,0:0:0:0:
182,192,118479,1,0,0:0:0:0:
329,192,118479,1,0,0:0:0:0:
402,192,118522,1,0,0:0:0:0:
256,192,118522,1,0,0:0:0:0:
109,192,118522,1,0,0:0:0:0:
109,192,118695,1,0,0:0:0:0:
256,192,118695,1,0,0:0:0:0:
402,192,118695,1,0,0:0:0:0:
475,192,118868,128,0,119127:0:0:0:0:
36,192,118868,128,0,119127:0:0:0:0:
402,192,118868,128,0,120161:0:0:0:0:
109,192,118868,128,0,119299:0:0:0:0:
182,192,118868,128,0,121109:0:0:0:0:
329,192,118868,128,0,118954:0:0:0:0:
329,192,119040,128,0,119471:0:0:0:0:
475,192,119212,128,0,119643:0:0:0:0:
256,192,119213,128,0,119256:0:0:0:0:
36,192,119213,128,0,119644:0:0:0:0:
109,192,119385,128,0,119816:0:0:0:0:
329,192,119558,128,0,119989:0:0:0:0:
256,192,119730,128,0,119774:0:0:0:0:
36,192,119730,128,0,120161:0:0:0:0:
475,192,119730,128,0,120678:0:0:0:0:
109,192,119902,128,0,120333:0:0:0:0:
329,192,120075,128,0,120506:0:0:0:0:
402,192,120247,128,0,121109:0:0:0:0:
36,192,120248,128,0,120679:0:0:0:0:
256,192,120248,128,0,120291:0:0:0:0:
109,192,120419,128,0,120850:0:0:0:0:
329,192,120593,128,0,121110:0:0:0:0:
475,192,120764,128,0,121109:0:0:0:0:
256,192,120765,128,0,120808:0:0:0:0:
36,192,120765,128,0,121110:0:0:0:0:
109,192,120937,128,0,121109:0:0:0:0:
36,192,121281,1,0,0:0:0:0:
109,192,121281,1,0,0:0:0:0:
182,192,121281,1,0,0:0:0:0:
256,192,121281,1,0,0:0:0:0:
329,192,121281,1,0,0:0:0:0:
402,192,121281,1,0,0:0:0:0:
109,192,121453,1,0,0:0:0:0:
182,192,121453,1,0,0:0:0:0:
256,192,121453,1,0,0:0:0:0:
329,192,121453,1,0,0:0:0:0:
402,192,121453,1,0,0:0:0:0:
475,192,121453,1,0,0:0:0:0:
475,192,121626,128,0,121885:0:0:0:0:
36,192,121626,128,0,121885:0:0:0:0:
109,192,121626,128,0,122057:0:0:0:0:
182,192,121626,128,0,123178:0:0:0:0:
402,192,121626,128,0,122919:0:0:0:0:
329,192,121626,128,0,121712:0:0:0:0:
329,192,121798,128,0,122229:0:0:0:0:
475,192,121970,128,0,122401:0:0:0:0:
36,192,121971,128,0,122402:0:0:0:0:
256,192,121971,128,0,122014:0:0:0:0:
109,192,122143,128,0,122574:0:0:0:0:
329,192,122316,128,0,122747:0:0:0:0:
475,192,122488,128,0,123437:0:0:0:0:
256,192,122488,128,0,122532:0:0:0:0:
36,192,122488,128,0,122919:0:0:0:0:
109,192,122660,128,0,123091:0:0:0:0:
329,192,122833,128,0,123264:0:0:0:0:
402,192,123006,128,0,123350:0:0:0:0:
36,192,123006,128,0,124643:0:0:0:0:
256,192,123006,128,0,124327:0:0:0:0:
109,192,123178,128,0,123781:0:0:0:0:
182,192,123264,128,0,123695:0:0:0:0:
329,192,123350,128,0,123609:0:0:0:0:
402,192,123437,128,0,123523:0:0:0:0:
475,192,123523,128,0,124155:0:0:0:0:
402,192,123609,128,0,124040:0:0:0:0:
329,192,123695,128,0,123954:0:0:0:0:
182,192,123781,128,0,123868:0:0:0:0:
109,192,123868,128,0,126626:0:0:0:0:
182,192,123954,128,0,125333:0:0:0:0:
329,192,124040,128,0,124270:0:0:0:0:
402,192,124126,128,0,124212:0:0:0:0:
475,192,124212,128,0,124643:0:0:0:0:
402,192,124270,128,0,124327:0:0:0:0:
329,192,124327,128,0,124471:0:0:0:0:
256,192,124385,128,0,124428:0:0:0:0:
402,192,124385,128,0,125161:0:0:0:0:
329,192,124557,128,0,124988:0:0:0:0:
475,192,124730,128,0,126627:0:0:0:0:
36,192,124730,128,0,125161:0:0:0:0:
256,192,124730,128,0,124773:0:0:0:0:
329,192,125075,128,0,125506:0:0:0:0:
402,192,125247,128,0,126196:0:0:0:0:
36,192,125247,128,0,125678:0:0:0:0:
256,192,125247,128,0,125291:0:0:0:0:
182,192,125420,128,0,125851:0:0:0:0:
329,192,125592,128,0,125678:0:0:0:0:
329,192,125765,128,0,126023:0:0:0:0:
36,192,125765,128,0,126196:0:0:0:0:
256,192,125765,128,0,125808:0:0:0:0:
182,192,125937,128,0,126368:0:0:0:0:
329,192,126110,128,0,126627:0:0:0:0:
402,192,126282,128,0,126627:0:0:0:0:
36,192,126282,128,0,126627:0:0:0:0:
256,192,126282,128,0,126325:0:0:0:0:
182,192,126454,128,0,126627:0:0:0:0:
36,192,126712,1,0,0:0:0:0:
475,192,126712,1,0,0:0:0:0:
182,192,126755,1,0,0:0:0:0:
329,192,126755,1,0,0:0:0:0:
256,192,126798,1,0,0:0:0:0:
109,192,126798,1,0,0:0:0:0:
109,192,126971,1,0,0:0:0:0:
256,192,126971,1,0,0:0:0:0:
402,192,127144,128,0,127920:0:0:0:0:
109,192,127144,128,0,128437:0:0:0:0:
182,192,127144,128,0,127575:0:0:0:0:
36,192,127144,128,0,127403:0:0:0:0:
475,192,127144,128,0,127403:0:0:0:0:
329,192,127144,128,0,127230:0:0:0:0:
329,192,127316,128,0,127747:0:0:0:0:
36,192,127489,128,0,127920:0:0:0:0:
475,192,127489,128,0,128437:0:0:0:0:
256,192,127489,128,0,127532:0:0:0:0:
182,192,127662,128,0,128093:0:0:0:0:
329,192,127834,128,0,128265:0:0:0:0:
402,192,128006,128,0,128437:0:0:0:0:
36,192,128006,128,0,128437:0:0:0:0:
256,192,128006,128,0,128050:0:0:0:0:
182,192,128178,128,0,128437:0:0:0:0:
329,192,128351,128,0,128437:0:0:0:0:
402,192,128523,128,0,128954:0:0:0:0:
475,192,128523,128,0,129385:0:0:0:0:
109,192,128523,128,0,129385:0:0:0:0:
182,192,128523,128,0,128610:0:0:0:0:
329,192,128524,128,0,128782:0:0:0:0:
256,192,128524,128,0,128567:0:0:0:0:
36,192,128524,128,0,128955:0:0:0:0:
182,192,128696,128,0,129127:0:0:0:0:
329,192,128869,128,0,129386:0:0:0:0:
402,192,129041,128,0,129386:0:0:0:0:
36,192,129041,128,0,129386:0:0:0:0:
256,192,129041,128,0,129084:0:0:0:0:
182,192,129213,128,0,129386:0:0:0:0:
36,192,129471,1,0,0:0:0:0:
475,192,129471,1,0,0:0:0:0:
182,192,129514,1,0,0:0:0:0:
329,192,129514,1,0,0:0:0:0:
109,192,129557,1,0,0:0:0:0:
256,192,129557,1,0,0:0:0:0:
402,192,129557,1,0,0:0:0:0:
109,192,129729,1,0,0:0:0:0:
256,192,129729,1,0,0:0:0:0:
402,192,129729,1,0,0:0:0:0:
475,192,129903,128,0,130162:0:0:0:0:
36,192,129903,128,0,130162:0:0:0:0:
402,192,129903,128,0,131196:0:0:0:0:
109,192,129903,128,0,130334:0:0:0:0:
182,192,129903,128,0,132144:0:0:0:0:
329,192,129903,128,0,129989:0:0:0:0:
329,192,130075,128,0,130506:0:0:0:0:
475,192,130247,128,0,130678:0:0:0:0:
256,192,130248,128,0,130291:0:0:0:0:
36,192,130248,128,0,130679:0:0:0:0:
109,192,130420,128,0,130851:0:0:0:0:
329,192,130593,128,0,131024:0:0:0:0:
256,192,130765,128,0,130809:0:0:0:0:
36,192,130765,128,0,131196:0:0:0:0:
475,192,130765,128,0,131713:0:0:0:0:
109,192,130937,128,0,131368:0:0:0:0:
329,192,131110,128,0,131541:0:0:0:0:
402,192,131282,128,0,132144:0:0:0:0:
36,192,131283,128,0,131714:0:0:0:0:
256,192,131283,128,0,131326:0:0:0:0:
109,192,131454,128,0,131885:0:0:0:0:
329,192,131628,128,0,132145:0:0:0:0:
475,192,131799,128,0,132144:0:0:0:0:
256,192,131800,128,0,131843:0:0:0:0:
36,192,131800,128,0,132145:0:0:0:0:
109,192,131972,128,0,132144:0:0:0:0:
36,192,132315,1,0,0:0:0:0:
109,192,132315,1,0,0:0:0:0:
182,192,132315,1,0,0:0:0:0:
256,192,132315,1,0,0:0:0:0:
329,192,132315,1,0,0:0:0:0:
402,192,132315,1,0,0:0:0:0:
475,192,132488,1,0,0:0:0:0:
402,192,132488,1,0,0:0:0:0:
329,192,132488,1,0,0:0:0:0:
256,192,132488,1,0,0:0:0:0:
182,192,132488,1,0,0:0:0:0:
109,192,132488,1,0,0:0:0:0:
475,192,132661,128,0,132920:0:0:0:0:
36,192,132661,128,0,132920:0:0:0:0:
109,192,132661,128,0,133092:0:0:0:0:
182,192,132661,128,0,133954:0:0:0:0:
402,192,132661,128,0,133954:0:0:0:0:
329,192,132661,128,0,132747:0:0:0:0:
329,192,132833,128,0,133264:0:0:0:0:
475,192,133005,128,0,133436:0:0:0:0:
36,192,133006,128,0,133437:0:0:0:0:
256,192,133006,128,0,133049:0:0:0:0:
109,192,133178,128,0,133609:0:0:0:0:
329,192,133351,128,0,133782:0:0:0:0:
475,192,133523,128,0,133954:0:0:0:0:
256,192,133523,128,0,133567:0:0:0:0:
36,192,133523,128,0,133954:0:0:0:0:
109,192,133695,128,0,133954:0:0:0:0:
329,192,133868,128,0,133954:0:0:0:0:
402,192,134040,128,0,134385:0:0:0:0:
36,192,134040,128,0,134471:0:0:0:0:
109,192,134040,128,0,134385:0:0:0:0:
182,192,134040,128,0,134299:0:0:0:0:
256,192,134040,128,0,134212:0:0:0:0:
329,192,134040,128,0,134299:0:0:0:0:
475,192,134040,128,0,134471:0:0:0:0:
109,192,135419,128,0,138092:0:0:0:0:
475,192,135419,128,0,138092:0:0:0:0:
256,192,135419,128,0,135462:0:0:0:0:
182,192,135419,128,0,135462:0:0:0:0:
36,192,135419,128,0,135462:0:0:0:0:
329,192,135506,1,0,0:0:0:0:
182,192,135592,1,0,0:0:0:0:
329,192,135678,1,0,0:0:0:0:
182,192,135764,1,0,0:0:0:0:
256,192,135764,1,0,0:0:0:0:
402,192,135764,1,0,0:0:0:0:
329,192,135850,1,0,0:0:0:0:
182,192,135937,1,0,0:0:0:0:
36,192,136023,1,0,0:0:0:0:
182,192,136109,1,0,0:0:0:0:
402,192,136195,1,0,0:0:0:0:
256,192,136281,128,0,136325:0:0:0:0:
329,192,136281,128,0,136325:0:0:0:0:
36,192,136281,128,0,136325:0:0:0:0:
182,192,136368,1,0,0:0:0:0:
329,192,136454,1,0,0:0:0:0:
182,192,136540,1,0,0:0:0:0:
36,192,136626,1,0,0:0:0:0:
182,192,136712,1,0,0:0:0:0:
256,192,136799,128,0,136842:0:0:0:0:
329,192,136799,128,0,136842:0:0:0:0:
36,192,136799,128,0,136842:0:0:0:0:
402,192,136885,1,0,0:0:0:0:
182,192,136971,1,0,0:0:0:0:
36,192,137057,1,0,0:0:0:0:
329,192,137143,1,0,0:0:0:0:
36,192,137230,1,0,0:0:0:0:
182,192,137315,1,0,0:0:0:0:
256,192,137315,1,0,0:0:0:0:
402,192,137315,1,0,0:0:0:0:
329,192,137402,1,0,0:0:0:0:
182,192,137488,1,0,0:0:0:0:
256,192,137575,1,0,0:0:0:0:
329,192,137661,1,0,0:0:0:0:
402,192,137747,1,0,0:0:0:0:
36,192,137833,1,0,0:0:0:0:
256,192,137833,1,0,0:0:0:0:
182,192,137919,1,0,0:0:0:0:
256,192,137919,1,0,0:0:0:0:
256,192,138005,1,0,0:0:0:0:
36,192,138006,1,0,0:0:0:0:
256,192,138091,1,0,0:0:0:0:
182,192,138091,1,0,0:0:0:0:
109,192,138178,128,0,140850:0:0:0:0:
475,192,138178,128,0,140850:0:0:0:0:
36,192,138178,1,0,0:0:0:0:
256,192,138178,1,0,0:0:0:0:
329,192,138264,1,0,0:0:0:0:
402,192,138350,1,0,0:0:0:0:
329,192,138437,1,0,0:0:0:0:
256,192,138522,1,0,0:0:0:0:
402,192,138522,1,0,0:0:0:0:
182,192,138522,1,0,0:0:0:0:
329,192,138609,1,0,0:0:0:0:
36,192,138695,1,0,0:0:0:0:
182,192,138781,1,0,0:0:0:0:
329,192,138868,1,0,0:0:0:0:
402,192,138954,1,0,0:0:0:0:
256,192,139040,128,0,139083:0:0:0:0:
329,192,139040,128,0,139083:0:0:0:0:
36,192,139040,128,0,139083:0:0:0:0:
182,192,139126,1,0,0:0:0:0:
36,192,139212,1,0,0:0:0:0:
182,192,139299,1,0,0:0:0:0:
402,192,139385,1,0,0:0:0:0:
182,192,139471,1,0,0:0:0:0:
256,192,139557,128,0,139600:0:0:0:0:
329,192,139557,128,0,139600:0:0:0:0:
36,192,139557,128,0,139600:0:0:0:0:
182,192,139643,1,0,0:0:0:0:
329,192,139730,1,0,0:0:0:0:
256,192,139816,1,0,0:0:0:0:
182,192,139902,1,0,0:0:0:0:
36,192,139988,1,0,0:0:0:0:
182,192,140074,1,0,0:0:0:0:
256,192,140074,1,0,0:0:0:0:
402,192,140074,1,0,0:0:0:0:
329,192,140161,1,0,0:0:0:0:
182,192,140247,1,0,0:0:0:0:
402,192,140333,1,0,0:0:0:0:
329,192,140419,1,0,0:0:0:0:
36,192,140506,1,0,0:0:0:0:
329,192,140592,128,0,140635:0:0:0:0:
402,192,140592,128,0,140635:0:0:0:0:
182,192,140592,128,0,140635:0:0:0:0:
329,192,140678,128,0,140721:0:0:0:0:
402,192,140678,128,0,140721:0:0:0:0:
182,192,140678,128,0,140721:0:0:0:0:
329,192,140764,128,0,140807:0:0:0:0:
402,192,140764,128,0,140807:0:0:0:0:
182,192,140764,128,0,140807:0:0:0:0:
329,192,140850,128,0,140893:0:0:0:0:
402,192,140850,128,0,140893:0:0:0:0:
182,192,140850,128,0,140893:0:0:0:0:
256,192,140937,128,0,143609:0:0:0:0:
36,192,140937,128,0,143609:0:0:0:0:
329,192,140937,128,0,140980:0:0:0:0:
402,192,140937,128,0,140980:0:0:0:0:
182,192,140937,128,0,140980:0:0:0:0:
109,192,141281,1,0,0:0:0:0:
329,192,141281,1,0,0:0:0:0:
475,192,141281,1,0,0:0:0:0:
182,192,141368,1,0,0:0:0:0:
329,192,141454,1,0,0:0:0:0:
475,192,141540,1,0,0:0:0:0:
329,192,141626,1,0,0:0:0:0:
402,192,141712,1,0,0:0:0:0:
182,192,141799,128,0,141842:0:0:0:0:
109,192,141799,128,0,141842:0:0:0:0:
329,192,141799,128,0,141842:0:0:0:0:
402,192,141885,1,0,0:0:0:0:
475,192,141971,1,0,0:0:0:0:
329,192,142057,1,0,0:0:0:0:
182,192,142143,1,0,0:0:0:0:
402,192,142230,1,0,0:0:0:0:
109,192,142316,128,0,142359:0:0:0:0:
182,192,142316,128,0,142359:0:0:0:0:
329,192,142316,128,0,142359:0:0:0:0:
402,192,142402,1,0,0:0:0:0:
182,192,142488,1,0,0:0:0:0:
109,192,142575,1,0,0:0:0:0:
329,192,142661,1,0,0:0:0:0:
402,192,142747,1,0,0:0:0:0:
109,192,142833,1,0,0:0:0:0:
329,192,142833,1,0,0:0:0:0:
475,192,142833,1,0,0:0:0:0:
182,192,142919,1,0,0:0:0:0:
329,192,143006,1,0,0:0:0:0:
402,192,143092,1,0,0:0:0:0:
475,192,143178,1,0,0:0:0:0:
402,192,143264,1,0,0:0:0:0:
329,192,143350,1,0,0:0:0:0:
182,192,143350,1,0,0:0:0:0:
182,192,143436,1,0,0:0:0:0:
402,192,143436,1,0,0:0:0:0:
182,192,143522,1,0,0:0:0:0:
475,192,143522,1,0,0:0:0:0:
182,192,143609,1,0,0:0:0:0:
402,192,143609,1,0,0:0:0:0:
256,192,143695,128,0,146368:0:0:0:0:
36,192,143695,128,0,146368:0:0:0:0:
329,192,143695,1,0,0:0:0:0:
182,192,143695,1,0,0:0:0:0:
402,192,143781,1,0,0:0:0:0:
109,192,143868,1,0,0:0:0:0:
402,192,143954,1,0,0:0:0:0:
109,192,144040,1,0,0:0:0:0:
475,192,144040,1,0,0:0:0:0:
329,192,144040,1,0,0:0:0:0:
182,192,144126,1,0,0:0:0:0:
402,192,144212,1,0,0:0:0:0:
182,192,144299,1,0,0:0:0:0:
402,192,144385,1,0,0:0:0:0:
475,192,144471,1,0,0:0:0:0:
109,192,144557,128,0,144600:0:0:0:0:
182,192,144557,128,0,144600:0:0:0:0:
329,192,144557,128,0,144600:0:0:0:0:
402,192,144643,1,0,0:0:0:0:
475,192,144730,1,0,0:0:0:0:
402,192,144816,1,0,0:0:0:0:
329,192,144902,1,0,0:0:0:0:
182,192,144988,1,0,0:0:0:0:
329,192,145075,128,0,145118:0:0:0:0:
402,192,145075,128,0,145118:0:0:0:0:
475,192,145075,128,0,145118:0:0:0:0:
402,192,145160,1,0,0:0:0:0:
475,192,145160,1,0,0:0:0:0:
402,192,145247,1,0,0:0:0:0:
475,192,145247,1,0,0:0:0:0:
402,192,145333,1,0,0:0:0:0:
475,192,145333,1,0,0:0:0:0:
402,192,145419,1,0,0:0:0:0:
475,192,145419,1,0,0:0:0:0:
402,192,145505,1,0,0:0:0:0:
475,192,145505,1,0,0:0:0:0:
182,192,145592,128,0,145635:0:0:0:0:
329,192,145592,128,0,145635:0:0:0:0:
402,192,145592,128,0,145635:0:0:0:0:
182,192,145678,1,0,0:0:0:0:
329,192,145678,1,0,0:0:0:0:
182,192,145764,1,0,0:0:0:0:
329,192,145764,1,0,0:0:0:0:
182,192,145850,1,0,0:0:0:0:
329,192,145850,1,0,0:0:0:0:
182,192,145936,1,0,0:0:0:0:
329,192,145936,1,0,0:0:0:0:
182,192,146022,1,0,0:0:0:0:
329,192,146022,1,0,0:0:0:0:
109,192,146109,128,0,146152:0:0:0:0:
182,192,146109,128,0,146152:0:0:0:0:
329,192,146109,128,0,146152:0:0:0:0:
109,192,146195,1,0,0:0:0:0:
182,192,146195,1,0,0:0:0:0:
109,192,146281,1,0,0:0:0:0:
182,192,146281,1,0,0:0:0:0:
109,192,146367,1,0,0:0:0:0:
182,192,146367,1,0,0:0:0:0:
109,192,146454,128,0,149127:0:0:0:0:
475,192,146454,128,0,149126:0:0:0:0:
256,192,146454,128,0,146497:0:0:0:0:
182,192,146454,128,0,146497:0:0:0:0:
36,192,146454,128,0,146497:0:0:0:0:
329,192,146541,1,0,0:0:0:0:
182,192,146627,1,0,0:0:0:0:
329,192,146713,1,0,0:0:0:0:
182,192,146798,1,0,0:0:0:0:
256,192,146798,1,0,0:0:0:0:
402,192,146798,1,0,0:0:0:0:
329,192,146885,1,0,0:0:0:0:
182,192,146972,1,0,0:0:0:0:
36,192,147058,1,0,0:0:0:0:
182,192,147144,1,0,0:0:0:0:
402,192,147230,1,0,0:0:0:0:
256,192,147316,128,0,147360:0:0:0:0:
329,192,147316,128,0,147360:0:0:0:0:
36,192,147316,128,0,147360:0:0:0:0:
182,192,147403,1,0,0:0:0:0:
329,192,147489,1,0,0:0:0:0:
182,192,147575,1,0,0:0:0:0:
36,192,147661,1,0,0:0:0:0:
182,192,147747,1,0,0:0:0:0:
256,192,147834,128,0,147877:0:0:0:0:
329,192,147834,128,0,147877:0:0:0:0:
36,192,147834,128,0,147877:0:0:0:0:
402,192,147920,1,0,0:0:0:0:
182,192,148006,1,0,0:0:0:0:
36,192,148092,1,0,0:0:0:0:
329,192,148178,1,0,0:0:0:0:
36,192,148265,1,0,0:0:0:0:
182,192,148350,1,0,0:0:0:0:
256,192,148350,1,0,0:0:0:0:
402,192,148350,1,0,0:0:0:0:
329,192,148437,1,0,0:0:0:0:
182,192,148523,1,0,0:0:0:0:
256,192,148610,1,0,0:0:0:0:
329,192,148696,1,0,0:0:0:0:
402,192,148782,1,0,0:0:0:0:
256,192,148867,1,0,0:0:0:0:
36,192,148867,1,0,0:0:0:0:
256,192,148953,1,0,0:0:0:0:
182,192,148953,1,0,0:0:0:0:
256,192,149040,1,0,0:0:0:0:
36,192,149040,1,0,0:0:0:0:
256,192,149126,1,0,0:0:0:0:
182,192,149126,1,0,0:0:0:0:
256,192,149212,1,0,0:0:0:0:
36,192,149212,1,0,0:0:0:0:
109,192,149213,128,0,151885:0:0:0:0:
475,192,149213,128,0,151885:0:0:0:0:
329,192,149299,1,0,0:0:0:0:
402,192,149385,1,0,0:0:0:0:
329,192,149472,1,0,0:0:0:0:
182,192,149557,1,0,0:0:0:0:
256,192,149557,1,0,0:0:0:0:
402,192,149557,1,0,0:0:0:0:
329,192,149644,1,0,0:0:0:0:
36,192,149730,1,0,0:0:0:0:
182,192,149816,1,0,0:0:0:0:
329,192,149903,1,0,0:0:0:0:
402,192,149989,1,0,0:0:0:0:
256,192,150075,128,0,150118:0:0:0:0:
329,192,150075,128,0,150118:0:0:0:0:
36,192,150075,128,0,150118:0:0:0:0:
182,192,150161,1,0,0:0:0:0:
36,192,150247,1,0,0:0:0:0:
182,192,150334,1,0,0:0:0:0:
402,192,150420,1,0,0:0:0:0:
182,192,150506,1,0,0:0:0:0:
256,192,150592,128,0,150635:0:0:0:0:
329,192,150592,128,0,150635:0:0:0:0:
36,192,150592,128,0,150635:0:0:0:0:
182,192,150678,1,0,0:0:0:0:
329,192,150765,1,0,0:0:0:0:
256,192,150851,1,0,0:0:0:0:
182,192,150937,1,0,0:0:0:0:
36,192,151023,1,0,0:0:0:0:
182,192,151109,1,0,0:0:0:0:
256,192,151109,1,0,0:0:0:0:
402,192,151109,1,0,0:0:0:0:
329,192,151196,1,0,0:0:0:0:
182,192,151282,1,0,0:0:0:0:
402,192,151368,1,0,0:0:0:0:
329,192,151454,1,0,0:0:0:0:
36,192,151541,1,0,0:0:0:0:
329,192,151627,128,0,151670:0:0:0:0:
402,192,151627,128,0,151670:0:0:0:0:
182,192,151627,128,0,151670:0:0:0:0:
329,192,151713,128,0,151756:0:0:0:0:
402,192,151713,128,0,151756:0:0:0:0:
182,192,151713,128,0,151756:0:0:0:0:
329,192,151799,128,0,151842:0:0:0:0:
402,192,151799,128,0,151842:0:0:0:0:
182,192,151799,128,0,151842:0:0:0:0:
329,192,151885,128,0,151928:0:0:0:0:
402,192,151885,128,0,151928:0:0:0:0:
182,192,151885,128,0,151928:0:0:0:0:
256,192,151972,128,0,154644:0:0:0:0:
36,192,151972,128,0,154644:0:0:0:0:
329,192,151972,128,0,152015:0:0:0:0:
402,192,151972,128,0,152015:0:0:0:0:
182,192,151972,128,0,152015:0:0:0:0:
109,192,152315,1,0,0:0:0:0:
329,192,152315,1,0,0:0:0:0:
475,192,152315,1,0,0:0:0:0:
182,192,152403,1,0,0:0:0:0:
329,192,152489,1,0,0:0:0:0:
475,192,152575,1,0,0:0:0:0:
329,192,152661,1,0,0:0:0:0:
402,192,152747,1,0,0:0:0:0:
182,192,152834,128,0,152877:0:0:0:0:
109,192,152834,128,0,152877:0:0:0:0:
329,192,152834,128,0,152877:0:0:0:0:
402,192,152920,1,0,0:0:0:0:
475,192,153006,1,0,0:0:0:0:
329,192,153092,1,0,0:0:0:0:
182,192,153178,1,0,0:0:0:0:
402,192,153265,1,0,0:0:0:0:
109,192,153351,128,0,153394:0:0:0:0:
182,192,153351,128,0,153394:0:0:0:0:
329,192,153351,128,0,153394:0:0:0:0:
402,192,153437,1,0,0:0:0:0:
182,192,153523,1,0,0:0:0:0:
109,192,153610,1,0,0:0:0:0:
329,192,153696,1,0,0:0:0:0:
402,192,153782,1,0,0:0:0:0:
109,192,153867,1,0,0:0:0:0:
329,192,153867,1,0,0:0:0:0:
475,192,153867,1,0,0:0:0:0:
182,192,153954,1,0,0:0:0:0:
329,192,154041,1,0,0:0:0:0:
402,192,154127,1,0,0:0:0:0:
475,192,154213,1,0,0:0:0:0:
402,192,154299,1,0,0:0:0:0:
182,192,154384,1,0,0:0:0:0:
329,192,154384,1,0,0:0:0:0:
182,192,154471,1,0,0:0:0:0:
402,192,154471,1,0,0:0:0:0:
182,192,154557,1,0,0:0:0:0:
475,192,154557,1,0,0:0:0:0:
182,192,154643,1,0,0:0:0:0:
402,192,154643,1,0,0:0:0:0:
182,192,154729,1,0,0:0:0:0:
329,192,154729,1,0,0:0:0:0:
256,192,154730,128,0,157403:0:0:0:0:
36,192,154730,128,0,157403:0:0:0:0:
402,192,154816,1,0,0:0:0:0:
109,192,154903,1,0,0:0:0:0:
402,192,154989,1,0,0:0:0:0:
109,192,155074,1,0,0:0:0:0:
329,192,155074,1,0,0:0:0:0:
475,192,155074,1,0,0:0:0:0:
182,192,155161,1,0,0:0:0:0:
402,192,155247,1,0,0:0:0:0:
182,192,155334,1,0,0:0:0:0:
402,192,155420,1,0,0:0:0:0:
475,192,155506,1,0,0:0:0:0:
109,192,155592,128,0,155635:0:0:0:0:
182,192,155592,128,0,155635:0:0:0:0:
329,192,155592,128,0,155635:0:0:0:0:
402,192,155678,1,0,0:0:0:0:
475,192,155765,1,0,0:0:0:0:
402,192,155851,1,0,0:0:0:0:
329,192,155937,1,0,0:0:0:0:
402,192,156109,1,0,0:0:0:0:
182,192,156109,1,0,0:0:0:0:
109,192,156195,1,0,0:0:0:0:
402,192,156195,1,0,0:0:0:0:
182,192,156281,1,0,0:0:0:0:
402,192,156281,1,0,0:0:0:0:
109,192,156367,1,0,0:0:0:0:
402,192,156367,1,0,0:0:0:0:
182,192,156453,1,0,0:0:0:0:
402,192,156453,1,0,0:0:0:0:
109,192,156540,1,0,0:0:0:0:
402,192,156540,1,0,0:0:0:0:
182,192,156626,1,0,0:0:0:0:
475,192,156626,1,0,0:0:0:0:
182,192,156712,1,0,0:0:0:0:
402,192,156712,1,0,0:0:0:0:
182,192,156798,1,0,0:0:0:0:
329,192,156798,1,0,0:0:0:0:
182,192,156884,1,0,0:0:0:0:
402,192,156884,1,0,0:0:0:0:
182,192,156971,1,0,0:0:0:0:
475,192,156971,1,0,0:0:0:0:
182,192,157057,1,0,0:0:0:0:
402,192,157057,1,0,0:0:0:0:
109,192,157143,1,0,0:0:0:0:
329,192,157143,1,0,0:0:0:0:
109,192,157229,1,0,0:0:0:0:
402,192,157229,1,0,0:0:0:0:
109,192,157315,1,0,0:0:0:0:
475,192,157315,1,0,0:0:0:0:
109,192,157402,1,0,0:0:0:0:
402,192,157402,1,0,0:0:0:0:
329,192,157488,128,0,157531:0:0:0:0:
475,192,157488,128,0,157531:0:0:0:0:
256,192,157488,128,0,157531:0:0:0:0:
36,192,157488,128,0,157661:0:0:0:0:
109,192,157575,1,0,0:0:0:0:
182,192,157661,128,0,157833:0:0:0:0:
402,192,157661,1,0,0:0:0:0:
329,192,157747,1,0,0:0:0:0:
475,192,157833,128,0,158006:0:0:0:0:
402,192,157833,128,0,158006:0:0:0:0:
256,192,157833,1,0,0:0:0:0:
36,192,157833,1,0,0:0:0:0:
109,192,157919,1,0,0:0:0:0:
36,192,158006,128,0,158178:0:0:0:0:
182,192,158006,1,0,0:0:0:0:
329,192,158092,1,0,0:0:0:0:
182,192,158178,128,0,158350:0:0:0:0:
256,192,158178,1,0,0:0:0:0:
402,192,158178,1,0,0:0:0:0:
109,192,158264,1,0,0:0:0:0:
329,192,158350,128,0,158523:0:0:0:0:
475,192,158350,128,0,158523:0:0:0:0:
36,192,158350,1,0,0:0:0:0:
109,192,158437,1,0,0:0:0:0:
182,192,158522,1,0,0:0:0:0:
36,192,158523,128,0,158695:0:0:0:0:
256,192,158523,1,0,0:0:0:0:
402,192,158609,1,0,0:0:0:0:
182,192,158695,128,0,158868:0:0:0:0:
329,192,158695,1,0,0:0:0:0:
475,192,158781,1,0,0:0:0:0:
36,192,158867,1,0,0:0:0:0:
329,192,158868,128,0,159040:0:0:0:0:
402,192,158868,128,0,159040:0:0:0:0:
256,192,158868,1,0,0:0:0:0:
109,192,158954,1,0,0:0:0:0:
36,192,159040,128,0,159212:0:0:0:0:
182,192,159040,1,0,0:0:0:0:
329,192,159126,1,0,0:0:0:0:
182,192,159212,128,0,159385:0:0:0:0:
256,192,159212,1,0,0:0:0:0:
402,192,159212,1,0,0:0:0:0:
109,192,159299,1,0,0:0:0:0:
329,192,159385,128,0,159557:0:0:0:0:
475,192,159385,128,0,159557:0:0:0:0:
36,192,159385,1,0,0:0:0:0:
109,192,159471,1,0,0:0:0:0:
36,192,159557,128,0,159730:0:0:0:0:
256,192,159557,1,0,0:0:0:0:
182,192,159557,1,0,0:0:0:0:
402,192,159643,1,0,0:0:0:0:
182,192,159730,128,0,159902:0:0:0:0:
329,192,159730,1,0,0:0:0:0:
109,192,159816,1,0,0:0:0:0:
402,192,159902,128,0,160247:0:0:0:0:
475,192,159902,128,0,160075:0:0:0:0:
256,192,159902,1,0,0:0:0:0:
329,192,159902,1,0,0:0:0:0:
36,192,159988,1,0,0:0:0:0:
329,192,160075,128,0,160247:0:0:0:0:
109,192,160075,1,0,0:0:0:0:
182,192,160161,1,0,0:0:0:0:
36,192,160247,128,0,160419:0:0:0:0:
256,192,160247,1,0,0:0:0:0:
109,192,160247,1,0,0:0:0:0:
475,192,160333,1,0,0:0:0:0:
182,192,160419,128,0,160592:0:0:0:0:
402,192,160419,1,0,0:0:0:0:
329,192,160506,1,0,0:0:0:0:
36,192,160591,1,0,0:0:0:0:
402,192,160592,128,0,160764:0:0:0:0:
475,192,160592,128,0,160764:0:0:0:0:
256,192,160592,1,0,0:0:0:0:
109,192,160678,1,0,0:0:0:0:
36,192,160764,128,0,160937:0:0:0:0:
182,192,160764,1,0,0:0:0:0:
329,192,160850,1,0,0:0:0:0:
402,192,160936,1,0,0:0:0:0:
182,192,160937,128,0,161109:0:0:0:0:
256,192,160937,1,0,0:0:0:0:
109,192,161023,1,0,0:0:0:0:
329,192,161109,128,0,161281:0:0:0:0:
475,192,161109,128,0,161281:0:0:0:0:
36,192,161109,1,0,0:0:0:0:
109,192,161195,1,0,0:0:0:0:
36,192,161281,128,0,161454:0:0:0:0:
256,192,161281,1,0,0:0:0:0:
402,192,161281,1,0,0:0:0:0:
475,192,161368,1,0,0:0:0:0:
182,192,161454,128,0,161626:0:0:0:0:
329,192,161454,1,0,0:0:0:0:
109,192,161540,1,0,0:0:0:0:
329,192,161626,128,0,161799:0:0:0:0:
402,192,161626,128,0,161799:0:0:0:0:
256,192,161626,1,0,0:0:0:0:
475,192,161626,1,0,0:0:0:0:
109,192,161712,1,0,0:0:0:0:
36,192,161799,128,0,161971:0:0:0:0:
182,192,161799,1,0,0:0:0:0:
329,192,161885,1,0,0:0:0:0:
182,192,161971,128,0,162143:0:0:0:0:
256,192,161971,1,0,0:0:0:0:
402,192,161971,1,0,0:0:0:0:
109,192,162057,1,0,0:0:0:0:
329,192,162143,128,0,162316:0:0:0:0:
475,192,162143,128,0,162316:0:0:0:0:
36,192,162143,1,0,0:0:0:0:
109,192,162230,1,0,0:0:0:0:
182,192,162315,1,0,0:0:0:0:
36,192,162316,128,0,162488:0:0:0:0:
256,192,162316,1,0,0:0:0:0:
329,192,162402,1,0,0:0:0:0:
182,192,162488,128,0,162661:0:0:0:0:
402,192,162488,1,0,0:0:0:0:
329,192,162575,1,0,0:0:0:0:
36,192,162660,1,0,0:0:0:0:
402,192,162661,128,0,163006:0:0:0:0:
475,192,162661,128,0,162833:0:0:0:0:
256,192,162661,1,0,0:0:0:0:
109,192,162747,1,0,0:0:0:0:
329,192,162833,128,0,163006:0:0:0:0:
256,192,162833,1,0,0:0:0:0:
36,192,162833,1,0,0:0:0:0:
109,192,162919,1,0,0:0:0:0:
36,192,163006,128,0,163178:0:0:0:0:
182,192,163006,128,0,163049:0:0:0:0:
256,192,163006,128,0,163049:0:0:0:0:
475,192,163006,128,0,163049:0:0:0:0:
402,192,163092,1,0,0:0:0:0:
109,192,163178,128,0,163350:0:0:0:0:
329,192,163178,1,0,0:0:0:0:
182,192,163264,1,0,0:0:0:0:
329,192,163350,128,0,163523:0:0:0:0:
475,192,163350,128,0,163523:0:0:0:0:
256,192,163350,1,0,0:0:0:0:
36,192,163350,1,0,0:0:0:0:
402,192,163437,1,0,0:0:0:0:
36,192,163523,128,0,163695:0:0:0:0:
109,192,163523,1,0,0:0:0:0:
402,192,163609,1,0,0:0:0:0:
109,192,163695,128,0,163868:0:0:0:0:
256,192,163695,1,0,0:0:0:0:
329,192,163695,1,0,0:0:0:0:
402,192,163781,1,0,0:0:0:0:
329,192,163868,128,0,164040:0:0:0:0:
475,192,163868,128,0,164040:0:0:0:0:
182,192,163868,1,0,0:0:0:0:
402,192,163954,1,0,0:0:0:0:
36,192,164040,128,0,164212:0:0:0:0:
256,192,164040,1,0,0:0:0:0:
182,192,164040,1,0,0:0:0:0:
475,192,164126,1,0,0:0:0:0:
109,192,164212,128,0,164385:0:0:0:0:
402,192,164212,1,0,0:0:0:0:
182,192,164299,1,0,0:0:0:0:
475,192,164384,1,0,0:0:0:0:
329,192,164385,128,0,164557:0:0:0:0:
402,192,164385,128,0,164557:0:0:0:0:
256,192,164385,1,0,0:0:0:0:
182,192,164471,1,0,0:0:0:0:
36,192,164557,128,0,164730:0:0:0:0:
109,192,164557,1,0,0:0:0:0:
182,192,164643,1,0,0:0:0:0:
329,192,164729,1,0,0:0:0:0:
109,192,164730,128,0,164902:0:0:0:0:
256,192,164730,1,0,0:0:0:0:
402,192,164816,1,0,0:0:0:0:
329,192,164902,128,0,165075:0:0:0:0:
475,192,164902,128,0,165075:0:0:0:0:
182,192,164902,1,0,0:0:0:0:
402,192,164988,1,0,0:0:0:0:
182,192,165074,1,0,0:0:0:0:
36,192,165075,128,0,165247:0:0:0:0:
256,192,165075,1,0,0:0:0:0:
402,192,165161,1,0,0:0:0:0:
109,192,165247,128,0,165419:0:0:0:0:
329,192,165247,1,0,0:0:0:0:
182,192,165333,1,0,0:0:0:0:
402,192,165419,128,0,165764:0:0:0:0:
475,192,165419,128,0,165592:0:0:0:0:
256,192,165419,1,0,0:0:0:0:
329,192,165419,1,0,0:0:0:0:
36,192,165506,1,0,0:0:0:0:
329,192,165592,128,0,165764:0:0:0:0:
109,192,165592,1,0,0:0:0:0:
182,192,165678,1,0,0:0:0:0:
36,192,165764,128,0,165937:0:0:0:0:
256,192,165764,1,0,0:0:0:0:
109,192,165764,1,0,0:0:0:0:
475,192,165850,1,0,0:0:0:0:
109,192,165937,128,0,166109:0:0:0:0:
402,192,165937,1,0,0:0:0:0:
182,192,166023,1,0,0:0:0:0:
329,192,166109,128,0,166281:0:0:0:0:
475,192,166109,128,0,166281:0:0:0:0:
256,192,166109,1,0,0:0:0:0:
36,192,166109,1,0,0:0:0:0:
402,192,166195,1,0,0:0:0:0:
36,192,166281,128,0,166454:0:0:0:0:
182,192,166281,1,0,0:0:0:0:
402,192,166368,1,0,0:0:0:0:
329,192,166453,1,0,0:0:0:0:
109,192,166454,128,0,166626:0:0:0:0:
256,192,166454,1,0,0:0:0:0:
182,192,166540,1,0,0:0:0:0:
329,192,166626,128,0,166799:0:0:0:0:
475,192,166626,128,0,166799:0:0:0:0:
402,192,166626,1,0,0:0:0:0:
182,192,166712,1,0,0:0:0:0:
109,192,166798,1,0,0:0:0:0:
36,192,166799,128,0,166971:0:0:0:0:
256,192,166799,1,0,0:0:0:0:
475,192,166885,1,0,0:0:0:0:
109,192,166971,128,0,167143:0:0:0:0:
329,192,166971,1,0,0:0:0:0:
402,192,167057,1,0,0:0:0:0:
256,192,167143,128,0,167187:0:0:0:0:
329,192,167143,128,0,167187:0:0:0:0:
182,192,167143,128,0,167187:0:0:0:0:
109,192,167229,1,0,0:0:0:0:
402,192,167229,1,0,0:0:0:0:
475,192,167229,1,0,0:0:0:0:
109,192,167315,1,0,0:0:0:0:
402,192,167315,1,0,0:0:0:0:
475,192,167315,1,0,0:0:0:0:
109,192,167402,1,0,0:0:0:0:
402,192,167402,1,0,0:0:0:0:
475,192,167402,1,0,0:0:0:0:
109,192,167488,1,0,0:0:0:0:
402,192,167488,1,0,0:0:0:0:
475,192,167488,1,0,0:0:0:0:
109,192,167574,1,0,0:0:0:0:
402,192,167574,1,0,0:0:0:0:
475,192,167574,1,0,0:0:0:0:
256,192,167661,128,0,167704:0:0:0:0:
36,192,167661,128,0,167704:0:0:0:0:
475,192,167661,128,0,167704:0:0:0:0:
182,192,167747,1,0,0:0:0:0:
329,192,167747,1,0,0:0:0:0:
109,192,167747,1,0,0:0:0:0:
182,192,167833,1,0,0:0:0:0:
329,192,167833,1,0,0:0:0:0:
109,192,167833,1,0,0:0:0:0:
182,192,167919,1,0,0:0:0:0:
329,192,167919,1,0,0:0:0:0:
109,192,167919,1,0,0:0:0:0:
182,192,168005,1,0,0:0:0:0:
329,192,168005,1,0,0:0:0:0:
109,192,168005,1,0,0:0:0:0:
182,192,168091,1,0,0:0:0:0:
329,192,168091,1,0,0:0:0:0:
109,192,168091,1,0,0:0:0:0:
256,192,168178,128,0,168221:0:0:0:0:
329,192,168178,128,0,168221:0:0:0:0:
182,192,168178,128,0,168221:0:0:0:0:
182,192,168264,1,0,0:0:0:0:
329,192,168264,1,0,0:0:0:0:
256,192,168264,1,0,0:0:0:0:
182,192,168350,1,0,0:0:0:0:
329,192,168350,1,0,0:0:0:0:
256,192,168350,1,0,0:0:0:0:
182,192,168436,1,0,0:0:0:0:
329,192,168436,1,0,0:0:0:0:
256,192,168436,1,0,0:0:0:0:
256,192,168523,128,0,168566:0:0:0:0:
182,192,168523,128,0,168566:0:0:0:0:
109,192,168523,128,0,168566:0:0:0:0:
329,192,168523,128,0,168566:0:0:0:0:
402,192,168523,128,0,168566:0:0:0:0:
36,192,168523,128,0,168695:0:0:0:0:
475,192,168609,1,0,0:0:0:0:
182,192,168695,128,0,168867:0:0:0:0:
402,192,168695,1,0,0:0:0:0:
329,192,168781,1,0,0:0:0:0:
475,192,168867,128,0,169040:0:0:0:0:
402,192,168867,128,0,169040:0:0:0:0:
256,192,168867,1,0,0:0:0:0:
36,192,168867,1,0,0:0:0:0:
109,192,168953,1,0,0:0:0:0:
36,192,169040,128,0,169212:0:0:0:0:
182,192,169040,1,0,0:0:0:0:
329,192,169126,1,0,0:0:0:0:
182,192,169212,128,0,169384:0:0:0:0:
256,192,169212,1,0,0:0:0:0:
402,192,169212,1,0,0:0:0:0:
109,192,169298,1,0,0:0:0:0:
329,192,169384,128,0,169557:0:0:0:0:
475,192,169384,128,0,169557:0:0:0:0:
36,192,169384,1,0,0:0:0:0:
109,192,169471,1,0,0:0:0:0:
36,192,169557,128,0,169729:0:0:0:0:
256,192,169557,1,0,0:0:0:0:
182,192,169557,1,0,0:0:0:0:
402,192,169643,1,0,0:0:0:0:
182,192,169729,128,0,169902:0:0:0:0:
329,192,169729,1,0,0:0:0:0:
475,192,169815,1,0,0:0:0:0:
329,192,169902,128,0,170074:0:0:0:0:
402,192,169902,128,0,170074:0:0:0:0:
256,192,169902,1,0,0:0:0:0:
36,192,169902,1,0,0:0:0:0:
109,192,169988,1,0,0:0:0:0:
36,192,170074,128,0,170246:0:0:0:0:
182,192,170074,1,0,0:0:0:0:
329,192,170160,1,0,0:0:0:0:
182,192,170246,128,0,170419:0:0:0:0:
256,192,170246,1,0,0:0:0:0:
402,192,170247,1,0,0:0:0:0:
109,192,170333,1,0,0:0:0:0:
329,192,170419,128,0,170591:0:0:0:0:
475,192,170419,128,0,170591:0:0:0:0:
36,192,170419,1,0,0:0:0:0:
109,192,170505,1,0,0:0:0:0:
36,192,170591,128,0,170764:0:0:0:0:
256,192,170591,1,0,0:0:0:0:
182,192,170591,1,0,0:0:0:0:
402,192,170677,1,0,0:0:0:0:
182,192,170764,128,0,170936:0:0:0:0:
329,192,170764,1,0,0:0:0:0:
109,192,170850,1,0,0:0:0:0:
402,192,170936,128,0,171281:0:0:0:0:
475,192,170936,128,0,171109:0:0:0:0:
256,192,170936,1,0,0:0:0:0:
329,192,170936,1,0,0:0:0:0:
36,192,171022,1,0,0:0:0:0:
329,192,171109,128,0,171281:0:0:0:0:
109,192,171109,1,0,0:0:0:0:
182,192,171195,1,0,0:0:0:0:
36,192,171281,128,0,171453:0:0:0:0:
256,192,171281,1,0,0:0:0:0:
109,192,171281,1,0,0:0:0:0:
475,192,171367,1,0,0:0:0:0:
182,192,171453,128,0,171626:0:0:0:0:
402,192,171453,1,0,0:0:0:0:
329,192,171540,1,0,0:0:0:0:
402,192,171626,128,0,171798:0:0:0:0:
475,192,171626,128,0,171798:0:0:0:0:
256,192,171626,1,0,0:0:0:0:
36,192,171626,1,0,0:0:0:0:
109,192,171712,1,0,0:0:0:0:
36,192,171798,128,0,171971:0:0:0:0:
182,192,171798,1,0,0:0:0:0:
329,192,171884,1,0,0:0:0:0:
182,192,171971,128,0,172143:0:0:0:0:
256,192,171971,1,0,0:0:0:0:
402,192,171971,1,0,0:0:0:0:
109,192,172057,1,0,0:0:0:0:
329,192,172143,128,0,172315:0:0:0:0:
475,192,172143,128,0,172315:0:0:0:0:
36,192,172143,1,0,0:0:0:0:
109,192,172229,1,0,0:0:0:0:
36,192,172315,128,0,172488:0:0:0:0:
256,192,172315,1,0,0:0:0:0:
182,192,172315,1,0,0:0:0:0:
402,192,172402,1,0,0:0:0:0:
182,192,172488,128,0,172660:0:0:0:0:
329,192,172488,1,0,0:0:0:0:
109,192,172574,1,0,0:0:0:0:
329,192,172660,128,0,172833:0:0:0:0:
402,192,172660,128,0,172833:0:0:0:0:
256,192,172660,1,0,0:0:0:0:
475,192,172660,1,0,0:0:0:0:
109,192,172746,1,0,0:0:0:0:
36,192,172833,128,0,173005:0:0:0:0:
182,192,172833,1,0,0:0:0:0:
329,192,172919,1,0,0:0:0:0:
182,192,173005,128,0,173177:0:0:0:0:
256,192,173005,1,0,0:0:0:0:
402,192,173005,1,0,0:0:0:0:
109,192,173091,1,0,0:0:0:0:
329,192,173177,128,0,173350:0:0:0:0:
475,192,173177,128,0,173350:0:0:0:0:
36,192,173177,1,0,0:0:0:0:
109,192,173264,1,0,0:0:0:0:
36,192,173350,128,0,173522:0:0:0:0:
256,192,173350,1,0,0:0:0:0:
182,192,173350,1,0,0:0:0:0:
329,192,173436,1,0,0:0:0:0:
182,192,173522,128,0,173695:0:0:0:0:
402,192,173522,1,0,0:0:0:0:
329,192,173609,1,0,0:0:0:0:
402,192,173695,128,0,174040:0:0:0:0:
475,192,173695,128,0,173867:0:0:0:0:
256,192,173695,1,0,0:0:0:0:
36,192,173695,1,0,0:0:0:0:
109,192,173781,1,0,0:0:0:0:
329,192,173867,128,0,174040:0:0:0:0:
256,192,173867,1,0,0:0:0:0:
182,192,173867,1,0,0:0:0:0:
109,192,173953,1,0,0:0:0:0:
36,192,174040,128,0,174212:0:0:0:0:
182,192,174040,128,0,174083:0:0:0:0:
256,192,174040,128,0,174083:0:0:0:0:
475,192,174040,128,0,174083:0:0:0:0:
402,192,174126,1,0,0:0:0:0:
109,192,174212,128,0,174384:0:0:0:0:
329,192,174212,1,0,0:0:0:0:
182,192,174298,1,0,0:0:0:0:
329,192,174384,128,0,174557:0:0:0:0:
475,192,174384,128,0,174557:0:0:0:0:
256,192,174384,1,0,0:0:0:0:
36,192,174384,1,0,0:0:0:0:
402,192,174471,1,0,0:0:0:0:
36,192,174557,128,0,174729:0:0:0:0:
109,192,174557,1,0,0:0:0:0:
402,192,174643,1,0,0:0:0:0:
109,192,174729,128,0,174902:0:0:0:0:
256,192,174729,1,0,0:0:0:0:
329,192,174729,1,0,0:0:0:0:
402,192,174815,1,0,0:0:0:0:
329,192,174902,128,0,175074:0:0:0:0:
475,192,174902,128,0,175074:0:0:0:0:
182,192,174902,1,0,0:0:0:0:
402,192,174988,1,0,0:0:0:0:
36,192,175074,128,0,175246:0:0:0:0:
256,192,175074,1,0,0:0:0:0:
182,192,175074,1,0,0:0:0:0:
475,192,175160,1,0,0:0:0:0:
109,192,175246,128,0,175419:0:0:0:0:
402,192,175246,1,0,0:0:0:0:
182,192,175333,1,0,0:0:0:0:
329,192,175419,128,0,175591:0:0:0:0:
402,192,175419,128,0,175591:0:0:0:0:
256,192,175419,1,0,0:0:0:0:
475,192,175419,1,0,0:0:0:0:
182,192,175505,1,0,0:0:0:0:
36,192,175591,128,0,175764:0:0:0:0:
109,192,175591,1,0,0:0:0:0:
182,192,175677,1,0,0:0:0:0:
109,192,175764,128,0,175936:0:0:0:0:
256,192,175764,1,0,0:0:0:0:
329,192,175764,1,0,0:0:0:0:
402,192,175850,1,0,0:0:0:0:
329,192,175936,128,0,176109:0:0:0:0:
475,192,175936,128,0,176109:0:0:0:0:
182,192,175936,1,0,0:0:0:0:
402,192,176022,1,0,0:0:0:0:
36,192,176109,128,0,176281:0:0:0:0:
256,192,176109,1,0,0:0:0:0:
182,192,176109,1,0,0:0:0:0:
402,192,176195,1,0,0:0:0:0:
109,192,176281,128,0,176453:0:0:0:0:
329,192,176281,1,0,0:0:0:0:
182,192,176367,1,0,0:0:0:0:
402,192,176453,128,0,176798:0:0:0:0:
475,192,176453,128,0,176626:0:0:0:0:
256,192,176453,1,0,0:0:0:0:
329,192,176453,1,0,0:0:0:0:
36,192,176540,1,0,0:0:0:0:
329,192,176626,128,0,176798:0:0:0:0:
109,192,176626,1,0,0:0:0:0:
182,192,176712,1,0,0:0:0:0:
36,192,176798,128,0,176971:0:0:0:0:
256,192,176798,1,0,0:0:0:0:
109,192,176798,1,0,0:0:0:0:
475,192,176884,1,0,0:0:0:0:
109,192,176971,128,0,177143:0:0:0:0:
402,192,176971,1,0,0:0:0:0:
182,192,177057,1,0,0:0:0:0:
329,192,177143,128,0,177315:0:0:0:0:
475,192,177143,128,0,177315:0:0:0:0:
256,192,177143,1,0,0:0:0:0:
36,192,177143,1,0,0:0:0:0:
402,192,177229,1,0,0:0:0:0:
36,192,177315,128,0,177488:0:0:0:0:
182,192,177315,1,0,0:0:0:0:
402,192,177402,1,0,0:0:0:0:
109,192,177488,128,0,177660:0:0:0:0:
256,192,177488,1,0,0:0:0:0:
329,192,177488,1,0,0:0:0:0:
182,192,177574,1,0,0:0:0:0:
329,192,177660,128,0,177833:0:0:0:0:
475,192,177660,128,0,177833:0:0:0:0:
402,192,177660,1,0,0:0:0:0:
182,192,177746,1,0,0:0:0:0:
36,192,177833,128,0,178005:0:0:0:0:
256,192,177833,1,0,0:0:0:0:
109,192,177833,1,0,0:0:0:0:
475,192,177919,1,0,0:0:0:0:
109,192,178005,128,0,178177:0:0:0:0:
329,192,178005,1,0,0:0:0:0:
402,192,178091,1,0,0:0:0:0:
182,192,178178,1,0,0:0:0:0:
256,192,178178,1,0,0:0:0:0:
329,192,178178,1,0,0:0:0:0:
109,192,178264,1,0,0:0:0:0:
402,192,178264,1,0,0:0:0:0:
475,192,178264,1,0,0:0:0:0:
36,192,178350,1,0,0:0:0:0:
402,192,178350,1,0,0:0:0:0:
475,192,178350,1,0,0:0:0:0:
109,192,178436,1,0,0:0:0:0:
402,192,178436,1,0,0:0:0:0:
475,192,178436,1,0,0:0:0:0:
36,192,178522,1,0,0:0:0:0:
402,192,178522,1,0,0:0:0:0:
475,192,178522,1,0,0:0:0:0:
109,192,178609,1,0,0:0:0:0:
402,192,178609,1,0,0:0:0:0:
475,192,178609,1,0,0:0:0:0:
36,192,178695,1,0,0:0:0:0:
256,192,178695,1,0,0:0:0:0:
475,192,178695,1,0,0:0:0:0:
182,192,178781,1,0,0:0:0:0:
402,192,178781,1,0,0:0:0:0:
109,192,178781,1,0,0:0:0:0:
182,192,178867,1,0,0:0:0:0:
329,192,178867,1,0,0:0:0:0:
109,192,178867,1,0,0:0:0:0:
182,192,178953,1,0,0:0:0:0:
402,192,178953,1,0,0:0:0:0:
109,192,178953,1,0,0:0:0:0:
182,192,179040,1,0,0:0:0:0:
329,192,179040,1,0,0:0:0:0:
109,192,179040,1,0,0:0:0:0:
182,192,179126,1,0,0:0:0:0:
402,192,179126,1,0,0:0:0:0:
109,192,179126,1,0,0:0:0:0:
36,192,179212,1,0,0:0:0:0:
256,192,179212,1,0,0:0:0:0:
475,192,179212,1,0,0:0:0:0:
182,192,179298,1,0,0:0:0:0:
256,192,179298,1,0,0:0:0:0:
329,192,179298,1,0,0:0:0:0:
109,192,179298,1,0,0:0:0:0:
402,192,179298,1,0,0:0:0:0:
182,192,179384,1,0,0:0:0:0:
256,192,179384,1,0,0:0:0:0:
329,192,179384,1,0,0:0:0:0:
109,192,179384,1,0,0:0:0:0:
402,192,179384,1,0,0:0:0:0:
182,192,179471,1,0,0:0:0:0:
256,192,179471,1,0,0:0:0:0:
329,192,179471,1,0,0:0:0:0:
109,192,179471,1,0,0:0:0:0:
402,192,179471,1,0,0:0:0:0:
36,192,179557,128,0,179902:0:0:0:0:
256,192,179557,128,0,179600:0:0:0:0:
109,192,179557,128,0,179600:0:0:0:0:
329,192,179557,128,0,179600:0:0:0:0:
402,192,179557,128,0,179600:0:0:0:0:
182,192,179643,1,0,0:0:0:0:
475,192,179643,1,0,0:0:0:0:
402,192,179729,1,0,0:0:0:0:
109,192,179729,1,0,0:0:0:0:
182,192,179815,1,0,0:0:0:0:
329,192,179815,1,0,0:0:0:0:
402,192,179902,128,0,180419:0:0:0:0:
109,192,179902,1,0,0:0:0:0:
256,192,179902,1,0,0:0:0:0:
475,192,179902,1,0,0:0:0:0:
182,192,179988,1,0,0:0:0:0:
329,192,179988,1,0,0:0:0:0:
36,192,180074,1,0,0:0:0:0:
475,192,180074,1,0,0:0:0:0:
329,192,180160,1,0,0:0:0:0:
109,192,180160,1,0,0:0:0:0:
36,192,180247,1,0,0:0:0:0:
182,192,180247,1,0,0:0:0:0:
256,192,180247,1,0,0:0:0:0:
109,192,180333,1,0,0:0:0:0:
475,192,180333,1,0,0:0:0:0:
329,192,180419,128,0,180936:0:0:0:0:
182,192,180419,1,0,0:0:0:0:
36,192,180419,1,0,0:0:0:0:
109,192,180505,1,0,0:0:0:0:
475,192,180505,1,0,0:0:0:0:
182,192,180591,1,0,0:0:0:0:
256,192,180591,1,0,0:0:0:0:
402,192,180591,1,0,0:0:0:0:
36,192,180678,1,0,0:0:0:0:
475,192,180678,1,0,0:0:0:0:
109,192,180764,1,0,0:0:0:0:
182,192,180764,1,0,0:0:0:0:
402,192,180850,1,0,0:0:0:0:
475,192,180850,1,0,0:0:0:0:
109,192,180936,128,0,181453:0:0:0:0:
36,192,180936,1,0,0:0:0:0:
182,192,180936,1,0,0:0:0:0:
256,192,180936,1,0,0:0:0:0:
402,192,181022,1,0,0:0:0:0:
475,192,181022,1,0,0:0:0:0:
329,192,181109,1,0,0:0:0:0:
182,192,181109,1,0,0:0:0:0:
36,192,181195,1,0,0:0:0:0:
402,192,181195,1,0,0:0:0:0:
182,192,181281,1,0,0:0:0:0:
256,192,181281,1,0,0:0:0:0:
329,192,181281,1,0,0:0:0:0:
402,192,181367,1,0,0:0:0:0:
36,192,181367,1,0,0:0:0:0:
329,192,181453,128,0,181971:0:0:0:0:
475,192,181453,1,0,0:0:0:0:
182,192,181453,1,0,0:0:0:0:
402,192,181540,1,0,0:0:0:0:
36,192,181540,1,0,0:0:0:0:
182,192,181626,1,0,0:0:0:0:
256,192,181626,1,0,0:0:0:0:
475,192,181626,1,0,0:0:0:0:
109,192,181712,1,0,0:0:0:0:
402,192,181712,1,0,0:0:0:0:
36,192,181798,1,0,0:0:0:0:
182,192,181798,1,0,0:0:0:0:
109,192,181884,1,0,0:0:0:0:
475,192,181884,1,0,0:0:0:0:
402,192,181971,128,0,182315:0:0:0:0:
36,192,181971,1,0,0:0:0:0:
182,192,181971,1,0,0:0:0:0:
256,192,181971,1,0,0:0:0:0:
109,192,182057,1,0,0:0:0:0:
475,192,182057,1,0,0:0:0:0:
36,192,182143,1,0,0:0:0:0:
329,192,182143,1,0,0:0:0:0:
109,192,182229,1,0,0:0:0:0:
182,192,182229,1,0,0:0:0:0:
36,192,182315,128,0,182660:0:0:0:0:
256,192,182315,128,0,182359:0:0:0:0:
329,192,182315,128,0,182359:0:0:0:0:
475,192,182315,128,0,182359:0:0:0:0:
182,192,182402,1,0,0:0:0:0:
402,192,182402,1,0,0:0:0:0:
109,192,182488,1,0,0:0:0:0:
329,192,182488,1,0,0:0:0:0:
475,192,182574,1,0,0:0:0:0:
182,192,182574,1,0,0:0:0:0:
329,192,182660,128,0,183178:0:0:0:0:
109,192,182660,1,0,0:0:0:0:
256,192,182660,1,0,0:0:0:0:
402,192,182660,1,0,0:0:0:0:
182,192,182746,1,0,0:0:0:0:
475,192,182746,1,0,0:0:0:0:
36,192,182833,1,0,0:0:0:0:
402,192,182833,1,0,0:0:0:0:
109,192,182919,1,0,0:0:0:0:
475,192,182919,1,0,0:0:0:0:
36,192,183005,1,0,0:0:0:0:
182,192,183005,1,0,0:0:0:0:
256,192,183005,1,0,0:0:0:0:
109,192,183091,1,0,0:0:0:0:
402,192,183091,1,0,0:0:0:0:
182,192,183178,128,0,183695:0:0:0:0:
36,192,183178,1,0,0:0:0:0:
475,192,183178,1,0,0:0:0:0:
402,192,183264,1,0,0:0:0:0:
109,192,183264,1,0,0:0:0:0:
256,192,183350,1,0,0:0:0:0:
329,192,183350,1,0,0:0:0:0:
475,192,183350,1,0,0:0:0:0:
402,192,183436,1,0,0:0:0:0:
109,192,183436,1,0,0:0:0:0:
36,192,183522,1,0,0:0:0:0:
329,192,183522,1,0,0:0:0:0:
402,192,183609,1,0,0:0:0:0:
109,192,183609,1,0,0:0:0:0:
475,192,183695,128,0,184212:0:0:0:0:
36,192,183695,1,0,0:0:0:0:
256,192,183695,1,0,0:0:0:0:
329,192,183695,1,0,0:0:0:0:
109,192,183781,1,0,0:0:0:0:
402,192,183781,1,0,0:0:0:0:
182,192,183867,1,0,0:0:0:0:
36,192,183867,1,0,0:0:0:0:
109,192,183953,1,0,0:0:0:0:
329,192,183953,1,0,0:0:0:0:
182,192,184040,1,0,0:0:0:0:
256,192,184040,1,0,0:0:0:0:
402,192,184040,1,0,0:0:0:0:
109,192,184126,1,0,0:0:0:0:
36,192,184126,1,0,0:0:0:0:
329,192,184212,128,0,184729:0:0:0:0:
182,192,184212,1,0,0:0:0:0:
402,192,184212,1,0,0:0:0:0:
109,192,184298,1,0,0:0:0:0:
36,192,184298,1,0,0:0:0:0:
182,192,184384,1,0,0:0:0:0:
256,192,184384,1,0,0:0:0:0:
475,192,184384,1,0,0:0:0:0:
402,192,184471,1,0,0:0:0:0:
109,192,184471,1,0,0:0:0:0:
36,192,184557,1,0,0:0:0:0:
182,192,184557,1,0,0:0:0:0:
402,192,184643,1,0,0:0:0:0:
109,192,184643,1,0,0:0:0:0:
182,192,184729,128,0,185074:0:0:0:0:
36,192,184729,1,0,0:0:0:0:
256,192,184729,1,0,0:0:0:0:
475,192,184729,1,0,0:0:0:0:
402,192,184815,1,0,0:0:0:0:
109,192,184815,1,0,0:0:0:0:
36,192,184902,1,0,0:0:0:0:
329,192,184902,1,0,0:0:0:0:
475,192,184988,1,0,0:0:0:0:
109,192,184988,1,0,0:0:0:0:
36,192,185074,128,0,185419:0:0:0:0:
256,192,185074,128,0,185117:0:0:0:0:
329,192,185074,128,0,185117:0:0:0:0:
402,192,185074,128,0,185117:0:0:0:0:
109,192,185160,1,0,0:0:0:0:
475,192,185160,1,0,0:0:0:0:
182,192,185246,1,0,0:0:0:0:
329,192,185246,1,0,0:0:0:0:
402,192,185333,1,0,0:0:0:0:
109,192,185333,1,0,0:0:0:0:
475,192,185419,128,0,185936:0:0:0:0:
182,192,185419,1,0,0:0:0:0:
256,192,185419,1,0,0:0:0:0:
329,192,185419,1,0,0:0:0:0:
402,192,185505,1,0,0:0:0:0:
109,192,185505,1,0,0:0:0:0:
182,192,185591,1,0,0:0:0:0:
36,192,185591,1,0,0:0:0:0:
329,192,185678,1,0,0:0:0:0:
402,192,185678,1,0,0:0:0:0:
109,192,185764,1,0,0:0:0:0:
182,192,185764,1,0,0:0:0:0:
256,192,185764,1,0,0:0:0:0:
36,192,185850,1,0,0:0:0:0:
402,192,185850,1,0,0:0:0:0:
329,192,185936,128,0,186453:0:0:0:0:
182,192,185936,1,0,0:0:0:0:
109,192,185936,1,0,0:0:0:0:
36,192,186022,1,0,0:0:0:0:
402,192,186022,1,0,0:0:0:0:
182,192,186109,1,0,0:0:0:0:
256,192,186109,1,0,0:0:0:0:
475,192,186109,1,0,0:0:0:0:
402,192,186195,1,0,0:0:0:0:
109,192,186195,1,0,0:0:0:0:
36,192,186281,1,0,0:0:0:0:
182,192,186281,1,0,0:0:0:0:
109,192,186367,1,0,0:0:0:0:
402,192,186367,1,0,0:0:0:0:
182,192,186453,128,0,186971:0:0:0:0:
36,192,186453,1,0,0:0:0:0:
256,192,186453,1,0,0:0:0:0:
475,192,186453,1,0,0:0:0:0:
402,192,186540,1,0,0:0:0:0:
109,192,186540,1,0,0:0:0:0:
329,192,186626,1,0,0:0:0:0:
475,192,186626,1,0,0:0:0:0:
109,192,186712,1,0,0:0:0:0:
36,192,186712,1,0,0:0:0:0:
256,192,186798,1,0,0:0:0:0:
329,192,186798,1,0,0:0:0:0:
475,192,186798,1,0,0:0:0:0:
402,192,186884,1,0,0:0:0:0:
109,192,186884,1,0,0:0:0:0:
329,192,186971,128,0,187488:0:0:0:0:
36,192,186971,1,0,0:0:0:0:
475,192,186971,1,0,0:0:0:0:
109,192,187057,1,0,0:0:0:0:
402,192,187057,1,0,0:0:0:0:
36,192,187143,1,0,0:0:0:0:
182,192,187143,1,0,0:0:0:0:
256,192,187143,1,0,0:0:0:0:
109,192,187229,1,0,0:0:0:0:
475,192,187229,1,0,0:0:0:0:
402,192,187315,1,0,0:0:0:0:
36,192,187315,1,0,0:0:0:0:
109,192,187402,1,0,0:0:0:0:
475,192,187402,1,0,0:0:0:0:
182,192,187488,128,0,187833:0:0:0:0:
36,192,187488,1,0,0:0:0:0:
256,192,187488,1,0,0:0:0:0:
402,192,187488,1,0,0:0:0:0:
109,192,187574,1,0,0:0:0:0:
475,192,187574,1,0,0:0:0:0:
402,192,187660,1,0,0:0:0:0:
329,192,187660,1,0,0:0:0:0:
109,192,187746,1,0,0:0:0:0:
475,192,187746,1,0,0:0:0:0:
36,192,187833,128,0,188178:0:0:0:0:
256,192,187833,128,0,187876:0:0:0:0:
329,192,187833,128,0,187876:0:0:0:0:
402,192,187833,128,0,187876:0:0:0:0:
182,192,187919,1,0,0:0:0:0:
475,192,187919,1,0,0:0:0:0:
402,192,188005,1,0,0:0:0:0:
109,192,188005,1,0,0:0:0:0:
182,192,188091,1,0,0:0:0:0:
329,192,188091,1,0,0:0:0:0:
475,192,188178,128,0,188695:0:0:0:0:
109,192,188178,1,0,0:0:0:0:
256,192,188178,1,0,0:0:0:0:
402,192,188178,1,0,0:0:0:0:
182,192,188264,1,0,0:0:0:0:
329,192,188264,1,0,0:0:0:0:
109,192,188350,1,0,0:0:0:0:
36,192,188350,1,0,0:0:0:0:
182,192,188436,1,0,0:0:0:0:
329,192,188436,1,0,0:0:0:0:
109,192,188522,1,0,0:0:0:0:
256,192,188522,1,0,0:0:0:0:
402,192,188522,1,0,0:0:0:0:
329,192,188609,1,0,0:0:0:0:
36,192,188609,1,0,0:0:0:0:
402,192,188695,128,0,189212:0:0:0:0:
182,192,188695,1,0,0:0:0:0:
109,192,188695,1,0,0:0:0:0:
329,192,188781,1,0,0:0:0:0:
475,192,188781,1,0,0:0:0:0:
36,192,188867,1,0,0:0:0:0:
182,192,188867,1,0,0:0:0:0:
256,192,188867,1,0,0:0:0:0:
109,192,188953,1,0,0:0:0:0:
475,192,188953,1,0,0:0:0:0:
182,192,189040,1,0,0:0:0:0:
329,192,189040,1,0,0:0:0:0:
329,192,189212,128,0,189729:0:0:0:0:
256,192,189212,1,0,0:0:0:0:
109,192,189298,1,0,0:0:0:0:
36,192,189298,1,0,0:0:0:0:
402,192,189299,1,0,0:0:0:0:
182,192,189299,1,0,0:0:0:0:
475,192,189299,1,0,0:0:0:0:
109,192,189384,1,0,0:0:0:0:
36,192,189384,1,0,0:0:0:0:
402,192,189385,1,0,0:0:0:0:
182,192,189385,1,0,0:0:0:0:
475,192,189385,1,0,0:0:0:0:
109,192,189471,1,0,0:0:0:0:
36,192,189471,1,0,0:0:0:0:
402,192,189471,1,0,0:0:0:0:
182,192,189471,1,0,0:0:0:0:
475,192,189471,1,0,0:0:0:0:
109,192,189557,1,0,0:0:0:0:
36,192,189557,1,0,0:0:0:0:
402,192,189557,1,0,0:0:0:0:
182,192,189557,1,0,0:0:0:0:
475,192,189557,1,0,0:0:0:0:
109,192,189643,1,0,0:0:0:0:
36,192,189643,1,0,0:0:0:0:
402,192,189643,1,0,0:0:0:0:
182,192,189643,1,0,0:0:0:0:
475,192,189643,1,0,0:0:0:0:
182,192,189729,128,0,190246:0:0:0:0:
256,192,189729,1,0,0:0:0:0:
36,192,189816,1,0,0:0:0:0:
109,192,189816,1,0,0:0:0:0:
329,192,189816,1,0,0:0:0:0:
402,192,189816,1,0,0:0:0:0:
475,192,189816,1,0,0:0:0:0:
402,192,189902,1,0,0:0:0:0:
329,192,189902,1,0,0:0:0:0:
109,192,189902,1,0,0:0:0:0:
36,192,189902,1,0,0:0:0:0:
475,192,189902,1,0,0:0:0:0:
402,192,189988,1,0,0:0:0:0:
329,192,189988,1,0,0:0:0:0:
109,192,189988,1,0,0:0:0:0:
36,192,189988,1,0,0:0:0:0:
475,192,189988,1,0,0:0:0:0:
402,192,190074,1,0,0:0:0:0:
329,192,190074,1,0,0:0:0:0:
475,192,190075,1,0,0:0:0:0:
109,192,190075,1,0,0:0:0:0:
36,192,190075,1,0,0:0:0:0:
402,192,190160,1,0,0:0:0:0:
329,192,190160,1,0,0:0:0:0:
109,192,190161,1,0,0:0:0:0:
36,192,190161,1,0,0:0:0:0:
475,192,190161,1,0,0:0:0:0:
109,192,190246,128,0,190591:0:0:0:0:
256,192,190247,1,0,0:0:0:0:
475,192,190333,1,0,0:0:0:0:
36,192,190333,1,0,0:0:0:0:
329,192,190333,1,0,0:0:0:0:
402,192,190333,1,0,0:0:0:0:
182,192,190333,1,0,0:0:0:0:
402,192,190419,1,0,0:0:0:0:
475,192,190419,1,0,0:0:0:0:
36,192,190419,1,0,0:0:0:0:
329,192,190419,1,0,0:0:0:0:
182,192,190419,1,0,0:0:0:0:
402,192,190505,1,0,0:0:0:0:
475,192,190505,1,0,0:0:0:0:
36,192,190505,1,0,0:0:0:0:
329,192,190505,1,0,0:0:0:0:
182,192,190505,1,0,0:0:0:0:
256,192,190591,128,0,190634:0:0:0:0:
36,192,190591,128,0,190936:0:0:0:0:
402,192,190592,128,0,190635:0:0:0:0:
475,192,190592,128,0,190635:0:0:0:0:
329,192,190678,1,0,0:0:0:0:
182,192,190678,1,0,0:0:0:0:
402,192,190763,1,0,0:0:0:0:
109,192,190763,1,0,0:0:0:0:
182,192,190849,1,0,0:0:0:0:
329,192,190849,1,0,0:0:0:0:
402,192,190936,128,0,191453:0:0:0:0:
109,192,190936,1,0,0:0:0:0:
256,192,190936,1,0,0:0:0:0:
475,192,190936,1,0,0:0:0:0:
182,192,191022,1,0,0:0:0:0:
329,192,191022,1,0,0:0:0:0:
36,192,191108,1,0,0:0:0:0:
475,192,191108,1,0,0:0:0:0:
329,192,191194,1,0,0:0:0:0:
109,192,191194,1,0,0:0:0:0:
36,192,191281,1,0,0:0:0:0:
182,192,191281,1,0,0:0:0:0:
256,192,191281,1,0,0:0:0:0:
109,192,191367,1,0,0:0:0:0:
475,192,191367,1,0,0:0:0:0:
329,192,191453,128,0,191970:0:0:0:0:
182,192,191453,1,0,0:0:0:0:
36,192,191453,1,0,0:0:0:0:
109,192,191539,1,0,0:0:0:0:
475,192,191539,1,0,0:0:0:0:
182,192,191626,1,0,0:0:0:0:
256,192,191626,1,0,0:0:0:0:
402,192,191626,1,0,0:0:0:0:
36,192,191712,1,0,0:0:0:0:
475,192,191712,1,0,0:0:0:0:
109,192,191798,1,0,0:0:0:0:
182,192,191798,1,0,0:0:0:0:
402,192,191884,1,0,0:0:0:0:
475,192,191884,1,0,0:0:0:0:
109,192,191970,128,0,192487:0:0:0:0:
36,192,191971,1,0,0:0:0:0:
182,192,191971,1,0,0:0:0:0:
256,192,191971,1,0,0:0:0:0:
402,192,192056,1,0,0:0:0:0:
475,192,192056,1,0,0:0:0:0:
329,192,192143,1,0,0:0:0:0:
182,192,192143,1,0,0:0:0:0:
36,192,192229,1,0,0:0:0:0:
402,192,192229,1,0,0:0:0:0:
182,192,192315,1,0,0:0:0:0:
256,192,192315,1,0,0:0:0:0:
329,192,192315,1,0,0:0:0:0:
402,192,192401,1,0,0:0:0:0:
36,192,192401,1,0,0:0:0:0:
329,192,192487,128,0,193005:0:0:0:0:
475,192,192487,1,0,0:0:0:0:
182,192,192487,1,0,0:0:0:0:
402,192,192574,1,0,0:0:0:0:
36,192,192574,1,0,0:0:0:0:
182,192,192660,1,0,0:0:0:0:
256,192,192660,1,0,0:0:0:0:
475,192,192660,1,0,0:0:0:0:
109,192,192746,1,0,0:0:0:0:
402,192,192746,1,0,0:0:0:0:
36,192,192832,1,0,0:0:0:0:
182,192,192832,1,0,0:0:0:0:
109,192,192918,1,0,0:0:0:0:
475,192,192918,1,0,0:0:0:0:
402,192,193005,128,0,193349:0:0:0:0:
36,192,193005,1,0,0:0:0:0:
182,192,193005,1,0,0:0:0:0:
256,192,193005,1,0,0:0:0:0:
109,192,193091,1,0,0:0:0:0:
475,192,193091,1,0,0:0:0:0:
36,192,193177,1,0,0:0:0:0:
329,192,193177,1,0,0:0:0:0:
109,192,193263,1,0,0:0:0:0:
182,192,193263,1,0,0:0:0:0:
36,192,193349,128,0,193694:0:0:0:0:
256,192,193349,128,0,193393:0:0:0:0:
329,192,193349,128,0,193393:0:0:0:0:
475,192,193349,128,0,193393:0:0:0:0:
182,192,193436,1,0,0:0:0:0:
402,192,193436,1,0,0:0:0:0:
109,192,193522,1,0,0:0:0:0:
329,192,193522,1,0,0:0:0:0:
475,192,193608,1,0,0:0:0:0:
182,192,193608,1,0,0:0:0:0:
329,192,193694,128,0,194212:0:0:0:0:
109,192,193695,1,0,0:0:0:0:
256,192,193695,1,0,0:0:0:0:
402,192,193695,1,0,0:0:0:0:
182,192,193780,1,0,0:0:0:0:
475,192,193780,1,0,0:0:0:0:
36,192,193867,1,0,0:0:0:0:
402,192,193867,1,0,0:0:0:0:
109,192,193953,1,0,0:0:0:0:
475,192,193953,1,0,0:0:0:0:
36,192,194040,1,0,0:0:0:0:
182,192,194040,1,0,0:0:0:0:
256,192,194040,1,0,0:0:0:0:
109,192,194125,1,0,0:0:0:0:
402,192,194125,1,0,0:0:0:0:
182,192,194212,128,0,194729:0:0:0:0:
36,192,194212,1,0,0:0:0:0:
475,192,194212,1,0,0:0:0:0:
402,192,194298,1,0,0:0:0:0:
109,192,194298,1,0,0:0:0:0:
256,192,194384,1,0,0:0:0:0:
329,192,194384,1,0,0:0:0:0:
475,192,194384,1,0,0:0:0:0:
402,192,194470,1,0,0:0:0:0:
109,192,194470,1,0,0:0:0:0:
36,192,194556,1,0,0:0:0:0:
329,192,194556,1,0,0:0:0:0:
402,192,194643,1,0,0:0:0:0:
109,192,194643,1,0,0:0:0:0:
475,192,194729,128,0,195246:0:0:0:0:
256,192,194729,1,0,0:0:0:0:
329,192,194729,1,0,0:0:0:0:
36,192,194729,1,0,0:0:0:0:
109,192,194815,1,0,0:0:0:0:
402,192,194815,1,0,0:0:0:0:
182,192,194901,1,0,0:0:0:0:
36,192,194901,1,0,0:0:0:0:
109,192,194987,1,0,0:0:0:0:
329,192,194987,1,0,0:0:0:0:
182,192,195074,1,0,0:0:0:0:
256,192,195074,1,0,0:0:0:0:
402,192,195074,1,0,0:0:0:0:
109,192,195160,1,0,0:0:0:0:
36,192,195160,1,0,0:0:0:0:
329,192,195246,128,0,195763:0:0:0:0:
182,192,195246,1,0,0:0:0:0:
402,192,195246,1,0,0:0:0:0:
109,192,195332,1,0,0:0:0:0:
36,192,195332,1,0,0:0:0:0:
182,192,195419,1,0,0:0:0:0:
256,192,195419,1,0,0:0:0:0:
475,192,195419,1,0,0:0:0:0:
402,192,195505,1,0,0:0:0:0:
109,192,195505,1,0,0:0:0:0:
36,192,195591,1,0,0:0:0:0:
182,192,195591,1,0,0:0:0:0:
402,192,195677,1,0,0:0:0:0:
109,192,195677,1,0,0:0:0:0:
182,192,195763,128,0,196108:0:0:0:0:
36,192,195764,1,0,0:0:0:0:
256,192,195764,1,0,0:0:0:0:
475,192,195764,1,0,0:0:0:0:
402,192,195849,1,0,0:0:0:0:
109,192,195849,1,0,0:0:0:0:
36,192,195936,1,0,0:0:0:0:
329,192,195936,1,0,0:0:0:0:
475,192,196022,1,0,0:0:0:0:
109,192,196022,1,0,0:0:0:0:
36,192,196108,128,0,196453:0:0:0:0:
256,192,196108,128,0,196151:0:0:0:0:
329,192,196108,128,0,196151:0:0:0:0:
402,192,196108,128,0,196151:0:0:0:0:
109,192,196194,1,0,0:0:0:0:
475,192,196194,1,0,0:0:0:0:
182,192,196280,1,0,0:0:0:0:
329,192,196280,1,0,0:0:0:0:
402,192,196367,1,0,0:0:0:0:
109,192,196367,1,0,0:0:0:0:
475,192,196453,128,0,196970:0:0:0:0:
182,192,196453,1,0,0:0:0:0:
256,192,196453,1,0,0:0:0:0:
329,192,196453,1,0,0:0:0:0:
402,192,196539,1,0,0:0:0:0:
109,192,196539,1,0,0:0:0:0:
182,192,196625,1,0,0:0:0:0:
36,192,196625,1,0,0:0:0:0:
329,192,196712,1,0,0:0:0:0:
402,192,196712,1,0,0:0:0:0:
109,192,196798,1,0,0:0:0:0:
182,192,196798,1,0,0:0:0:0:
256,192,196798,1,0,0:0:0:0:
36,192,196884,1,0,0:0:0:0:
402,192,196884,1,0,0:0:0:0:
329,192,196970,128,0,197487:0:0:0:0:
182,192,196970,1,0,0:0:0:0:
109,192,196970,1,0,0:0:0:0:
36,192,197056,1,0,0:0:0:0:
402,192,197056,1,0,0:0:0:0:
182,192,197143,1,0,0:0:0:0:
475,192,197143,1,0,0:0:0:0:
256,192,197143,1,0,0:0:0:0:
402,192,197229,1,0,0:0:0:0:
109,192,197229,1,0,0:0:0:0:
36,192,197315,1,0,0:0:0:0:
182,192,197315,1,0,0:0:0:0:
109,192,197401,1,0,0:0:0:0:
402,192,197401,1,0,0:0:0:0:
182,192,197487,128,0,198005:0:0:0:0:
256,192,197488,1,0,0:0:0:0:
475,192,197488,1,0,0:0:0:0:
36,192,197488,1,0,0:0:0:0:
402,192,197574,1,0,0:0:0:0:
109,192,197574,1,0,0:0:0:0:
329,192,197660,1,0,0:0:0:0:
475,192,197660,1,0,0:0:0:0:
109,192,197746,1,0,0:0:0:0:
36,192,197746,1,0,0:0:0:0:
256,192,197833,1,0,0:0:0:0:
329,192,197833,1,0,0:0:0:0:
475,192,197833,1,0,0:0:0:0:
402,192,197918,1,0,0:0:0:0:
109,192,197918,1,0,0:0:0:0:
329,192,198005,128,0,198522:0:0:0:0:
36,192,198005,1,0,0:0:0:0:
475,192,198005,1,0,0:0:0:0:
109,192,198091,1,0,0:0:0:0:
402,192,198091,1,0,0:0:0:0:
36,192,198178,1,0,0:0:0:0:
182,192,198178,1,0,0:0:0:0:
256,192,198178,1,0,0:0:0:0:
109,192,198263,1,0,0:0:0:0:
475,192,198263,1,0,0:0:0:0:
402,192,198349,1,0,0:0:0:0:
36,192,198349,1,0,0:0:0:0:
109,192,198436,1,0,0:0:0:0:
475,192,198436,1,0,0:0:0:0:
182,192,198522,128,0,198867:0:0:0:0:
36,192,198522,1,0,0:0:0:0:
256,192,198522,1,0,0:0:0:0:
402,192,198522,1,0,0:0:0:0:
109,192,198608,1,0,0:0:0:0:
475,192,198608,1,0,0:0:0:0:
402,192,198694,1,0,0:0:0:0:
329,192,198694,1,0,0:0:0:0:
109,192,198780,1,0,0:0:0:0:
475,192,198780,1,0,0:0:0:0:
36,192,198867,128,0,199212:0:0:0:0:
256,192,198867,128,0,198910:0:0:0:0:
329,192,198867,128,0,198910:0:0:0:0:
402,192,198867,128,0,198910:0:0:0:0:
182,192,198953,1,0,0:0:0:0:
475,192,198953,1,0,0:0:0:0:
402,192,199039,1,0,0:0:0:0:
109,192,199039,1,0,0:0:0:0:
182,192,199125,1,0,0:0:0:0:
329,192,199125,1,0,0:0:0:0:
475,192,199212,128,0,199729:0:0:0:0:
109,192,199212,1,0,0:0:0:0:
256,192,199212,1,0,0:0:0:0:
402,192,199212,1,0,0:0:0:0:
182,192,199298,1,0,0:0:0:0:
329,192,199298,1,0,0:0:0:0:
109,192,199384,1,0,0:0:0:0:
36,192,199384,1,0,0:0:0:0:
182,192,199470,1,0,0:0:0:0:
329,192,199470,1,0,0:0:0:0:
109,192,199557,1,0,0:0:0:0:
256,192,199557,1,0,0:0:0:0:
402,192,199557,1,0,0:0:0:0:
329,192,199643,1,0,0:0:0:0:
36,192,199643,1,0,0:0:0:0:
402,192,199729,128,0,200246:0:0:0:0:
182,192,199729,1,0,0:0:0:0:
109,192,199729,1,0,0:0:0:0:
329,192,199815,1,0,0:0:0:0:
475,192,199815,1,0,0:0:0:0:
36,192,199902,1,0,0:0:0:0:
182,192,199902,1,0,0:0:0:0:
256,192,199902,1,0,0:0:0:0:
109,192,199987,1,0,0:0:0:0:
475,192,199987,1,0,0:0:0:0:
329,192,200074,1,0,0:0:0:0:
36,192,200075,1,0,0:0:0:0:
329,192,200246,128,0,200763:0:0:0:0:
109,192,200247,1,0,0:0:0:0:
182,192,200247,1,0,0:0:0:0:
256,192,200247,1,0,0:0:0:0:
475,192,200247,1,0,0:0:0:0:
109,192,200333,1,0,0:0:0:0:
182,192,200333,1,0,0:0:0:0:
475,192,200333,1,0,0:0:0:0:
36,192,200418,1,0,0:0:0:0:
182,192,200419,1,0,0:0:0:0:
402,192,200419,1,0,0:0:0:0:
475,192,200419,1,0,0:0:0:0:
109,192,200419,1,0,0:0:0:0:
109,192,200505,1,0,0:0:0:0:
36,192,200505,1,0,0:0:0:0:
182,192,200506,1,0,0:0:0:0:
402,192,200506,1,0,0:0:0:0:
475,192,200506,1,0,0:0:0:0:
109,192,200591,1,0,0:0:0:0:
36,192,200591,1,0,0:0:0:0:
182,192,200592,1,0,0:0:0:0:
402,192,200592,1,0,0:0:0:0:
475,192,200592,1,0,0:0:0:0:
109,192,200677,1,0,0:0:0:0:
36,192,200677,1,0,0:0:0:0:
182,192,200678,1,0,0:0:0:0:
402,192,200678,1,0,0:0:0:0:
475,192,200678,1,0,0:0:0:0:
182,192,200763,128,0,201280:0:0:0:0:
475,192,200764,1,0,0:0:0:0:
109,192,200764,1,0,0:0:0:0:
256,192,200764,1,0,0:0:0:0:
402,192,200764,1,0,0:0:0:0:
402,192,200850,1,0,0:0:0:0:
109,192,200850,1,0,0:0:0:0:
475,192,200850,1,0,0:0:0:0:
402,192,200936,1,0,0:0:0:0:
109,192,200937,1,0,0:0:0:0:
36,192,200937,1,0,0:0:0:0:
329,192,200937,1,0,0:0:0:0:
475,192,200937,1,0,0:0:0:0:
402,192,201022,1,0,0:0:0:0:
329,192,201022,1,0,0:0:0:0:
109,192,201023,1,0,0:0:0:0:
36,192,201023,1,0,0:0:0:0:
475,192,201023,1,0,0:0:0:0:
329,192,201108,1,0,0:0:0:0:
402,192,201109,1,0,0:0:0:0:
109,192,201109,1,0,0:0:0:0:
36,192,201109,1,0,0:0:0:0:
475,192,201109,1,0,0:0:0:0:
402,192,201195,1,0,0:0:0:0:
329,192,201195,1,0,0:0:0:0:
109,192,201195,1,0,0:0:0:0:
36,192,201195,1,0,0:0:0:0:
475,192,201195,1,0,0:0:0:0:
109,192,201280,128,0,201625:0:0:0:0:
256,192,201281,1,0,0:0:0:0:
329,192,201367,1,0,0:0:0:0:
402,192,201367,1,0,0:0:0:0:
182,192,201367,1,0,0:0:0:0:
475,192,201368,1,0,0:0:0:0:
36,192,201368,1,0,0:0:0:0:
402,192,201453,1,0,0:0:0:0:
329,192,201453,1,0,0:0:0:0:
182,192,201453,1,0,0:0:0:0:
36,192,201454,1,0,0:0:0:0:
475,192,201454,1,0,0:0:0:0:
402,192,201539,1,0,0:0:0:0:
329,192,201539,1,0,0:0:0:0:
182,192,201539,1,0,0:0:0:0:
475,192,201540,1,0,0:0:0:0:
36,192,201540,1,0,0:0:0:0:
256,192,201626,128,0,201669:0:0:0:0:
402,192,201626,128,0,201669:0:0:0:0:
475,192,201626,128,0,201669:0:0:0:0:
36,192,201626,128,0,201971:0:0:0:0:
182,192,201712,1,0,0:0:0:0:
329,192,201712,1,0,0:0:0:0:
109,192,201798,1,0,0:0:0:0:
402,192,201798,1,0,0:0:0:0:
329,192,201884,1,0,0:0:0:0:
182,192,201884,1,0,0:0:0:0:
402,192,201971,128,0,202488:0:0:0:0:
109,192,201971,1,0,0:0:0:0:
256,192,201971,1,0,0:0:0:0:
475,192,201971,1,0,0:0:0:0:
329,192,202057,1,0,0:0:0:0:
182,192,202057,1,0,0:0:0:0:
475,192,202143,1,0,0:0:0:0:
36,192,202143,1,0,0:0:0:0:
109,192,202229,1,0,0:0:0:0:
329,192,202229,1,0,0:0:0:0:
36,192,202315,1,0,0:0:0:0:
182,192,202315,1,0,0:0:0:0:
256,192,202315,1,0,0:0:0:0:
475,192,202402,1,0,0:0:0:0:
109,192,202402,1,0,0:0:0:0:
36,192,202488,1,0,0:0:0:0:
182,192,202488,1,0,0:0:0:0:
329,192,202488,128,0,203005:0:0:0:0:
475,192,202574,1,0,0:0:0:0:
109,192,202574,1,0,0:0:0:0:
182,192,202660,1,0,0:0:0:0:
256,192,202660,1,0,0:0:0:0:
402,192,202660,1,0,0:0:0:0:
475,192,202747,1,0,0:0:0:0:
36,192,202747,1,0,0:0:0:0:
182,192,202833,1,0,0:0:0:0:
109,192,202833,1,0,0:0:0:0:
475,192,202919,1,0,0:0:0:0:
402,192,202919,1,0,0:0:0:0:
109,192,203005,128,0,203522:0:0:0:0:
36,192,203005,1,0,0:0:0:0:
182,192,203005,1,0,0:0:0:0:
256,192,203005,1,0,0:0:0:0:
475,192,203091,1,0,0:0:0:0:
402,192,203091,1,0,0:0:0:0:
182,192,203178,1,0,0:0:0:0:
329,192,203178,1,0,0:0:0:0:
402,192,203264,1,0,0:0:0:0:
36,192,203264,1,0,0:0:0:0:
182,192,203350,1,0,0:0:0:0:
256,192,203350,1,0,0:0:0:0:
329,192,203350,1,0,0:0:0:0:
36,192,203436,1,0,0:0:0:0:
402,192,203436,1,0,0:0:0:0:
182,192,203522,1,0,0:0:0:0:
475,192,203522,1,0,0:0:0:0:
329,192,203522,128,0,204040:0:0:0:0:
36,192,203609,1,0,0:0:0:0:
402,192,203609,1,0,0:0:0:0:
182,192,203695,1,0,0:0:0:0:
256,192,203695,1,0,0:0:0:0:
475,192,203695,1,0,0:0:0:0:
402,192,203781,1,0,0:0:0:0:
109,192,203781,1,0,0:0:0:0:
182,192,203867,1,0,0:0:0:0:
36,192,203867,1,0,0:0:0:0:
475,192,203953,1,0,0:0:0:0:
109,192,203953,1,0,0:0:0:0:
402,192,204040,128,0,204384:0:0:0:0:
182,192,204040,1,0,0:0:0:0:
256,192,204040,1,0,0:0:0:0:
36,192,204040,1,0,0:0:0:0:
475,192,204126,1,0,0:0:0:0:
109,192,204126,1,0,0:0:0:0:
329,192,204212,1,0,0:0:0:0:
36,192,204212,1,0,0:0:0:0:
182,192,204298,1,0,0:0:0:0:
109,192,204298,1,0,0:0:0:0:
329,192,204384,128,0,204428:0:0:0:0:
475,192,204384,128,0,204428:0:0:0:0:
36,192,204384,128,0,204729:0:0:0:0:
256,192,204384,128,0,204428:0:0:0:0:
402,192,204471,1,0,0:0:0:0:
182,192,204471,1,0,0:0:0:0:
329,192,204557,1,0,0:0:0:0:
109,192,204557,1,0,0:0:0:0:
182,192,204643,1,0,0:0:0:0:
475,192,204643,1,0,0:0:0:0:
329,192,204729,128,0,205247:0:0:0:0:
109,192,204729,1,0,0:0:0:0:
256,192,204729,1,0,0:0:0:0:
402,192,204729,1,0,0:0:0:0:
475,192,204815,1,0,0:0:0:0:
182,192,204815,1,0,0:0:0:0:
402,192,204902,1,0,0:0:0:0:
36,192,204902,1,0,0:0:0:0:
475,192,204988,1,0,0:0:0:0:
109,192,204988,1,0,0:0:0:0:
36,192,205074,1,0,0:0:0:0:
182,192,205074,1,0,0:0:0:0:
256,192,205074,1,0,0:0:0:0:
402,192,205160,1,0,0:0:0:0:
109,192,205160,1,0,0:0:0:0:
475,192,205247,1,0,0:0:0:0:
36,192,205247,1,0,0:0:0:0:
182,192,205247,128,0,205764:0:0:0:0:
109,192,205333,1,0,0:0:0:0:
402,192,205333,1,0,0:0:0:0:
256,192,205419,1,0,0:0:0:0:
329,192,205419,1,0,0:0:0:0:
475,192,205419,1,0,0:0:0:0:
109,192,205505,1,0,0:0:0:0:
402,192,205505,1,0,0:0:0:0:
329,192,205591,1,0,0:0:0:0:
36,192,205591,1,0,0:0:0:0:
109,192,205678,1,0,0:0:0:0:
402,192,205678,1,0,0:0:0:0:
475,192,205764,128,0,206281:0:0:0:0:
36,192,205764,1,0,0:0:0:0:
256,192,205764,1,0,0:0:0:0:
329,192,205764,1,0,0:0:0:0:
402,192,205850,1,0,0:0:0:0:
109,192,205850,1,0,0:0:0:0:
36,192,205936,1,0,0:0:0:0:
182,192,205936,1,0,0:0:0:0:
329,192,206022,1,0,0:0:0:0:
109,192,206022,1,0,0:0:0:0:
182,192,206109,1,0,0:0:0:0:
256,192,206109,1,0,0:0:0:0:
402,192,206109,1,0,0:0:0:0:
36,192,206195,1,0,0:0:0:0:
109,192,206195,1,0,0:0:0:0:
402,192,206281,1,0,0:0:0:0:
182,192,206281,1,0,0:0:0:0:
329,192,206281,128,0,206798:0:0:0:0:
36,192,206367,1,0,0:0:0:0:
109,192,206367,1,0,0:0:0:0:
182,192,206453,1,0,0:0:0:0:
256,192,206453,1,0,0:0:0:0:
475,192,206453,1,0,0:0:0:0:
109,192,206540,1,0,0:0:0:0:
402,192,206540,1,0,0:0:0:0:
182,192,206626,1,0,0:0:0:0:
36,192,206626,1,0,0:0:0:0:
109,192,206712,1,0,0:0:0:0:
402,192,206712,1,0,0:0:0:0:
182,192,206798,128,0,207143:0:0:0:0:
475,192,206798,1,0,0:0:0:0:
256,192,206798,1,0,0:0:0:0:
36,192,206798,1,0,0:0:0:0:
109,192,206884,1,0,0:0:0:0:
402,192,206884,1,0,0:0:0:0:
329,192,206971,1,0,0:0:0:0:
36,192,206971,1,0,0:0:0:0:
109,192,207057,1,0,0:0:0:0:
475,192,207057,1,0,0:0:0:0:
329,192,207143,128,0,207186:0:0:0:0:
402,192,207143,128,0,207186:0:0:0:0:
36,192,207143,128,0,207488:0:0:0:0:
256,192,207143,128,0,207186:0:0:0:0:
475,192,207229,1,0,0:0:0:0:
109,192,207229,1,0,0:0:0:0:
329,192,207315,1,0,0:0:0:0:
182,192,207315,1,0,0:0:0:0:
109,192,207402,1,0,0:0:0:0:
402,192,207402,1,0,0:0:0:0:
475,192,207488,128,0,208005:0:0:0:0:
182,192,207488,1,0,0:0:0:0:
256,192,207488,1,0,0:0:0:0:
329,192,207488,1,0,0:0:0:0:
109,192,207574,1,0,0:0:0:0:
402,192,207574,1,0,0:0:0:0:
36,192,207660,1,0,0:0:0:0:
182,192,207660,1,0,0:0:0:0:
402,192,207747,1,0,0:0:0:0:
329,192,207747,1,0,0:0:0:0:
109,192,207833,1,0,0:0:0:0:
182,192,207833,1,0,0:0:0:0:
256,192,207833,1,0,0:0:0:0:
402,192,207919,1,0,0:0:0:0:
36,192,207919,1,0,0:0:0:0:
109,192,208005,1,0,0:0:0:0:
182,192,208005,1,0,0:0:0:0:
329,192,208005,128,0,208522:0:0:0:0:
402,192,208091,1,0,0:0:0:0:
36,192,208091,1,0,0:0:0:0:
182,192,208178,1,0,0:0:0:0:
256,192,208178,1,0,0:0:0:0:
475,192,208178,1,0,0:0:0:0:
109,192,208264,1,0,0:0:0:0:
402,192,208264,1,0,0:0:0:0:
182,192,208350,1,0,0:0:0:0:
36,192,208350,1,0,0:0:0:0:
402,192,208436,1,0,0:0:0:0:
109,192,208436,1,0,0:0:0:0:
182,192,208522,128,0,209040:0:0:0:0:
36,192,208522,1,0,0:0:0:0:
256,192,208522,1,0,0:0:0:0:
475,192,208522,1,0,0:0:0:0:
109,192,208609,1,0,0:0:0:0:
402,192,208609,1,0,0:0:0:0:
475,192,208695,1,0,0:0:0:0:
329,192,208695,1,0,0:0:0:0:
36,192,208781,1,0,0:0:0:0:
109,192,208781,1,0,0:0:0:0:
256,192,208867,1,0,0:0:0:0:
329,192,208867,1,0,0:0:0:0:
475,192,208867,1,0,0:0:0:0:
109,192,208953,1,0,0:0:0:0:
402,192,208953,1,0,0:0:0:0:
475,192,209040,1,0,0:0:0:0:
36,192,209040,1,0,0:0:0:0:
329,192,209040,128,0,209557:0:0:0:0:
402,192,209126,1,0,0:0:0:0:
109,192,209126,1,0,0:0:0:0:
36,192,209212,1,0,0:0:0:0:
182,192,209212,1,0,0:0:0:0:
256,192,209212,1,0,0:0:0:0:
475,192,209298,1,0,0:0:0:0:
109,192,209298,1,0,0:0:0:0:
36,192,209384,1,0,0:0:0:0:
402,192,209384,1,0,0:0:0:0:
475,192,209471,1,0,0:0:0:0:
109,192,209471,1,0,0:0:0:0:
182,192,209557,128,0,209902:0:0:0:0:
36,192,209557,1,0,0:0:0:0:
256,192,209557,1,0,0:0:0:0:
402,192,209557,1,0,0:0:0:0:
475,192,209643,1,0,0:0:0:0:
109,192,209643,1,0,0:0:0:0:
329,192,209729,1,0,0:0:0:0:
402,192,209729,1,0,0:0:0:0:
475,192,209815,1,0,0:0:0:0:
109,192,209815,1,0,0:0:0:0:
329,192,209902,128,0,209945:0:0:0:0:
402,192,209902,128,0,209945:0:0:0:0:
36,192,209902,128,0,210247:0:0:0:0:
256,192,209902,128,0,209945:0:0:0:0:
475,192,209988,1,0,0:0:0:0:
182,192,209988,1,0,0:0:0:0:
109,192,210074,1,0,0:0:0:0:
402,192,210074,1,0,0:0:0:0:
329,192,210160,1,0,0:0:0:0:
182,192,210160,1,0,0:0:0:0:
475,192,210247,128,0,210764:0:0:0:0:
109,192,210247,1,0,0:0:0:0:
256,192,210247,1,0,0:0:0:0:
402,192,210247,1,0,0:0:0:0:
329,192,210333,1,0,0:0:0:0:
182,192,210333,1,0,0:0:0:0:
36,192,210419,1,0,0:0:0:0:
109,192,210419,1,0,0:0:0:0:
329,192,210505,1,0,0:0:0:0:
182,192,210505,1,0,0:0:0:0:
109,192,210591,1,0,0:0:0:0:
256,192,210591,1,0,0:0:0:0:
402,192,210591,1,0,0:0:0:0:
36,192,210678,1,0,0:0:0:0:
329,192,210678,1,0,0:0:0:0:
109,192,210764,1,0,0:0:0:0:
182,192,210764,1,0,0:0:0:0:
402,192,210764,128,0,211281:0:0:0:0:
475,192,210850,1,0,0:0:0:0:
329,192,210850,1,0,0:0:0:0:
36,192,210936,1,0,0:0:0:0:
182,192,210936,1,0,0:0:0:0:
256,192,210936,1,0,0:0:0:0:
475,192,211022,1,0,0:0:0:0:
109,192,211022,1,0,0:0:0:0:
329,192,211109,1,0,0:0:0:0:
182,192,211109,1,0,0:0:0:0:
329,192,211281,128,0,211798:0:0:0:0:
36,192,211281,1,0,0:0:0:0:
109,192,211281,1,0,0:0:0:0:
182,192,211281,1,0,0:0:0:0:
475,192,211281,1,0,0:0:0:0:
256,192,211281,1,0,0:0:0:0:
36,192,211367,1,0,0:0:0:0:
109,192,211367,1,0,0:0:0:0:
182,192,211368,1,0,0:0:0:0:
402,192,211368,1,0,0:0:0:0:
475,192,211368,1,0,0:0:0:0:
36,192,211453,1,0,0:0:0:0:
109,192,211453,1,0,0:0:0:0:
182,192,211454,1,0,0:0:0:0:
402,192,211454,1,0,0:0:0:0:
475,192,211454,1,0,0:0:0:0:
36,192,211540,1,0,0:0:0:0:
109,192,211540,1,0,0:0:0:0:
182,192,211540,1,0,0:0:0:0:
402,192,211540,1,0,0:0:0:0:
475,192,211540,1,0,0:0:0:0:
36,192,211626,1,0,0:0:0:0:
109,192,211626,1,0,0:0:0:0:
182,192,211626,1,0,0:0:0:0:
402,192,211626,1,0,0:0:0:0:
475,192,211626,1,0,0:0:0:0:
36,192,211712,1,0,0:0:0:0:
109,192,211712,1,0,0:0:0:0:
182,192,211712,1,0,0:0:0:0:
402,192,211712,1,0,0:0:0:0:
475,192,211712,1,0,0:0:0:0:
182,192,211798,128,0,212315:0:0:0:0:
36,192,211798,1,0,0:0:0:0:
109,192,211798,1,0,0:0:0:0:
256,192,211798,1,0,0:0:0:0:
402,192,211798,1,0,0:0:0:0:
475,192,211798,1,0,0:0:0:0:
109,192,211885,1,0,0:0:0:0:
36,192,211885,1,0,0:0:0:0:
329,192,211885,1,0,0:0:0:0:
402,192,211885,1,0,0:0:0:0:
475,192,211885,1,0,0:0:0:0:
329,192,211971,1,0,0:0:0:0:
402,192,211971,1,0,0:0:0:0:
475,192,211971,1,0,0:0:0:0:
109,192,211971,1,0,0:0:0:0:
36,192,211971,1,0,0:0:0:0:
329,192,212057,1,0,0:0:0:0:
402,192,212057,1,0,0:0:0:0:
109,192,212057,1,0,0:0:0:0:
36,192,212057,1,0,0:0:0:0:
475,192,212057,1,0,0:0:0:0:
329,192,212143,1,0,0:0:0:0:
402,192,212143,1,0,0:0:0:0:
475,192,212143,1,0,0:0:0:0:
109,192,212143,1,0,0:0:0:0:
36,192,212143,1,0,0:0:0:0:
329,192,212229,1,0,0:0:0:0:
402,192,212229,1,0,0:0:0:0:
475,192,212230,1,0,0:0:0:0:
36,192,212230,1,0,0:0:0:0:
109,192,212230,1,0,0:0:0:0:
109,192,212315,128,0,212660:0:0:0:0:
36,192,212315,1,0,0:0:0:0:
256,192,212315,1,0,0:0:0:0:
329,192,212315,1,0,0:0:0:0:
402,192,212315,1,0,0:0:0:0:
475,192,212315,1,0,0:0:0:0:
402,192,212402,1,0,0:0:0:0:
182,192,212402,1,0,0:0:0:0:
329,192,212402,1,0,0:0:0:0:
475,192,212402,1,0,0:0:0:0:
36,192,212402,1,0,0:0:0:0:
329,192,212488,1,0,0:0:0:0:
182,192,212488,1,0,0:0:0:0:
36,192,212488,1,0,0:0:0:0:
402,192,212488,1,0,0:0:0:0:
475,192,212488,1,0,0:0:0:0:
329,192,212574,1,0,0:0:0:0:
182,192,212574,1,0,0:0:0:0:
36,192,212574,1,0,0:0:0:0:
402,192,212574,1,0,0:0:0:0:
475,192,212574,1,0,0:0:0:0:
402,192,212660,128,0,212703:0:0:0:0:
475,192,212660,128,0,212703:0:0:0:0:
256,192,212660,128,0,212703:0:0:0:0:
36,192,212661,128,0,213006:0:0:0:0:
182,192,212768,1,0,0:0:0:0:
329,192,212768,1,0,0:0:0:0:
402,192,212833,1,0,0:0:0:0:
109,192,212833,1,0,0:0:0:0:
182,192,212919,1,0,0:0:0:0:
329,192,212919,1,0,0:0:0:0:
109,192,213005,1,0,0:0:0:0:
256,192,213005,1,0,0:0:0:0:
475,192,213005,1,0,0:0:0:0:
402,192,213006,128,0,213523:0:0:0:0:
182,192,213092,1,0,0:0:0:0:
329,192,213092,1,0,0:0:0:0:
36,192,213178,1,0,0:0:0:0:
475,192,213178,1,0,0:0:0:0:
329,192,213264,1,0,0:0:0:0:
109,192,213264,1,0,0:0:0:0:
36,192,213350,1,0,0:0:0:0:
182,192,213350,1,0,0:0:0:0:
256,192,213350,1,0,0:0:0:0:
109,192,213437,1,0,0:0:0:0:
475,192,213437,1,0,0:0:0:0:
329,192,213523,128,0,214040:0:0:0:0:
182,192,213523,1,0,0:0:0:0:
36,192,213523,1,0,0:0:0:0:
109,192,213609,1,0,0:0:0:0:
475,192,213609,1,0,0:0:0:0:
182,192,213695,1,0,0:0:0:0:
256,192,213695,1,0,0:0:0:0:
402,192,213695,1,0,0:0:0:0:
36,192,213782,1,0,0:0:0:0:
475,192,213782,1,0,0:0:0:0:
109,192,213868,1,0,0:0:0:0:
182,192,213868,1,0,0:0:0:0:
402,192,213954,1,0,0:0:0:0:
475,192,213954,1,0,0:0:0:0:
109,192,214040,128,0,214557:0:0:0:0:
36,192,214040,1,0,0:0:0:0:
182,192,214040,1,0,0:0:0:0:
256,192,214040,1,0,0:0:0:0:
402,192,214126,1,0,0:0:0:0:
475,192,214126,1,0,0:0:0:0:
329,192,214213,1,0,0:0:0:0:
182,192,214213,1,0,0:0:0:0:
36,192,214299,1,0,0:0:0:0:
402,192,214299,1,0,0:0:0:0:
182,192,214384,1,0,0:0:0:0:
256,192,214384,1,0,0:0:0:0:
329,192,214384,1,0,0:0:0:0:
402,192,214471,1,0,0:0:0:0:
36,192,214471,1,0,0:0:0:0:
329,192,214557,128,0,215075:0:0:0:0:
475,192,214557,1,0,0:0:0:0:
182,192,214557,1,0,0:0:0:0:
402,192,214644,1,0,0:0:0:0:
36,192,214644,1,0,0:0:0:0:
182,192,214729,1,0,0:0:0:0:
475,192,214729,1,0,0:0:0:0:
256,192,214729,1,0,0:0:0:0:
109,192,214816,1,0,0:0:0:0:
402,192,214816,1,0,0:0:0:0:
36,192,214902,1,0,0:0:0:0:
182,192,214902,1,0,0:0:0:0:
109,192,214988,1,0,0:0:0:0:
475,192,214988,1,0,0:0:0:0:
36,192,215074,1,0,0:0:0:0:
182,192,215074,1,0,0:0:0:0:
256,192,215074,1,0,0:0:0:0:
402,192,215075,128,0,215419:0:0:0:0:
109,192,215161,1,0,0:0:0:0:
475,192,215161,1,0,0:0:0:0:
36,192,215247,1,0,0:0:0:0:
329,192,215247,1,0,0:0:0:0:
109,192,215333,1,0,0:0:0:0:
182,192,215333,1,0,0:0:0:0:
36,192,215419,128,0,215764:0:0:0:0:
256,192,215419,128,0,215463:0:0:0:0:
329,192,215419,128,0,215463:0:0:0:0:
475,192,215419,128,0,215463:0:0:0:0:
182,192,215506,1,0,0:0:0:0:
402,192,215506,1,0,0:0:0:0:
109,192,215592,1,0,0:0:0:0:
329,192,215592,1,0,0:0:0:0:
475,192,215678,1,0,0:0:0:0:
182,192,215678,1,0,0:0:0:0:
329,192,215764,128,0,216282:0:0:0:0:
109,192,215764,1,0,0:0:0:0:
256,192,215764,1,0,0:0:0:0:
402,192,215764,1,0,0:0:0:0:
182,192,215850,1,0,0:0:0:0:
475,192,215850,1,0,0:0:0:0:
36,192,215937,1,0,0:0:0:0:
402,192,215937,1,0,0:0:0:0:
109,192,216023,1,0,0:0:0:0:
475,192,216023,1,0,0:0:0:0:
36,192,216109,1,0,0:0:0:0:
182,192,216109,1,0,0:0:0:0:
256,192,216109,1,0,0:0:0:0:
109,192,216195,1,0,0:0:0:0:
402,192,216195,1,0,0:0:0:0:
182,192,216282,128,0,216799:0:0:0:0:
36,192,216282,1,0,0:0:0:0:
475,192,216282,1,0,0:0:0:0:
402,192,216368,1,0,0:0:0:0:
109,192,216368,1,0,0:0:0:0:
256,192,216453,1,0,0:0:0:0:
329,192,216453,1,0,0:0:0:0:
475,192,216453,1,0,0:0:0:0:
402,192,216540,1,0,0:0:0:0:
109,192,216540,1,0,0:0:0:0:
36,192,216626,1,0,0:0:0:0:
329,192,216626,1,0,0:0:0:0:
402,192,216713,1,0,0:0:0:0:
109,192,216713,1,0,0:0:0:0:
36,192,216798,1,0,0:0:0:0:
256,192,216798,1,0,0:0:0:0:
329,192,216798,1,0,0:0:0:0:
475,192,216799,128,0,217316:0:0:0:0:
109,192,216885,1,0,0:0:0:0:
402,192,216885,1,0,0:0:0:0:
182,192,216971,1,0,0:0:0:0:
36,192,216971,1,0,0:0:0:0:
109,192,217057,1,0,0:0:0:0:
329,192,217057,1,0,0:0:0:0:
182,192,217143,1,0,0:0:0:0:
256,192,217143,1,0,0:0:0:0:
402,192,217143,1,0,0:0:0:0:
109,192,217230,1,0,0:0:0:0:
36,192,217230,1,0,0:0:0:0:
329,192,217316,128,0,217833:0:0:0:0:
182,192,217316,1,0,0:0:0:0:
402,192,217316,1,0,0:0:0:0:
109,192,217402,1,0,0:0:0:0:
36,192,217402,1,0,0:0:0:0:
182,192,217488,1,0,0:0:0:0:
256,192,217488,1,0,0:0:0:0:
475,192,217488,1,0,0:0:0:0:
402,192,217575,1,0,0:0:0:0:
109,192,217575,1,0,0:0:0:0:
36,192,217661,1,0,0:0:0:0:
182,192,217661,1,0,0:0:0:0:
402,192,217747,1,0,0:0:0:0:
109,192,217747,1,0,0:0:0:0:
182,192,217833,128,0,218178:0:0:0:0:
36,192,217833,1,0,0:0:0:0:
256,192,217833,1,0,0:0:0:0:
475,192,217833,1,0,0:0:0:0:
402,192,217919,1,0,0:0:0:0:
109,192,217919,1,0,0:0:0:0:
36,192,218006,1,0,0:0:0:0:
329,192,218006,1,0,0:0:0:0:
475,192,218092,1,0,0:0:0:0:
109,192,218092,1,0,0:0:0:0:
36,192,218178,128,0,218523:0:0:0:0:
256,192,218178,128,0,218221:0:0:0:0:
329,192,218178,128,0,218221:0:0:0:0:
402,192,218178,128,0,218221:0:0:0:0:
109,192,218264,1,0,0:0:0:0:
475,192,218264,1,0,0:0:0:0:
182,192,218350,1,0,0:0:0:0:
329,192,218350,1,0,0:0:0:0:
402,192,218437,1,0,0:0:0:0:
109,192,218437,1,0,0:0:0:0:
182,192,218522,1,0,0:0:0:0:
256,192,218522,1,0,0:0:0:0:
329,192,218522,1,0,0:0:0:0:
475,192,218523,128,0,219040:0:0:0:0:
402,192,218609,1,0,0:0:0:0:
109,192,218609,1,0,0:0:0:0:
182,192,218695,1,0,0:0:0:0:
36,192,218695,1,0,0:0:0:0:
329,192,218782,1,0,0:0:0:0:
402,192,218782,1,0,0:0:0:0:
109,192,218867,1,0,0:0:0:0:
182,192,218867,1,0,0:0:0:0:
256,192,218867,1,0,0:0:0:0:
36,192,218954,1,0,0:0:0:0:
402,192,218954,1,0,0:0:0:0:
329,192,219040,128,0,219557:0:0:0:0:
182,192,219040,1,0,0:0:0:0:
109,192,219040,1,0,0:0:0:0:
36,192,219126,1,0,0:0:0:0:
402,192,219126,1,0,0:0:0:0:
182,192,219212,1,0,0:0:0:0:
256,192,219212,1,0,0:0:0:0:
475,192,219212,1,0,0:0:0:0:
402,192,219299,1,0,0:0:0:0:
109,192,219299,1,0,0:0:0:0:
36,192,219385,1,0,0:0:0:0:
182,192,219385,1,0,0:0:0:0:
109,192,219471,1,0,0:0:0:0:
402,192,219471,1,0,0:0:0:0:
182,192,219557,128,0,220075:0:0:0:0:
36,192,219557,1,0,0:0:0:0:
256,192,219557,1,0,0:0:0:0:
475,192,219557,1,0,0:0:0:0:
402,192,219644,1,0,0:0:0:0:
109,192,219644,1,0,0:0:0:0:
329,192,219730,1,0,0:0:0:0:
475,192,219730,1,0,0:0:0:0:
109,192,219816,1,0,0:0:0:0:
36,192,219816,1,0,0:0:0:0:
256,192,219902,1,0,0:0:0:0:
329,192,219902,1,0,0:0:0:0:
475,192,219902,1,0,0:0:0:0:
402,192,219988,1,0,0:0:0:0:
109,192,219988,1,0,0:0:0:0:
329,192,220075,128,0,220592:0:0:0:0:
36,192,220075,1,0,0:0:0:0:
475,192,220075,1,0,0:0:0:0:
109,192,220161,1,0,0:0:0:0:
402,192,220161,1,0,0:0:0:0:
36,192,220247,1,0,0:0:0:0:
182,192,220247,1,0,0:0:0:0:
256,192,220247,1,0,0:0:0:0:
109,192,220333,1,0,0:0:0:0:
475,192,220333,1,0,0:0:0:0:
402,192,220419,1,0,0:0:0:0:
36,192,220419,1,0,0:0:0:0:
109,192,220506,1,0,0:0:0:0:
475,192,220506,1,0,0:0:0:0:
36,192,220591,1,0,0:0:0:0:
256,192,220591,1,0,0:0:0:0:
402,192,220591,1,0,0:0:0:0:
182,192,220592,128,0,220937:0:0:0:0:
109,192,220678,1,0,0:0:0:0:
475,192,220678,1,0,0:0:0:0:
402,192,220764,1,0,0:0:0:0:
329,192,220764,1,0,0:0:0:0:
109,192,220850,1,0,0:0:0:0:
475,192,220850,1,0,0:0:0:0:
36,192,220937,128,0,221282:0:0:0:0:
256,192,220937,128,0,220980:0:0:0:0:
329,192,220937,128,0,220980:0:0:0:0:
402,192,220937,128,0,220980:0:0:0:0:
182,192,221023,1,0,0:0:0:0:
475,192,221023,1,0,0:0:0:0:
402,192,221109,1,0,0:0:0:0:
109,192,221109,1,0,0:0:0:0:
182,192,221195,1,0,0:0:0:0:
329,192,221195,1,0,0:0:0:0:
109,192,221281,1,0,0:0:0:0:
256,192,221281,1,0,0:0:0:0:
402,192,221281,1,0,0:0:0:0:
475,192,221282,128,0,221799:0:0:0:0:
182,192,221368,1,0,0:0:0:0:
329,192,221368,1,0,0:0:0:0:
109,192,221454,1,0,0:0:0:0:
36,192,221454,1,0,0:0:0:0:
182,192,221540,1,0,0:0:0:0:
329,192,221540,1,0,0:0:0:0:
109,192,221626,1,0,0:0:0:0:
256,192,221626,1,0,0:0:0:0:
402,192,221626,1,0,0:0:0:0:
329,192,221713,1,0,0:0:0:0:
36,192,221713,1,0,0:0:0:0:
402,192,221799,128,0,222316:0:0:0:0:
182,192,221799,1,0,0:0:0:0:
109,192,221799,1,0,0:0:0:0:
36,192,221971,1,0,0:0:0:0:
182,192,221971,1,0,0:0:0:0:
256,192,221971,1,0,0:0:0:0:
109,192,221971,1,0,0:0:0:0:
329,192,221971,1,0,0:0:0:0:
475,192,221971,1,0,0:0:0:0:
36,192,222057,1,0,0:0:0:0:
182,192,222057,1,0,0:0:0:0:
256,192,222057,1,0,0:0:0:0:
109,192,222057,1,0,0:0:0:0:
329,192,222057,1,0,0:0:0:0:
475,192,222057,1,0,0:0:0:0:
36,192,222143,1,0,0:0:0:0:
182,192,222143,1,0,0:0:0:0:
256,192,222143,1,0,0:0:0:0:
109,192,222143,1,0,0:0:0:0:
329,192,222143,1,0,0:0:0:0:
475,192,222143,1,0,0:0:0:0:
36,192,222229,1,0,0:0:0:0:
182,192,222229,1,0,0:0:0:0:
256,192,222229,1,0,0:0:0:0:
109,192,222229,1,0,0:0:0:0:
329,192,222229,1,0,0:0:0:0:
475,192,222229,1,0,0:0:0:0:
36,192,222316,128,0,222359:0:0:0:0:
109,192,222316,128,0,222488:0:0:0:0:
182,192,222316,128,0,222488:0:0:0:0:
256,192,222316,128,0,222359:0:0:0:0:
329,192,222316,128,0,222359:0:0:0:0:
475,192,222316,128,0,222359:0:0:0:0:
329,192,222488,128,0,222661:0:0:0:0:
475,192,222488,128,0,222661:0:0:0:0:
402,192,222661,128,0,222833:0:0:0:0:
182,192,222661,128,0,222833:0:0:0:0:
329,192,222833,128,0,223178:0:0:0:0:
36,192,222833,128,0,223178:0:0:0:0:
475,192,223178,128,0,223350:0:0:0:0:
109,192,223178,128,0,223350:0:0:0:0:
402,192,223350,128,0,223523:0:0:0:0:
182,192,223350,1,0,0:0:0:0:
36,192,223408,1,0,0:0:0:0:
182,192,223465,1,0,0:0:0:0:
329,192,223523,128,0,223695:0:0:0:0:
475,192,223523,128,0,223695:0:0:0:0:
36,192,223523,1,0,0:0:0:0:
182,192,223580,1,0,0:0:0:0:
36,192,223638,1,0,0:0:0:0:
109,192,223695,1,0,0:0:0:0:
256,192,223695,1,0,0:0:0:0:
402,192,223695,1,0,0:0:0:0:
36,192,224040,128,0,224471:0:0:0:0:
182,192,224040,128,0,224083:0:0:0:0:
256,192,224040,128,0,224083:0:0:0:0:
329,192,224040,128,0,224083:0:0:0:0:
475,192,224040,128,0,224083:0:0:0:0:
109,192,224040,128,0,224471:0:0:0:0:
402,192,224040,128,0,224471:0:0:0:0:
36,192,224557,128,0,224988:0:0:0:0:
182,192,224557,128,0,224600:0:0:0:0:
256,192,224557,128,0,224600:0:0:0:0:
329,192,224557,128,0,224600:0:0:0:0:
475,192,224557,128,0,224600:0:0:0:0:
109,192,224557,128,0,224988:0:0:0:0:
402,192,224557,128,0,224988:0:0:0:0:
36,192,225075,128,0,229212:0:0:0:0:
182,192,225075,128,0,229212:0:0:0:0:
256,192,225075,128,0,229212:0:0:0:0:
329,192,225075,128,0,229212:0:0:0:0:
475,192,225075,128,0,229212:0:0:0:0:
