osu file format v5

[General]
AudioFilename: Ami Tokito - Sentimental Generation (TV Size).mp3
AudioLeadIn: 0
PreviewTime: 66444
Countdown: 1
SampleSet: Normal
StackLeniency: 0.7
Mode: 0
LetterboxInBreaks: 1
EditorBookmarks: 29367,44156

[Metadata]
Title:Sentimental Generation
Artist:Ami Tokito
Creator:jmaeshawn
Version:Normal
Source:
Tags:

[Difficulty]
HPDrainRate:5
CircleSize:5
OverallDifficulty:5
SliderMultiplier:1.4
SliderTickRate:1

[Events]
//Background and Video events
1,0,"School Rumble Nigakki OP Video (320x240).avi"
//Break Periods
//Storyboard Layer 0 (Background)
//Storyboard Layer 1 (Failing)
//Storyboard Layer 2 (Passing)
//Storyboard Layer 3 (Foreground)
//Storyboard Sound Samples
//Background Colour Transformations
3,100,158,0,0

[TimingPoints]
1480,422.535211267606,4,1,0,100

[HitObjects]
480,192,7395,5,0
352,192,7818,1,0
224,192,8240,1,0
96,192,8663,1,0
96,64,9085,1,0
96,192,9508,1,0
96,320,9930,1,0
224,320,10353,1,0
224,64,11198,5,0
288,64,11409,1,0
336,104,11620,1,0
336,168,11832,1,0
288,208,12043,1,0
224,208,12254,1,0
176,168,12465,1,0
176,72,12782,1,0
472,352,14156,5,0
424,312,14367,1,0
368,272,14578,1,0
320,232,14789,1,0
320,232,14895,1,0
224,232,15212,1,0
224,168,15423,1,0
224,104,15634,1,0
160,104,15845,1,0
96,104,16057,1,0
96,40,16268,1,0
32,40,16480,1,0
32,40,16585,1,0
192,240,17536,5,0
320,240,17958,1,0
192,240,18381,1,0
192,144,18698,1,0
96,144,19015,1,0
96,144,19226,1,0
256,336,20071,1,0
256,272,20282,1,0
256,208,20494,1,0
256,144,20705,1,0
256,80,20916,1,0
160,72,21233,2,0,B|163:368|472:360,1,455
32,64,24719,5,0
96,64,24930,1,0
160,64,25141,1,0
160,128,25353,1,0
160,192,25564,1,0
224,192,25775,1,0
288,192,25987,2,0,B|528:192,1,210
56,192,28099,6,0,B|120:248,5,70
112,304,29367,2,0,B|328:304,1,210
384,304,30212,1,0
80,72,31480,5,0
80,72,31691,1,0
80,72,31902,1,0
176,152,32325,1,0
176,152,32536,1,0
272,72,32958,1,0
272,72,33170,1,0
360,160,33592,1,0
456,160,33909,1,0
456,256,34226,1,0
392,256,34437,1,0
328,256,34649,1,0
328,256,34754,2,0,B|120:256,1,175
152,192,35494,5,0
152,128,35705,1,0
88,128,35916,1,0
24,128,36127,1,0
24,64,36339,1,0
24,64,36444,2,0,B|280:64,1,245
416,344,38240,5,0
416,88,39085,1,0
416,216,39508,1,0
312,136,39930,1,0
216,56,40353,1,0
120,144,40775,1,0
256,192,41198,12,0,42465
256,192,42677,1,0
256,128,42888,1,0
160,128,43205,2,0,B|39:156|37:338|192:368,1,315
419,360,45001,6,0,B|494:323|493:136|412:104,1,280
288,104,46268,1,0
288,232,46691,1,0
288,232,47113,1,0
288,232,47536,1,0
160,232,47958,2,0,B|216:168,3,70
248,136,48803,1,0
312,136,49015,1,0
376,136,49226,1,0
376,200,49437,1,0
376,264,49649,2,0,B|8:24,1,420
32,352,53029,5,0
128,272,53452,1,0
128,144,53874,1,0
192,32,54297,1,0
320,32,54719,1,0
392,136,55142,1,0
392,264,55564,1,0
480,352,55987,1,0
288,192,56832,5,0
224,192,57043,1,0
256,136,57254,1,0
256,72,57466,1,0
192,72,57677,1,0
160,120,57888,1,0
128,168,58099,1,0
128,264,58416,1,0
480,48,59790,5,0
416,48,60001,1,0
352,48,60212,1,0
288,48,60423,1,0
288,48,60529,1,0
192,48,60846,1,0
240,88,61057,1,0
288,128,61268,1,0
344,160,61479,1,0
408,160,61691,1,0
472,160,61902,1,0
472,224,62114,1,0
472,224,62219,1,0
208,88,63170,5,0
208,216,63592,1,0
208,344,64015,1,0
304,344,64332,1,0
304,248,64649,1,0
304,184,64860,1,0
64,96,65705,6,2,B|53:44|136:64,1,70
144,104,66127,6,2,B|155:156|72:136,1,70
104,200,66550,5,0
104,328,66973,1,0
232,328,67395,1,0
360,328,67818,1,0
464,256,68240,1,0
456,128,68663,1,0
328,128,69085,1,0
200,128,69508,1,0
280,368,70353,5,0
240,320,70564,1,0
280,272,70775,1,0
240,224,70987,1,0
280,176,71198,1,0
240,128,71409,1,0
280,80,71620,1,0
376,80,71937,1,0
56,328,73311,5,0
56,264,73522,1,0
120,264,73733,1,0
120,200,73944,1,0
120,200,74050,1,0
120,104,74367,1,0
72,56,74578,2,0,B|8:8,4,70
136,56,75635,1,0
136,56,75740,1,0
376,200,76691,5,0
248,200,77113,1,0
248,72,77536,1,0
248,200,77853,1,0
248,200,78170,1,0
184,200,78381,1,0
256,192,79226,12,0,81339
256,192,81761,2,0,B|128:104,2,140
256,192,83029,1,0
328,104,83451,2,0,B|464:192,2,140
256,192,84719,1,0
256,248,84930,1,0
256,304,85141,1,0
200,288,85353,1,0
144,272,85564,1,0
88,256,85775,1,0
32,240,85987,2,0,B|32:160,3,70
32,112,86832,1,0
72,72,87043,1,0
128,72,87254,1,0
184,72,87465,1,0
256,200,88099,1,0
