osu file format v13

[General]
AudioFilename: southparkTSoTprincesskenny2.mp3
AudioLeadIn: 0
PreviewTime: 23202
Countdown: 0
SampleSet: Normal
StackLeniency: 0.7
Mode: 1
LetterboxInBreaks: 0
WidescreenStoryboard: 1

[Editor]
DistanceSpacing: 1.3
BeatDivisor: 4
GridSize: 32
TimelineZoom: 2.3

[Metadata]
Title:Princess Kenny Theme
TitleUnicode:Princess Kenny Theme
Artist:Ami Kosaka
ArtistUnicode:Ami Kosaka
Creator:Hanjamon
Version:Inner Oni
Source:South Park: The Stick of Truth
Tags:princess lover! primp! Miyuki Hashimoto 橋本 みゆき プリンセスラバー! opening parody girl fake kill zombie A Song of Ass and Fire Trey Parker Jamie Dunlap Boss Battle プリンセス♥ケニー サウスパークRPG: プリンセス ケニー 亜美小坂
BeatmapID:394903
BeatmapSetID:161848

[Difficulty]
HPDrainRate:6
CircleSize:5
OverallDifficulty:6
ApproachRate:5
SliderMultiplier:1.4
SliderTickRate:1

[Events]
//Background and Video events
0,0,"princesskenny.jpg",0,0
//Break Periods
//Storyboard Layer 0 (Background)
//Storyboard Layer 1 (Fail)
//Storyboard Layer 2 (Pass)
//Storyboard Layer 3 (Foreground)
//Storyboard Sound Samples
//Background Colour Transformations
3,100,163,162,255

[TimingPoints]
240,370.37037037037,4,1,0,35,1,0
23943,-100,4,1,0,35,0,1
35794,-100,4,1,0,35,0,0

[HitObjects]
424,56,240,5,8,0:0:0:0:
344,248,610,1,0,0:0:0:0:
344,248,795,1,8,0:0:0:0:
344,248,980,1,8,0:0:0:0:
136,208,1351,1,0,0:0:0:0:
136,208,1721,1,8,0:0:0:0:
232,280,2091,1,0,0:0:0:0:
232,280,2277,1,0,0:0:0:0:
232,280,2462,1,8,0:0:0:0:
260,240,2647,1,0,0:0:0:0:
392,308,2832,1,0,0:0:0:0:
392,308,3017,1,8,0:0:0:0:
392,308,3202,1,4,0:0:0:0:
272,272,3573,1,0,0:0:0:0:
272,272,3758,1,8,0:0:0:0:
272,272,3943,1,8,0:0:0:0:
272,272,4314,1,8,0:0:0:0:
288,252,4499,1,0,0:0:0:0:
272,272,4684,1,8,0:0:0:0:
220,176,5054,1,8,0:0:0:0:
324,168,5147,1,8,0:0:0:0:
324,168,5239,1,0,0:0:0:0:
324,168,5332,1,0,0:0:0:0:
324,168,5425,1,8,0:0:0:0:
324,168,5517,1,8,0:0:0:0:
324,168,5610,1,0,0:0:0:0:
152,244,5702,1,0,0:0:0:0:
324,168,5795,1,8,0:0:0:0:
180,248,5888,1,0,0:0:0:0:
324,168,5980,1,8,0:0:0:0:
180,248,6073,1,0,0:0:0:0:
220,176,6165,1,8,0:0:0:0:
152,244,6536,1,8,0:0:0:0:
152,244,6721,1,0,0:0:0:0:
224,248,6906,1,8,0:0:0:0:
152,244,7091,1,8,0:0:0:0:
224,248,7184,1,0,0:0:0:0:
224,248,7277,1,8,0:0:0:0:
204,200,7462,1,8,0:0:0:0:
300,276,8017,1,0,0:0:0:0:
200,304,8110,1,0,0:0:0:0:
200,304,8202,1,8,0:0:0:0:
200,304,8388,1,0,0:0:0:0:
272,164,8573,1,8,0:0:0:0:
300,232,8665,1,8,0:0:0:0:
272,164,8758,1,0,0:0:0:0:
272,164,8943,1,12,0:0:0:0:
184,260,9314,1,0,0:0:0:0:
184,260,9499,1,8,0:0:0:0:
184,260,9869,1,0,0:0:0:0:
184,260,10054,1,0,0:0:0:0:
184,260,10147,1,0,0:0:0:0:
184,260,10239,1,8,0:0:0:0:
216,192,10425,1,0,0:0:0:0:
176,208,10610,1,12,0:0:0:0:
176,208,10795,1,12,0:0:0:0:
176,208,10980,1,12,0:0:0:0:
272,260,11351,1,0,0:0:0:0:
352,192,11536,1,0,0:0:0:0:
304,228,11721,1,8,0:0:0:0:
304,228,11814,1,0,0:0:0:0:
304,228,11906,1,8,0:0:0:0:
304,228,12091,1,4,0:0:0:0:
244,184,12462,1,8,0:0:0:0:
244,184,12647,1,8,0:0:0:0:
424,280,12739,1,0,0:0:0:0:
244,184,12832,1,0,0:0:0:0:
376,316,13017,1,8,0:0:0:0:
376,316,13202,1,0,0:0:0:0:
376,316,13295,1,0,0:0:0:0:
376,316,13388,1,8,0:0:0:0:
376,316,13480,1,8,0:0:0:0:
376,316,13573,1,0,0:0:0:0:
224,192,13758,1,8,0:0:0:0:
376,316,13943,1,8,0:0:0:0:
388,236,14128,1,8,0:0:0:0:
388,236,14221,1,8,0:0:0:0:
388,236,14314,1,0,0:0:0:0:
388,236,14499,1,0,0:0:0:0:
248,228,14684,1,8,0:0:0:0:
388,236,14869,1,0,0:0:0:0:
360,248,14962,1,0,0:0:0:0:
476,276,15054,1,8,0:0:0:0:
272,280,15425,1,8,0:0:0:0:
236,260,15610,1,8,0:0:0:0:
224,188,15702,1,8,0:0:0:0:
236,260,15795,1,0,0:0:0:0:
328,208,15980,1,0,0:0:0:0:
328,208,16165,1,8,0:0:0:0:
224,188,16258,1,8,0:0:0:0:
328,208,16351,1,0,0:0:0:0:
224,188,16443,1,0,0:0:0:0:
328,208,16536,1,8,0:0:0:0:
328,208,16721,1,0,0:0:0:0:
328,208,16906,1,8,0:0:0:0:
328,208,17091,1,8,0:0:0:0:
304,188,17184,1,0,0:0:0:0:
328,208,17277,1,0,0:0:0:0:
328,208,17369,1,0,0:0:0:0:
328,208,17462,1,8,0:0:0:0:
328,208,17647,1,8,0:0:0:0:
328,208,17832,1,0,0:0:0:0:
360,232,17925,1,0,0:0:0:0:
240,248,18017,1,8,0:0:0:0:
188,248,18388,1,8,0:0:0:0:
116,224,18573,1,0,0:0:0:0:
288,248,18758,1,8,0:0:0:0:
316,316,18851,1,0,0:0:0:0:
288,248,18943,1,0,0:0:0:0:
288,248,19128,1,8,0:0:0:0:
288,248,19314,1,8,0:0:0:0:
316,316,19406,1,8,0:0:0:0:
288,248,19499,1,0,0:0:0:0:
288,248,19684,5,8,0:0:0:0:
288,248,19869,5,0,0:0:0:0:
288,248,20054,5,8,0:0:0:0:
212,208,20147,1,8,0:0:0:0:
288,248,20239,5,0,0:0:0:0:
316,316,20332,1,0,0:0:0:0:
288,248,20425,5,8,0:0:0:0:
288,248,20610,5,8,0:0:0:0:
464,224,20795,5,8,0:0:0:0:
464,224,20888,1,8,0:0:0:0:
280,192,20980,5,0,0:0:0:0:
280,192,21165,1,0,0:0:0:0:
280,192,21258,1,0,0:0:0:0:
280,192,21351,1,8,0:0:0:0:
280,192,21536,1,0,0:0:0:0:
408,240,21721,1,8,0:0:0:0:
408,240,21906,1,0,0:0:0:0:
128,208,21999,1,0,0:0:0:0:
408,240,22091,1,8,0:0:0:0:
408,240,22184,1,8,0:0:0:0:
408,240,22277,1,0,0:0:0:0:
280,192,22462,1,12,0:0:0:0:
280,192,22647,1,12,0:0:0:0:
280,192,22832,1,12,0:0:0:0:
176,180,23202,5,8,0:0:0:0:
320,160,23388,1,0,0:0:0:0:
272,224,23573,1,8,0:0:0:0:
448,224,23758,1,0,0:0:0:0:
224,192,23943,5,12,0:0:0:0:
260,196,24128,1,0,0:0:0:0:
220,192,24314,1,8,0:0:0:0:
220,192,24406,1,8,0:0:0:0:
220,192,24499,1,0,0:0:0:0:
220,192,24684,1,8,0:0:0:0:
220,192,24869,1,8,0:0:0:0:
220,192,24962,1,8,0:0:0:0:
220,192,25054,1,8,0:0:0:0:
220,192,25239,1,0,0:0:0:0:
220,192,25425,1,8,0:0:0:0:
220,228,25517,1,8,0:0:0:0:
192,160,25610,1,0,0:0:0:0:
268,240,25795,1,8,0:0:0:0:
144,172,25980,1,8,0:0:0:0:
220,192,26165,1,8,0:0:0:0:
220,192,26258,1,8,0:0:0:0:
220,192,26351,1,0,0:0:0:0:
220,192,26536,1,8,0:0:0:0:
220,192,26628,1,8,0:0:0:0:
220,192,26721,1,0,0:0:0:0:
220,192,26906,1,8,0:0:0:0:
352,188,27091,1,0,0:0:0:0:
220,192,27277,1,8,0:0:0:0:
256,284,27462,1,8,0:0:0:0:
312,248,27554,1,8,0:0:0:0:
328,208,27647,1,0,0:0:0:0:
244,240,27832,1,8,0:0:0:0:
244,240,27925,1,0,0:0:0:0:
244,240,28017,1,8,0:0:0:0:
244,240,28202,1,4,0:0:0:0:
244,240,28573,1,0,0:0:0:0:
244,240,28758,1,8,0:0:0:0:
244,240,28943,1,0,0:0:0:0:
244,240,29036,1,8,0:0:0:0:
384,292,29128,1,0,0:0:0:0:
284,224,29499,1,8,0:0:0:0:
312,224,29684,1,8,0:0:0:0:
336,188,29777,1,8,0:0:0:0:
336,188,29869,1,0,0:0:0:0:
336,188,30054,1,0,0:0:0:0:
336,188,30239,1,0,0:0:0:0:
336,188,30332,1,0,0:0:0:0:
336,188,30425,1,8,0:0:0:0:
336,188,30610,1,0,0:0:0:0:
336,188,30980,1,8,0:0:0:0:
224,220,31165,1,8,0:0:0:0:
224,220,31258,1,8,0:0:0:0:
128,192,31351,1,0,0:0:0:0:
276,244,31536,1,0,0:0:0:0:
276,244,31721,1,8,0:0:0:0:
276,244,31814,1,0,0:0:0:0:
276,244,31906,1,8,0:0:0:0:
216,160,32091,1,0,0:0:0:0:
312,200,32462,1,0,0:0:0:0:
408,176,32647,1,8,0:0:0:0:
408,176,32739,1,8,0:0:0:0:
408,176,32832,1,0,0:0:0:0:
128,192,32925,1,8,0:0:0:0:
344,200,33017,1,8,0:0:0:0:
384,288,33202,1,0,0:0:0:0:
184,240,33388,1,8,0:0:0:0:
184,240,33480,1,0,0:0:0:0:
240,236,33573,1,8,0:0:0:0:
96,200,33758,1,8,0:0:0:0:
96,200,33943,1,0,0:0:0:0:
96,200,34036,1,0,0:0:0:0:
96,200,34128,1,8,0:0:0:0:
96,200,34221,1,8,0:0:0:0:
96,200,34314,1,0,0:0:0:0:
188,340,34499,1,8,0:0:0:0:
96,288,34684,1,0,0:0:0:0:
220,176,34869,5,8,0:0:0:0:
324,168,34962,1,8,0:0:0:0:
324,168,35054,1,0,0:0:0:0:
324,168,35147,1,0,0:0:0:0:
324,168,35239,1,8,0:0:0:0:
324,168,35332,1,8,0:0:0:0:
324,168,35425,1,0,0:0:0:0:
152,244,35517,1,0,0:0:0:0:
324,168,35610,1,8,0:0:0:0:
180,248,35702,1,0,0:0:0:0:
324,168,35795,1,8,0:0:0:0:
152,244,36165,1,8,0:0:0:0:
152,244,36351,1,8,0:0:0:0:
224,248,36536,1,0,0:0:0:0:
152,244,36721,1,8,0:0:0:0:
204,200,36814,1,8,0:0:0:0:
224,248,36906,1,8,0:0:0:0:
224,248,37091,1,0,0:0:0:0:
272,288,37647,1,8,0:0:0:0:
304,264,37832,1,0,0:0:0:0:
280,200,38017,1,0,0:0:0:0:
280,200,38388,1,0,0:0:0:0:
280,200,38480,1,0,0:0:0:0:
280,200,38573,1,8,0:0:0:0:
272,288,38758,1,8,0:0:0:0:
304,264,38943,1,8,0:0:0:0:
304,264,39128,1,8,0:0:0:0:
304,264,39221,1,8,0:0:0:0:
304,264,39314,1,0,0:0:0:0:
312,236,39499,1,0,0:0:0:0:
304,264,39684,1,0,0:0:0:0:
304,264,39869,1,8,0:0:0:0:
280,240,40054,1,4,0:0:0:0:
468,296,40610,1,8,0:0:0:0:
132,260,40702,1,0,0:0:0:0:
248,236,40795,1,0,0:0:0:0:
280,240,40980,1,0,0:0:0:0:
340,132,41351,1,8,0:0:0:0:
320,116,41536,1,0,0:0:0:0:
320,116,41721,1,8,0:0:0:0:
320,116,41814,1,8,0:0:0:0:
320,116,41906,1,0,0:0:0:0:
320,116,42091,1,8,0:0:0:0:
320,116,42277,1,0,0:0:0:0:
320,116,42369,1,0,0:0:0:0:
320,116,42462,1,8,0:0:0:0:
320,116,42554,1,0,0:0:0:0:
320,116,42647,1,8,0:0:0:0:
320,116,42832,1,8,0:0:0:0:
320,116,43017,1,0,0:0:0:0:
320,116,43202,1,8,0:0:0:0:
320,116,43295,1,8,0:0:0:0:
320,116,43388,1,0,0:0:0:0:
320,116,43573,1,0,0:0:0:0:
320,116,43665,1,0,0:0:0:0:
320,116,43758,1,8,0:0:0:0:
320,116,43851,1,8,0:0:0:0:
320,116,43943,1,0,0:0:0:0:
320,116,44128,1,8,0:0:0:0:
188,228,44314,1,0,0:0:0:0:
188,228,44406,1,0,0:0:0:0:
188,228,44499,1,8,0:0:0:0:
44,152,44684,1,0,0:0:0:0:
236,172,45054,1,8,0:0:0:0:
188,228,45239,1,0,0:0:0:0:
312,180,45332,1,0,0:0:0:0:
236,172,45425,1,8,0:0:0:0:
280,148,45610,1,0,0:0:0:0:
280,148,45795,1,8,0:0:0:0:
280,148,46165,1,8,0:0:0:0:
304,240,46351,1,0,0:0:0:0:
280,148,46536,1,8,0:0:0:0:
280,148,46906,1,0,0:0:0:0:
224,192,47091,1,0,0:0:0:0:
256,168,47277,5,8,0:0:0:0:
304,280,47462,5,4,0:0:0:0:
