osu file format v9

[General]
AudioFilename: 05. Bust Your Windows - Amber Riley.mp3
AudioLeadIn: 0
PreviewTime: -1
Countdown: 1
SampleSet: Normal
StackLeniency: 0.7
Mode: 0
LetterboxInBreaks: 1

[Editor]
DistanceSpacing: 1
BeatDivisor: 3
GridSize: 8

[Metadata]
Title:Bust Your Windows
Artist:Amber Riley ( Glee )
Creator:ivan135
Version:Normal
Source:
Tags:

[Difficulty]
HPDrainRate:6
CircleSize:5
OverallDifficulty:5
ApproachRate:6
SliderMultiplier:0.9
SliderTickRate:1

[Events]
//Background and Video events
0,0,"amberriley_1289153930.jpg"
//Break Periods
//Storyboard Layer 0 (Background)
//Storyboard Layer 1 (Fail)
//Storyboard Layer 2 (Pass)
//Storyboard Layer 3 (Foreground)
//Storyboard Sound Samples
//Background Colour Transformations
3,100,163,162,255

[TimingPoints]
630,545.454545454545,4,1,0,100,1,0

[Colours]
Combo1 : 255,128,0
Combo2 : 255,255,0
Combo3 : 255,0,0
Combo4 : 255,128,255

[HitObjects]
256,192,4993,1,8
256,104,5539,1,8
168,104,6084,1,8
168,192,6629,1,8
168,280,7175,6,8,B|280:280,1,90
168,280,8266,2,8,B|168:184,1,90
168,280,9357,2,8,B|64:280,1,90
48,192,10448,5,8
104,120,10993,2,8,B|176:40,1,90
256,64,12084,1,8
344,64,12629,2,8,B|456:64,1,90
400,152,13720,1,8
336,216,14266,1,8
248,192,14811,1,8
168,224,15357,1,8
248,192,15902,1,8
320,128,16448,1,8
376,192,16993,1,8
384,280,17539,1,8
256,192,18084,12,8,19720
256,184,20266,5,8
248,272,20811,1,8
328,304,21357,1,8
416,288,21902,1,8
440,200,22448,2,8,B|448:160|440:136|416:112,1,90
336,80,23539,5,8
248,88,24084,1,8
176,40,24629,1,8
96,88,25175,1,8
80,176,25720,1,8
160,216,26266,1,8
232,264,26811,2,8,B|248:272|272:256|288:224|320:232,1,90
376,288,27902,2,8,B|440:200,1,90
448,128,28993,5,8
376,72,29539,1,8
312,136,30084,1,8
376,200,30629,1,8
312,272,31175,5,8
248,208,31720,1,8
312,136,32266,1,8
384,208,32811,1,8
424,128,33357,2,8,B|432:96|400:56|368:64,1,90
288,48,34448,2,8,B|176:48,1,90
192,136,35539,2,8,B|176:184|192:208|232:208,1,90
192,136,36629,2,8,B|232:128,3,30
296,88,37720,5,4
416,296,39902,5,8
352,232,40448,1,8
408,168,40993,1,8
400,80,41539,2,8,B|376:48|336:48|304:56,1,90
240,96,42629,6,8,B|216:120|176:112|144:88,1,90
72,64,43720,1,8
40,144,44266,1,8
112,192,44811,1,8
56,264,45357,2,8,B|72:272|120:288|152:280,1,90
224,312,46448,1,8
304,264,46993,5,8
392,256,47539,1,8
440,176,48084,1,8
432,88,48629,1,8
360,40,49175,1,8
272,48,49720,1,8
272,48,49902,1,8
272,48,50084,1,8
272,48,50266,1,8
208,112,50811,5,8
176,200,51357,1,8
224,272,51902,1,8
312,296,52448,1,8
392,256,52993,1,8
392,160,53539,2,2,B|384:120|368:96|336:72|304:72|280:64|232:80|192:80|168:112|152:136|128:160|96:176,1,360
112,264,56266,2,2,B|152:264|176:288|216:296|240:288|256:272|280:256,1,180
328,176,57902,6,8,B|376:80,1,90
448,56,58993,1,8
472,144,59539,1,8
464,232,60084,1,8
392,288,60629,1,8
304,312,61175,1,8
216,296,61720,1,8
136,256,62266,1,8
112,160,62811,1,8
176,96,63357,2,8,B|224:88|256:104|280:72,1,90
352,88,64448,1,8
400,160,64993,1,8
416,248,65539,1,8
352,312,66084,1,8
320,224,66629,1,8
232,208,67175,5,8
152,256,67720,2,8,B|112:280|80:272|64:232,1,90
56,160,68811,1,8
96,80,69357,1,8
176,48,69902,1,8
232,120,70448,5,8
320,88,70993,1,8
408,104,71539,1,8
448,184,72084,2,8,B|392:256,1,90
304,264,73175,1,8
224,304,73720,5,8
168,240,74266,1,8
128,160,74811,1,8
136,72,75357,2,8,B|160:32|192:32|232:48|232:40,1,90
296,72,76448,1,8
384,104,76993,1,8
456,48,77539,1,8
472,136,78084,2,8,B|472:224,1,90
416,296,79175,1,8
344,344,79720,1,8
288,272,80266,2,8,B|240:232|224:232|208:248,1,90
144,304,81357,1,8
80,248,81902,1,8
56,160,82448,1,8
48,72,82993,2,8,B|80:40|112:48|152:40,1,90
224,48,84084,5,8
296,96,84629,1,8
232,160,85175,1,8
160,216,85720,2,8,B|128:248|144:272|176:296,1,90
256,312,86811,1,8
344,296,87357,1,8
424,256,87902,1,8
464,176,88448,1,8
432,88,88993,1,8
344,56,89539,1,8
296,128,90084,2,8,B|256:120|240:96|208:96,1,90
144,40,91175,1,8
88,112,91720,1,8
88,200,92266,1,8
152,264,92811,1,8
72,312,93357,2,8,B|120:344|128:344|160:352,1,90
232,304,94448,2,8,B|288:312|304:328|320:312,1,90
400,280,95539,5,8
424,192,96084,1,8
432,104,96629,1,8
352,56,97175,1,8
264,56,97720,1,8
176,72,98266,2,8,B|80:128,1,90
88,208,99357,1,8
136,288,99902,1,8
224,296,100448,1,8
312,312,100993,1,8
400,320,101539,2,8,B|440:336|456:312|464:256,1,90
472,184,102629,1,8
432,104,103175,5,8
352,56,103720,1,8
264,64,104266,1,8
200,128,104811,1,8
120,88,105357,1,8
56,144,105902,1,8
96,224,106448,1,8
72,312,106993,1,8
160,312,107539,2,8,B|208:320|240:304|272:328,1,90
336,304,108629,1,8
424,272,109175,5,8
464,192,109720,1,8
392,136,110266,1,8
304,152,110811,1,8
256,72,111357,2,8,B|216:32|168:40,1,90
112,104,112448,5,8
64,176,112993,1,8
56,264,113539,1,8
104,344,114084,1,8
192,312,114629,1,8
176,224,115175,1,8
160,136,115720,2,8,B|192:72|240:72,1,90
312,64,116811,1,8
400,88,117357,1,8
448,160,117902,1,8
432,248,118448,1,8
368,312,118993,2,8,B|336:312|320:272|272:280,1,90
192,280,120084,1,8
176,192,120629,1,8
256,152,121175,1,8
312,80,121720,6,8,B|328:56|376:48|408:64,1,90
456,128,122811,1,8
472,216,123357,1,8
400,272,123902,1,8
320,312,124448,1,8
256,248,124993,1,8
168,264,125539,1,8
88,296,126084,2,8,B|48:288|48:248|48:208,1,90
88,144,127175,1,8
176,152,127720,1,8
256,192,128266,5,8
256,192,128811,2,8,B|256:80,1,90
256,192,129902,2,8,B|360:192,1,90
256,192,130993,2,8,B|160:192,1,90
256,192,132084,2,8,B|256:280,1,90
344,296,133175,1,8
416,248,133720,1,8
456,168,134266,5,8
440,80,134811,1,8
352,64,135357,1,8
280,112,135902,1,8
192,88,136448,2,8,B|88:56,1,90
40,120,137539,1,8
40,208,138084,1,8
96,280,138629,1,8
168,328,139175,1,8
248,280,139720,1,8
328,232,140266,1,8
400,280,140811,1,8
448,200,141357,6,8,B|464:144|464:88,1,90
392,64,142448,2,8,B|296:48,1,90
216,56,143539,1,8
136,96,144084,1,8
208,152,144629,1,8
280,200,145175,1,8
224,272,145720,1,8
280,344,146266,1,8
360,304,146811,1,8
440,264,147357,2,8,B|472:224|472:176,1,90
480,88,148448,5,8
400,56,148993,1,8
312,64,149539,1,8
232,96,150084,2,8,B|144:128,1,90
104,48,151175,1,8
40,112,151720,1,8
48,200,152266,1,8
72,288,152811,2,8,B|112:304|144:280|176:296,1,90
248,304,153902,1,8
336,280,154448,5,8
408,232,154993,5,8
448,152,155539,1,8
456,64,156084,1,8
368,56,156629,1,8
280,88,157175,1,8
272,176,157720,1,8
344,232,158266,1,8
432,240,158811,1,8
448,328,159357,1,8
360,312,159902,2,8,B|264:304,1,90
192,264,160993,1,8
120,312,161539,1,8
40,272,162084,1,8
88,192,162629,1,8
88,104,163175,6,8,B|64:56|88:40|120:32,1,90
200,32,164266,1,8
232,112,164811,1,8
312,152,165357,1,8
376,96,165902,1,8
464,112,166448,1,8
472,200,166993,2,8,B|440:224|480:264|432:280,1,90
352,296,168084,1,8
264,296,168629,1,8
192,240,169175,1,8
112,288,169720,5,8
64,216,170266,1,8
40,128,170811,2,8,B|88:32,1,90
168,16,171902,1,8
256,24,172448,1,8
200,96,172993,1,8
152,176,173539,2,8,B|128:216|144:240|112:280,1,90
176,336,174629,5,8
240,272,175175,1,8
328,280,175720,1,8
400,232,176266,1,8
416,144,176811,1,8
360,72,177357,1,8
272,48,177902,2,8,B|200:64|160:48,1,90
104,96,178993,1,8
64,176,179539,1,8
104,256,180084,5,8
184,296,180629,1,8
248,232,181175,1,8
328,272,181720,1,8
392,208,182266,1,8
432,288,182811,1,8
472,208,183357,1,8
480,120,183902,1,8
424,48,184448,2,8,B|368:64|312:48,1,90
248,88,185539,5,8
160,112,186084,1,8
88,160,186629,1,8
80,248,187175,1,8
160,208,187720,1,8
224,144,188266,1,8
312,120,188811,1,8
368,192,189357,1,8
280,192,189902,6,8,B|208:272,1,90
280,192,190993,2,8,B|352:112,1,90
280,192,192084,2,8,B|352:248,1,90
280,192,193175,2,8,B|200:112,1,90
288,72,194266,5,8
200,48,194811,1,8
112,72,195357,1,8
80,152,195902,1,8
80,240,196448,2,8,B|120:320,1,90
208,312,197539,1,8
288,280,198084,1,8
376,304,198629,1,12
368,112,201357,1,8
280,88,201902,1,8
192,88,202448,1,8
136,160,202993,1,8
168,248,203539,1,8
248,288,204084,2,8,B|296:264|344:224,1,90
408,216,205175,2,8,B|464:136,1,90
432,56,206266,1,8
344,48,206811,1,8
264,80,207357,1,8
176,64,207902,1,8
104,120,208448,1,8
88,208,208993,5,8
80,296,209539,1,8
168,272,210084,2,8,B|232:232|272:248,1,90
336,280,211175,1,8
416,232,211720,1,8
432,144,212266,1,8
344,152,212811,1,8
272,200,213357,1,8
240,112,213902,1,8
168,64,214448,1,8
80,88,214993,2,8,B|8:176,1,90
64,240,216084,1,8
128,304,216629,1,8
192,240,217175,1,8
280,272,217720,1,8
368,296,218266,5,8
416,216,218811,2,8,B|384:168|424:144|376:112,1,90
376,40,219902,1,8
288,72,220448,1,8
200,56,220993,1,8
128,112,221539,1,8
72,184,222084,1,8
128,256,222629,1,8
72,328,223175,2,8,B|160:328,1,90
248,312,224266,1,8
336,320,224811,5,8
400,256,225357,1,8
440,176,225902,1,8
440,88,226448,1,8
360,56,226993,1,8
280,96,227539,1,8
216,160,228084,2,8,B|144:248,1,90
80,184,229175,2,8,B|56:72,1,90
120,32,230266,1,8
208,32,230811,5,8
288,64,231357,1,8
344,136,231902,1,8
384,216,232448,1,8
320,280,232993,1,8
264,208,233539,1,8
176,232,234084,1,8
104,288,234629,2,8,B|48:264|40:208,1,90
40,136,235720,1,8
96,64,236266,1,8
184,48,236811,1,8
248,112,237357,1,8
312,48,237902,2,8,B|352:40|384:40|416:64,1,90
456,128,238993,1,8
440,216,239539,5,8
376,280,240084,1,8
288,312,240629,1,8
208,272,241175,2,8,B|144:272|112:296,1,90
72,216,242266,2,8,B|32:136,1,90
88,64,243357,1,8
176,48,243902,1,8
216,128,244448,1,8
288,80,244993,1,8
376,112,245539,2,8,B|472:56,1,90
464,152,246629,2,8,B|448:216|464:232|440:240,1,90
360,256,247720,1,8
280,296,248266,1,8
224,224,248811,5,8
160,160,249357,1,8
208,88,249902,1,8
280,136,250448,1,8
320,216,250993,1,8
240,192,251539,1,8
256,192,252084,12,4,253720
