osu file format v14

[General]
AudioFilename: AppMusic.mp3
AudioLeadIn: 0
PreviewTime: 59500
Countdown: 0
SampleSet: Soft
StackLeniency: 0.7
Mode: 0
LetterboxInBreaks: 0
WidescreenStoryboard: 0

[Editor]
Bookmarks: 5471,22947,32558,51054,59791
DistanceSpacing: 1.1
BeatDivisor: 8
GridSize: 4
TimelineZoom: 1.2

[Metadata]
Title:DiVE!!
TitleUnicode:DiVE!!
Artist:Amatsuki
ArtistUnicode:天月-あまつき-
Creator:SyraxAxoJaxco
Version:Normal
Source:デジモンユニバース アプリモンスターズ
Tags:Dejimon Yunibasu Apuri Monsutazu Digimon Universe Appli Monsters Appmon Shinkai Haru Karan Eri Asuka Torajirou Astra Katsura Rei Yuujin Oozora Gatchmon Dokamon Musimon Hackmon Offmon Onmon Pata-Mon opening
BeatmapID:1308506
BeatmapSetID:620718

[Difficulty]
HPDrainRate:3
CircleSize:3.5
OverallDifficulty:4.5
ApproachRate:5
SliderMultiplier:1
SliderTickRate:1

[Events]
//Background and Video events
Video,-27,"AppVideo.avi"
0,0,"AppBackground.jpg",0,0
//Break Periods
//Storyboard Layer 0 (Background)
//Storyboard Layer 1 (Fail)
//Storyboard Layer 2 (Pass)
//Storyboard Layer 3 (Foreground)
//Storyboard Sound Samples

[TimingPoints]
963,291.26213592233,4,2,1,90,1,0
32419,-111.111111111111,4,2,1,70,0,0
41594,-100,4,2,1,80,0,0
46254,-100,4,2,1,90,0,0
49603,-100,4,2,0,90,0,0
51060,-111.111111111111,4,2,0,70,0,0
51933,-111.111111111111,4,2,0,50,0,0
52006,-111.111111111111,4,2,0,70,0,0
55720,-111.111111111111,4,2,1,90,0,0
60234,-100,4,2,1,90,0,1
74652,-100,4,2,1,90,0,0
76545,-100,4,2,1,90,0,1
76563,-100,4,2,1,90,0,0

[Colours]
Combo1 : 29,70,73
Combo2 : 251,45,45
Combo3 : 255,128,192
Combo4 : 249,190,70

[HitObjects]
256,192,380,12,2,5477,0:0:0:0:
345,93,6642,6,0,P|355:143|344:189,1,100,6|2,0:0|0:0,0:0:0:0:
307,231,7079,1,0,1:0:0:0:
249,140,7370,2,0,B|199:132|199:132|153:148,1,100,2|0,0:0|1:0,0:0:0:0:
103,172,7807,2,0,P|123:217|122:267,2,100,2|2|2,0:0|0:0|0:0,0:0:0:0:
16,241,8681,1,2,0:0:0:0:
49,347,8972,6,0,P|92:372|141:373,1,100,2|2,0:0|0:0,0:0:0:0:
191,351,9409,2,0,P|208:333|221:312,1,50,0|0,1:0|0:0,0:0:0:0:
230,257,9700,2,0,P|278:245|328:249,1,100,2|0,0:0|1:0,0:0:0:0:
368,288,10137,2,0,P|416:276|448:240,1,100,2|2,0:0|0:0,0:0:0:0:
456,184,10574,1,0,1:0:0:0:
405,88,10865,2,0,P|427:77|453:75,2,50,2|2|0,0:0|0:0|1:0,0:0:0:0:
365,126,11302,6,0,P|317:70|245:74,1,150,2|4,0:0|1:0,0:0:0:0:
173,154,12030,2,0,B|123:150|123:150|81:122,1,100,4|0,1:0|0:0,0:0:0:0:
40,88,12467,2,0,P|48:162|16:228,1,150,2|0,0:0|1:0,0:0:0:0:
76,320,13196,2,0,P|100:312|124:312,1,50,4|2,1:0|0:0,0:0:0:0:
168,344,13487,2,0,L|268:336,1,100,4|2,1:0|1:2,0:0:0:0:
379,323,14069,5,0,1:0:0:0:
397,213,14361,1,0,1:0:0:0:
301,161,14652,2,0,P|236:232|140:224,1,200,0|2,1:0|0:0,0:0:0:0:
80,130,15526,2,0,L|31:138,2,50,2|2|2,0:0|0:0|0:0,0:0:0:0:
99,78,15962,6,0,P|142:51|190:49,1,100,6|2,0:0|0:0,0:0:0:0:
240,72,16399,1,0,1:0:0:0:
301,161,16691,2,0,L|296:260,1,100,2|0,0:0|1:0,0:0:0:0:
294,316,17128,2,0,P|246:300|198:308,1,100,2|2,0:0|0:0,0:0:0:0:
93,270,17710,2,0,L|89:322,2,50,0|2|2,0:0|0:0|0:0,0:0:0:0:
36,173,18293,6,0,P|86:157|132:165,1,100,2|2,0:0|0:0,0:0:0:0:
177,196,18729,2,0,P|198:182|220:173,1,50,0|0,1:0|0:0,0:0:0:0:
276,166,19021,2,0,P|265:117|270:67,1,100,2|0,0:0|1:0,0:0:0:0:
312,32,19458,2,0,L|412:44,1,100,2|2,0:0|0:0,0:0:0:0:
452,84,19895,1,0,1:0:0:0:
420,188,20186,6,0,P|444:192|469:192,2,50,0|2|0,0:0|0:0|1:0,0:0:0:0:
376,220,20623,2,0,P|384:268|368:316,1,100,2|0,0:0|0:0,0:0:0:0:
324,348,21060,1,2,1:2:0:0:
80,220,21788,6,0,P|72:268|88:316,1,100
196,303,22370,2,0,P|203:255|188:208,1,100
124,120,22953,6,0,L|223:105,1,100,2|2,0:0|0:0,0:0:0:0:
276,96,23390,1,0,1:0:0:0:
356,172,23681,1,2,0:0:0:0:
454,128,23972,2,0,P|461:175|448:225,1,100,0|0,1:0|0:0,0:0:0:0:
412,264,24409,2,0,L|312:271,2,100,2|2|2,0:0|0:0|0:0,0:0:0:0:
352,356,25283,6,0,L|252:349,1,100,2|2,0:0|0:0,0:0:0:0:
196,344,25720,1,0,1:0:0:0:
136,252,26011,1,2,0:0:0:0:
166,146,26302,2,0,P|214:130|262:138,1,100,0|0,1:0|0:0,0:0:0:0:
300,176,26739,2,0,L|312:76,1,100,2|2,0:0|0:0,0:0:0:0:
392,0,27322,1,2,0:0:0:0:
495,38,27613,6,0,P|516:84|512:132,1,100,6|2,0:0|0:0,0:0:0:0:
484,180,28050,1,0,1:0:0:0:
391,238,28341,1,2,0:0:0:0:
300,176,28632,2,0,P|251:168|204:181,1,100,0|0,1:0|0:0,0:0:0:0:
164,220,29069,2,0,P|116:206|67:214,2,100,2|2|2,0:0|0:0|0:0,0:0:0:0:
258,278,29943,6,0,P|331:281|391:238,1,150,6|0,0:0|1:0,0:0:0:0:
300,176,30671,2,0,P|277:165|254:158,1,50,2|2,0:0|0:0,0:0:0:0:
164,220,31108,2,0,P|90:223|31:180,1,150,6|0,0:0|1:0,0:0:0:0:
122,117,31836,2,0,P|146:110|170:105,2,50,2|2|2,0:0|0:0|0:0,0:0:0:0:
72,20,32419,6,0,L|252:28,1,179.999994506836,6|2,0:0|0:0,0:0:0:0:
334,83,33293,1,2,0:0:0:0:
300,176,33584,2,0,P|288:220|292:264,1,89.9999972534181,2|2,0:0|0:0,0:0:0:0:
196,276,34166,2,0,P|199:231|187:188,1,89.9999972534181,2|2,0:0|0:0,0:0:0:0:
118,121,34749,6,0,P|46:174|34:260,1,179.999994506836,2|2,0:0|0:0,0:0:0:0:
108,324,35623,1,2,0:0:0:0:
196,276,35914,2,0,L|285:282,1,89.9999972534181,2|2,0:0|0:0,0:0:0:0:
246,191,36496,2,0,L|333:173,1,89.9999972534181,2|2,0:0|0:0,0:0:0:0:
273,95,37079,6,0,L|353:55,2,89.9999972534181,6|2|2,0:0|0:0|0:0,0:0:0:0:
334,173,37953,1,2,0:0:0:0:
308,268,38244,2,0,L|388:307,2,89.9999972534181,2|2|2,0:0|0:0|0:0,0:0:0:0:
246,191,39118,1,2,0:0:0:0:
150,216,39409,6,0,P|170:255|205:282,2,89.9999972534181,2|2|2,0:0|0:0|0:0,0:0:0:0:
177,120,40283,1,2,0:0:0:0:
273,95,40574,1,2,0:0:0:0:
273,95,41594,6,0,B|312:106|347:95|347:95|384:82|421:95,1,150,6|0,0:0|1:0,0:0:0:0:
386,199,42322,2,0,L|394:299,1,100,2|0,0:0|1:0,0:0:0:0:
306,365,42904,2,0,P|258:373|211:355,1,100,2|0,0:0|1:0,0:0:0:0:
144,268,43487,2,0,B|116:308|116:308|68:328,1,100,2|0,0:0|1:0,0:0:0:0:
17,348,43924,6,0,P|9:272|17:200,1,150,2|0,0:0|1:0,0:0:0:0:
64,100,44652,2,0,L|164:110,1,100,2|0,0:0|1:0,0:0:0:0:
230,197,45234,2,0,L|328:181,1,100,2|0,0:0|1:0,0:0:0:0:
429,134,45817,2,0,P|439:182|428:231,1,100,0|0,0:0|1:0,0:0:0:0:
392,273,46254,6,0,B|440:283|440:283|472:323,1,100,6|2,0:0|0:0,0:0:0:0:
501,370,46691,1,0,1:0:0:0:
390,365,46982,2,0,L|340:375,2,50,2|2|0,0:0|0:0|1:0,0:0:0:0:
306,293,47564,2,0,L|296:243,2,50,2|2|0,0:0|0:0|1:0,0:0:0:0:
258,321,48001,2,0,P|208:329|162:312,1,100,2|2,0:0|0:0,0:0:0:0:
108,215,48584,6,0,L|113:116,1,100,6|2,0:0|0:0,0:0:0:0:
115,59,49021,1,0,1:0:0:0:
221,23,49312,2,0,P|281:67|293:138,2,150,2|0|0,0:0|1:0|1:0,0:0:0:0:
115,59,50477,2,0,L|16:49,1,100,2|2,0:0|0:0,0:0:0:0:
56,148,51060,6,0,B|64:180|64:180|56:236,1,89.9999972534181,2|2,0:0|0:0,0:0:0:0:
47,285,51496,2,0,P|87:265|131:261,1,89.9999972534181,0|2,1:0|0:0,0:0:0:0:
176,284,51933,2,0,P|184:222|246:213,1,134.999995880127,4|2,0:0|0:0,0:0:0:0:
311,350,52807,1,2,0:0:0:0:
398,303,53098,1,2,0:0:0:0:
412,204,53390,6,0,L|418:115,1,89.9999972534181,2|2,0:0|0:0,0:0:0:0:
424,64,53827,2,0,B|404:40|404:40|346:32,1,89.9999972534181,0|2,1:0|0:0,0:0:0:0:
296,28,54263,2,0,P|248:76|184:80,1,134.999995880127,6|2,0:0|0:0,0:0:0:0:
59,2,55137,1,2,0:0:0:0:
53,102,55429,1,2,0:0:0:0:
104,188,55720,6,0,P|168:184|208:236,1,134.999995880127,0|0,1:0|1:0,0:0:0:0:
207,285,56302,2,0,L|341:279,1,134.999995880127,4|0,0:0|0:0,0:0:0:0:
368,236,56885,2,0,B|388:196|388:196|376:148|328:136,1,134.999995880127,0|0,1:0|1:0,0:0:0:0:
280,132,57467,2,0,L|236:140,2,44.999998626709,4|0|2,0:0|0:0|0:0,0:0:0:0:
276,32,58050,6,0,L|364:48,2,89.9999972534181,2|2|2,0:0|0:0|0:0,0:0:0:0:
232,52,58778,2,0,P|212:52|188:48,1,44.999998626709,2|2,0:0|0:0,0:0:0:0:
144,24,59069,2,0,P|120:64|116:108,1,89.9999972534181,2|2,0:0|0:0,0:0:0:0:
136,152,59506,1,2,0:0:0:0:
396,240,60234,6,0,L|388:140,1,100,6|2,0:0|0:0,0:0:0:0:
348,104,60671,1,0,1:0:0:0:
268,184,60962,2,0,P|222:202|174:195,1,100,2|0,0:0|1:0,0:0:0:0:
136,152,61399,2,0,L|144:52,2,100,2|2|2,0:0|0:0|0:0,0:0:0:0:
56,228,62273,1,2,0:0:0:0:
96,332,62564,6,0,P|144:316|192:316,1,100,2|2,0:0|0:0,0:0:0:0:
240,344,63001,2,0,L|289:341,1,50,0|0,1:0|0:0,0:0:0:0:
340,316,63293,2,0,P|389:315|436:331,1,100,2|0,0:0|1:0,0:0:0:0:
484,360,63729,2,0,L|492:260,1,100,2|2,0:0|0:0,0:0:0:0:
468,208,64166,1,0,1:0:0:0:
378,143,64458,2,0,P|366:163|358:191,2,50,2|2|0,0:0|0:0|1:0,0:0:0:0:
420,108,64895,6,0,B|320:100|320:100|276:76,1,150,2|4,0:0|1:0,0:0:0:0:
184,20,65623,2,0,P|136:36|104:72,1,100,4|0,1:0|0:0,0:0:0:0:
88,124,66060,2,0,B|-11:111|-11:111|0:159,1,150,2|0,0:0|1:0,0:0:0:0:
84,236,66788,2,0,P|109:233|133:226,1,50,4|2,1:0|0:0,0:0:0:0:
176,192,67079,2,0,P|176:242|192:288,1,100,4|2,1:0|1:2,0:0:0:0:
280,356,67662,5,0,1:0:0:0:
382,322,67954,1,0,1:0:0:0:
382,214,68244,2,0,P|346:125|251:111,1,200,0|2,1:0|0:0,0:0:0:0:
176,192,69118,2,0,L|180:244,2,50,2|2|2,0:0|0:0|0:0,0:0:0:0:
146,145,69555,6,0,P|97:137|48:146,1,100,6|2,0:0|0:0,0:0:0:0:
2,177,69992,1,0,1:0:0:0:
40,280,70283,2,0,P|89:288|137:277,1,100,2|0,0:0|1:0,0:0:0:0:
179,241,70720,2,0,P|176:290|195:336,2,100,2|2|2,0:0|0:0|0:0,0:0:0:0:
280,272,71594,1,2,0:0:0:0:
379,226,71885,6,0,L|375:326,1,100,2|2,0:0|0:0,0:0:0:0:
428,344,72322,2,0,P|452:336|471:320,1,50,0|0,1:0|0:0,0:0:0:0:
496,272,72613,2,0,L|492:172,1,100,2|0,0:0|1:0,0:0:0:0:
446,142,73050,2,0,P|395:145|354:122,1,100,2|2,0:0|0:0,0:0:0:0:
332,72,73487,1,0,1:0:0:0:
223,87,73778,6,0,P|221:61|227:38,2,50,0|2|0,0:0|0:0|1:0,0:0:0:0:
243,138,74215,2,0,P|199:115|150:117,1,100,2|0,0:0|0:0,0:0:0:0:
108,152,74652,1,2,1:2:0:0:
352,24,75380,6,0,P|340:72|346:121,1,100,2|2,0:0|0:0,0:0:0:0:
418,202,75962,1,2,0:0:0:0:
363,297,76254,1,0,1:0:0:0:
255,274,76545,6,0,P|204:272|156:280,1,100,6|2,0:0|0:0,0:0:0:0:
108,304,76982,1,0,1:0:0:0:
80,196,77273,1,2,0:0:0:0:
108,88,77564,2,0,P|152:108|201:100,1,100,0|0,1:0|0:0,0:0:0:0:
252,76,78001,2,0,L|244:176,2,100,2|2|2,0:0|0:0|0:0,0:0:0:0:
344,136,78875,6,0,L|336:36,1,100,2|2,0:0|0:0,0:0:0:0:
376,0,79312,1,0,1:0:0:0:
472,57,79603,1,2,0:0:0:0:
451,167,79895,2,0,P|427:211|387:240,1,100,0|0,1:0|0:0,0:0:0:0:
333,249,80331,2,0,P|376:273|405:313,1,100,2|2,0:0|0:0,0:0:0:0:
304,357,80914,1,2,0:0:0:0:
225,279,81205,6,0,L|232:180,1,100,6|2,0:0|0:0,0:0:0:0:
196,136,81642,1,0,1:0:0:0:
124,220,81933,1,2,0:0:0:0:
21,178,82225,2,0,P|13:225|27:274,1,100,0|0,1:0|0:0,0:0:0:0:
64,314,82662,2,0,B|32:352|32:352|-16:368,2,100,2|2|2,0:0|0:0|0:0,0:0:0:0:
124,220,83535,6,0,P|162:283|232:297,1,150,6|0,0:0|1:0,0:0:0:0:
332,248,84263,2,0,L|336:196,1,50,2|2,0:0|0:0,0:0:0:0:
344,88,84700,2,0,P|306:25|236:11,1,150,6|0,0:0|1:0,0:0:0:0:
136,60,85428,2,0,L|132:112,2,50,2|2|0,0:0|0:0|1:0,0:0:0:0:
256,192,86011,12,4,87904,0:0:0:0:
