osu file format v14

[General]
AudioFilename: AppMusic.mp3
AudioLeadIn: 0
PreviewTime: 59500
Countdown: 0
SampleSet: Soft
StackLeniency: 0.7
Mode: 0
LetterboxInBreaks: 0
WidescreenStoryboard: 0

[Editor]
Bookmarks: 5471,22947,32413,51054,60228,76539
DistanceSpacing: 1.2
BeatDivisor: 8
GridSize: 4
TimelineZoom: 1.2

[Metadata]
Title:DiVE!!
TitleUnicode:DiVE!!
Artist:Amatsuki
ArtistUnicode:天月-あまつき-
Creator:SyraxAxoJaxco
Version:Hard
Source:デジモンユニバース アプリモンスターズ
Tags:Dejimon Yunibasu Apuri Monsutazu Digimon Universe Appli Monsters Appmon Shinkai Haru Karan Eri Asuka Torajirou Astra Katsura Rei Yuujin Oozora Gatchmon Dokamon Musimon Hackmon Offmon Onmon Pata-Mon opening
BeatmapID:1308505
BeatmapSetID:620718

[Difficulty]
HPDrainRate:6
CircleSize:4
OverallDifficulty:6.5
ApproachRate:8
SliderMultiplier:1.4
SliderTickRate:1

[Events]
//Background and Video events
Video,-27,"AppVideo.avi"
0,0,"AppBackground.jpg",0,0
//Break Periods
//Storyboard Layer 0 (Background)
//Storyboard Layer 1 (Fail)
//Storyboard Layer 2 (Pass)
//Storyboard Layer 3 (Foreground)
//Storyboard Sound Samples

[TimingPoints]
963,291.26213592233,4,2,0,90,1,0
5186,-100,4,2,0,5,0,0
5477,-100,4,2,0,90,0,0
5914,-200,4,2,0,90,0,0
6496,-200,4,2,0,5,0,0
6642,-100,4,2,0,90,0,0
21788,-200,4,2,0,90,0,0
22953,-100,4,2,0,90,0,0
32419,-133.333333333333,4,2,0,70,0,0
41594,-100,4,2,0,80,0,0
46254,-100,4,2,0,90,0,0
51060,-133.333333333333,4,2,0,70,0,0
51933,-133.333333333333,4,2,0,50,0,0
52370,-133.333333333333,4,2,0,70,0,0
55720,-113.636363636364,4,2,0,90,0,0
59506,-113.636363636364,4,2,0,70,0,0
60162,-113.636363636364,4,2,0,5,0,0
60234,-100,4,2,0,90,0,1
74652,-100,4,2,0,90,0,0
76545,-100,4,2,0,90,0,1
76563,-100,4,2,0,90,0,0
87467,-100,4,2,0,5,0,0
87759,-100,4,2,0,90,0,0

[Colours]
Combo1 : 180,180,180
Combo2 : 251,45,45
Combo3 : 255,128,192
Combo4 : 249,190,70
Combo5 : 29,70,73

[HitObjects]
256,192,380,12,0,5186,0:0:0:0:
232,192,5477,22,0,B|208:148|232:103|232:103|272:126,1,140,2|2,0:0|0:0,0:0:0:0:
300,245,5914,6,0,P|240:277|175:258,1,140,2|0,0:0|0:0,0:0:0:0:
175,258,6642,38,0,P|175:292|162:325,1,70,6|0,0:0|0:0,0:0:0:0:
90,277,6933,1,2,0:0:0:0:
47,203,7079,2,0,L|116:197,1,70,0|0,1:0|0:0,0:0:0:0:
103,112,7370,2,0,L|171:130,1,70,2|2,0:0|0:0,0:0:0:0:
200,48,7662,1,0,1:0:0:0:
256,115,7807,6,0,P|325:109|368:56,1,140,2|2,0:0|0:0,0:0:0:0:
285,33,8244,1,0,1:0:0:0:
256,115,8390,2,0,L|267:183,1,70,0|2,0:0|0:0,0:0:0:0:
342,260,8681,2,0,L|353:191,1,70,2|0,0:0|1:0,0:0:0:0:
429,117,8972,6,0,P|457:179|443:246,1,140,2|2,0:0|0:0,0:0:0:0:
471,330,9409,2,0,L|402:323,1,70,0|0,1:0|0:0,0:0:0:0:
342,260,9700,2,0,P|293:308|226:308,1,140,2|0,0:0|1:0,0:0:0:0:
173,217,10137,6,0,B|193:187|223:169|223:169|247:194|261:228,1,140,2|2,0:0|0:0,0:0:0:0:
225,307,10574,2,0,P|192:320|158:320,1,70,0|0,1:0|0:0,0:0:0:0:
85,274,10865,2,0,L|75:343,2,70,2|2|0,0:0|0:0|1:0,0:0:0:0:
0,271,11302,22,0,P|27:208|92:189,1,140,2|2,0:0|0:0,0:0:0:0:
173,217,11739,2,0,P|178:182|168:148,1,70,4|0,1:0|0:0,0:0:0:0:
94,73,12030,2,0,L|162:60,1,70,4|2,1:0|0:0,0:0:0:0:
241,99,12322,1,0,0:0:0:0:
319,62,12467,6,0,P|388:70|433:120,1,140,2|2,0:0|0:0,0:0:0:0:
468,199,12904,2,0,L|328:187,1,140,0|4,1:0|1:0,0:0:0:0:
270,251,13341,1,2,0:0:0:0:
336,335,13487,2,0,P|370:340|404:332,1,70,4|2,1:0|0:0,0:0:0:0:
461,269,13778,6,0,L|468:199,1,70,2|0,1:2|0:0,0:0:0:0:
388,224,14069,2,0,L|377:154,1,70,0|0,1:0|0:0,0:0:0:0:
282,205,14361,2,0,L|253:140,1,70,0|0,1:0|0:0,0:0:0:0:
164,219,14652,6,0,P|122:165|55:158,1,140,0|2,1:0|0:0,0:0:0:0:
81,242,15089,1,0,0:0:0:0:
142,303,15234,2,0,P|213:290|271:257,1,140,2|2,0:0|0:0,0:0:0:0:
337,205,15671,1,2,0:0:0:0:
370,282,15817,1,2,0:0:0:0:
476,332,15962,22,0,L|464:192,1,140,6|2,0:0|0:0,0:0:0:0:
457,111,16399,2,0,P|426:95|392:88,1,70,0|0,1:0|0:0,0:0:0:0:
322,132,16691,2,0,P|368:76|352:16,1,140,2|0,0:0|1:0,0:0:0:0:
266,12,17128,6,0,P|231:16|199:27,1,70,2|0,0:0|0:0,0:0:0:0:
121,98,17419,2,0,P|156:102|189:114,1,70,2|0,0:0|1:0,0:0:0:0:
249,177,17710,1,0,0:0:0:0:
322,132,17856,1,2,0:0:0:0:
400,170,18001,2,0,P|378:197|348:215,1,70,2|0,0:0|1:0,0:0:0:0:
249,177,18293,6,0,P|301:221|294:288,1,140,2|2,0:0|0:0,0:0:0:0:
217,323,18729,2,0,P|189:301|173:270,1,70,0|0,1:0|0:0,0:0:0:0:
164,184,19020,2,0,P|138:206|104:218,1,70,2|0,0:0|0:0,0:0:0:0:
30,177,19312,1,0,1:0:0:0:
67,76,19458,6,0,B|165:81|165:81|199:106,1,140,2|2,0:0|0:0,0:0:0:0:
249,177,19894,1,0,1:0:0:0:
112,270,20186,2,0,L|117:201,2,70,0|2|0,0:0|0:0|1:0,0:0:0:0:
30,177,20623,22,0,P|8:242|29:307,1,140,2|0,0:0|0:0,0:0:0:0:
148,352,21060,1,2,1:2:0:0:
148,352,21788,54,0,L|218:348,1,70
268,282,22370,1,0,0:0:0:0:
186,271,22662,1,0,0:0:0:0:
217,348,22953,6,0,P|283:363|339:325,1,140,6|2,0:0|0:0,0:0:0:0:
340,241,23390,2,0,L|332:172,1,70,0|0,1:0|0:0,0:0:0:0:
372,97,23681,2,0,P|407:100|436:118,1,70,2|2,0:0|0:0,0:0:0:0:
472,217,23972,2,0,B|432:245|432:245|340:241,1,140,0|0,1:0|0:0,0:0:0:0:
257,236,24409,6,0,P|266:202|289:175,1,70,2|0,0:0|1:0,0:0:0:0:
225,122,24700,2,0,P|251:100|285:92,1,70,0|2,0:0|0:0,0:0:0:0:
265,12,24992,2,0,P|299:9|331:23,1,70,2|0,0:0|1:0,0:0:0:0:
372,97,25283,6,0,P|380:32|444:12,1,140,2|2,0:0|0:0,0:0:0:0:
508,68,25720,2,0,L|504:140,1,70,0|0,1:0|0:0,0:0:0:0:
424,164,26011,2,0,L|427:233,1,70,2|2,0:0|0:0,0:0:0:0:
500,314,26302,2,0,P|440:280|375:300,1,140,0|0,1:0|0:0,0:0:0:0:
325,367,26739,6,0,L|256:364,1,70,2|0,0:0|1:0,0:0:0:0:
293,289,27030,2,0,L|224:286,1,70,0|2,0:0|0:0,0:0:0:0:
300,212,27322,2,0,L|231:209,1,70,2|0,0:0|1:0,0:0:0:0:
324,136,27613,22,0,P|372:184|368:252,1,140,6|2,0:0|0:0,0:0:0:0:
293,289,28050,2,0,L|224:286,1,70,0|0,1:0|0:0,0:0:0:0:
152,240,28341,2,0,P|145:205|154:171,1,70,2|2,0:0|0:0,0:0:0:0:
226,97,28632,2,0,P|163:123|96:108,1,140,0|0,1:0|0:0,0:0:0:0:
26,59,29069,6,0,P|12:92|12:125,1,70,2|0,0:0|1:0,0:0:0:0:
68,190,29361,2,0,P|82:222|82:257,1,70,0|2,0:0|0:0,0:0:0:0:
36,328,29652,2,0,L|104:340,1,70,2|0,0:0|1:0,0:0:0:0:
186,274,29943,6,0,B|221:244|221:244|272:233|309:264,1,140,6|2,0:0|0:0,0:0:0:0:
359,333,30380,2,0,P|337:359|307:377,1,70,0|0,1:0|0:0,0:0:0:0:
228,348,30671,1,2,0:0:0:0:
186,274,30817,2,0,P|180:240|184:204,1,70,2|0,0:0|1:0,0:0:0:0:
264,116,31108,6,0,B|304:92|304:92|336:124|323:178,1,140,6|2,0:0|0:0,0:0:0:0:
261,236,31545,1,0,1:0:0:0:
177,240,31691,1,0,0:0:0:0:
157,226,31763,1,2,0:0:0:0:
142,206,31836,2,0,L|139:136,1,70,2|2,0:0|0:0,0:0:0:0:
217,167,32128,2,0,L|264:116,1,70,2|0,0:0|0:0,0:0:0:0:
261,236,32419,22,0,L|365:232,1,105.000004005432,6|2,0:0|0:0,0:0:0:0:
479,173,33001,2,0,P|470:123|431:88,1,105.000004005432,2|2,0:0|0:0,0:0:0:0:
309,126,33584,2,0,P|351:158|403:161,1,105.000004005432,2|2,0:0|0:0,0:0:0:0:
366,44,34166,2,0,B|323:76|323:76|309:126,1,105.000004005432,2|2,0:0|0:0,0:0:0:0:
274,246,34749,5,2,0:0:0:0:
161,307,35040,2,0,L|174:202,2,105.000004005432,2|2|2,0:0|0:0|0:0,0:0:0:0:
274,246,35914,1,2,0:0:0:0:
251,119,36206,1,2,0:0:0:0:
123,100,36497,1,2,0:0:0:0:
67,217,36788,2,0,L|71:246,3,26.2500010013581,2|2|2|2,0:0|0:0|0:0|0:0,0:0:0:0:
78,283,37079,6,0,P|127:301|179:298,1,105.000004005432,6|2,0:0|0:0,0:0:0:0:
268,207,37662,1,2,0:0:0:0:
302,329,37953,1,2,0:0:0:0:
429,332,38244,2,0,P|420:281|391:237,1,105.000004005432,2|2,0:0|0:0,0:0:0:0:
268,207,38827,1,2,0:0:0:0:
356,116,39118,1,2,0:0:0:0:
295,5,39409,6,0,P|256:38|234:86,1,105.000004005432,2|2,0:0|0:0,0:0:0:0:
268,207,39992,1,2,0:0:0:0:
145,176,40283,1,2,0:0:0:0:
136,301,40574,2,0,P|162:345|209:366,1,105.000004005432,2|0,0:0|0:0,0:0:0:0:
283,340,41011,5,2,0:0:0:0:
291,347,41302,1,2,0:0:0:0:
300,353,41594,6,0,L|440:345,1,140,6|2,0:0|0:0,0:0:0:0:
488,277,42031,1,0,1:0:0:0:
348,193,42322,2,0,P|376:172|411:162,1,70,2|2,0:0|0:0,0:0:0:0:
488,193,42613,2,0,P|436:145|428:80,1,140,0|2,1:0|0:0,0:0:0:0:
346,97,43050,5,2,0:0:0:0:
282,41,43196,2,0,L|142:53,1,140,0|2,1:0|0:0,0:0:0:0:
90,117,43632,2,0,P|86:153|94:185,1,70,2|0,0:0|1:0,0:0:0:0:
154,245,43924,6,0,P|144:312|88:350,1,140,2|2,0:0|0:0,0:0:0:0:
73,267,44361,1,0,1:0:0:0:
226,201,44652,2,0,P|230:235|243:268,1,70,2|2,0:0|0:0,0:0:0:0:
302,329,44943,2,0,B|398:321|398:321|422:285,1,140,0|2,1:0|0:0,0:0:0:0:
424,200,45380,1,2,0:0:0:0:
388,121,45526,6,0,P|342:172|347:239,1,140,0|0,1:0|0:0,0:0:0:0:
422,284,45962,1,2,0:0:0:0:
499,245,46108,1,0,1:0:0:0:
489,141,46254,22,0,B|477:73|477:73|425:24,1,140,6|2,0:0|0:0,0:0:0:0:
344,48,46691,1,0,1:0:0:0:
140,104,46982,2,0,L|210:109,1,70,2|2,0:0|0:0,0:0:0:0:
261,43,47273,1,0,1:0:0:0:
413,182,47564,6,0,L|343:187,1,70,2|2,0:0|0:0,0:0:0:0:
292,121,47855,1,0,1:0:0:0:
238,215,48001,1,2,0:0:0:0:
140,79,48293,5,2,0:0:0:0:
140,183,48438,1,0,1:0:0:0:
32,131,48584,2,0,P|23:199|50:263,1,140,6|2,0:0|0:0,0:0:0:0:
120,311,49021,1,0,1:0:0:0:
177,156,49312,2,0,L|177:228,1,70,2|2,0:0|0:0,0:0:0:0:
322,131,49749,6,0,P|331:199|304:263,1,140,0|2,1:0|0:0,0:0:0:0:
234,311,50186,1,0,1:0:0:0:
177,156,50477,2,0,L|248:163,1,70,2|2,0:0|0:0,0:0:0:0:
273,81,50768,2,0,L|322:131,1,70,2|0,0:0|0:0,0:0:0:0:
399,89,51060,22,0,L|407:198,1,105.000004005432,2|2,0:0|0:0,0:0:0:0:
457,234,51496,2,0,P|405:222|356:232,1,105.000004005432,0|2,1:0|0:0,0:0:0:0:
306,272,51933,1,4,0:0:0:0:
497,290,52370,6,0,L|505:186,1,105.000004005432,2|2,0:0|0:0,0:0:0:0:
462,137,52807,2,0,P|437:140|412:148,1,52.5000020027161,2|0,0:0|0:0,0:0:0:0:
368,195,53098,2,0,P|340:191|316:183,1,52.5000020027161,2|0,0:0|0:0,0:0:0:0:
268,144,53389,6,0,P|216:136|172:160,1,105.000004005432,2|2,0:0|0:0,0:0:0:0:
133,210,53826,2,0,L|141:106,1,105.000004005432,0|2,1:0|0:0,0:0:0:0:
108,52,54263,1,6,0:0:0:0:
58,237,54700,6,0,P|92:277|142:288,1,105.000004005432,2|2,0:0|0:0,0:0:0:0:
196,256,55137,2,0,P|224:260|248:268,1,52.5000020027161,2|0,0:0|0:0,0:0:0:0:
289,316,55429,2,0,P|317:316|342:313,1,52.5000020027161,2|0,0:0|0:0,0:0:0:0:
402,296,55720,22,0,P|430:248|410:188,1,123.200003759766,0|2,1:0|0:0,0:0:0:0:
347,148,56156,1,0,1:0:0:0:
300,205,56302,2,0,P|358:219|409:187,1,123.200003759766,4|2,0:0|0:0,0:0:0:0:
413,113,56738,1,0,0:0:0:0:
350,73,56885,6,0,L|226:81,1,123.200003759766,0|2,1:0|0:0,0:0:0:0:
170,129,57322,1,0,1:0:0:0:
123,188,57468,2,0,P|103:164|95:132,1,61.2500005841255,4|0,0:0|0:0,0:0:0:0:
127,67,57759,1,2,0:0:0:0:
197,199,58050,6,0,B|226:232|226:232|265:230|301:208,1,123.200003759766,2|2,0:0|0:0,0:0:0:0:
347,148,58487,1,2,0:0:0:0:
350,73,58632,1,2,0:0:0:0:
300,16,58778,1,2,0:0:0:0:
226,7,58924,1,2,0:0:0:0:
158,36,59069,6,0,P|130:88|142:148,1,123.200003759766,2|2,0:0|0:0,0:0:0:0:
197,199,59506,1,2,0:0:0:0:
205,206,59797,5,2,0:0:0:0:
264,251,59943,2,0,P|276:295|273:341,1,92.4000028198243,2|0,0:0|0:0,0:0:0:0:
272,347,60234,6,0,P|303:332|340:331,1,70,6|0,0:0|0:0,0:0:0:0:
416,367,60526,1,2,0:0:0:0:
484,316,60671,2,0,L|480:247,1,70,0|0,1:0|0:0,0:0:0:0:
408,200,60962,2,0,L|439:138,1,70,2|2,0:0|0:0,0:0:0:0:
388,68,61254,1,0,1:0:0:0:
458,23,61399,6,0,P|386:30|320:22,1,140,2|2,0:0|0:0,0:0:0:0:
244,62,61836,1,0,1:0:0:0:
169,19,61982,2,0,P|134:11|100:16,1,70,0|2,0:0|0:0,0:0:0:0:
92,120,62273,2,0,P|125:127|160:123,1,70,2|0,0:0|1:0,0:0:0:0:
244,61,62564,6,0,P|206:119|221:185,1,140,2|2,0:0|0:0,0:0:0:0:
291,134,63001,2,0,P|302:167|305:201,1,70,0|0,1:0|0:0,0:0:0:0:
248,267,63292,2,0,P|313:288|373:255,1,140,2|0,0:0|1:0,0:0:0:0:
418,158,63730,6,0,B|381:124|334:118|334:118|291:134,1,140,2|2,0:0|0:0,0:0:0:0:
221,185,64167,2,0,L|151:178,1,70,0|0,1:0|0:0,0:0:0:0:
93,120,64458,2,0,P|109:88|111:54,2,70,2|2|0,0:0|0:0|1:0,0:0:0:0:
27,171,64895,22,0,P|87:202|151:178,1,140,2|2,0:0|0:0,0:0:0:0:
193,106,65331,2,0,L|263:113,1,70,4|0,1:0|0:0,0:0:0:0:
298,215,65623,2,0,L|363:191,1,70,4|2,1:0|0:0,0:0:0:0:
357,273,65914,1,0,0:0:0:0:
277,295,66060,6,0,P|223:252|221:184,1,140,2|2,0:0|0:0,0:0:0:0:
263,113,66496,2,0,B|357:108|357:108|397:132,1,140,0|4,1:0|1:0,0:0:0:0:
439,203,66933,1,2,0:0:0:0:
357,273,67079,2,0,P|349:239|356:205,1,70,4|0,1:0|0:0,0:0:0:0:
396,131,67370,6,0,L|336:95,1,70,2|0,1:2|0:0,0:0:0:0:
282,162,67662,2,0,L|233:111,1,70,0|0,1:0|0:0,0:0:0:0:
163,188,67953,2,0,L|129:126,1,70,0|0,1:0|0:0,0:0:0:0:
28,193,68244,6,0,P|11:125|28:58,1,140,0|2,1:0|0:0,0:0:0:0:
93,8,68681,1,0,0:0:0:0:
163,53,68827,2,0,P|180:120|163:188,1,140,2|2,0:0|0:0,0:0:0:0:
98,240,69263,1,2,0:0:0:0:
113,322,69409,1,2,0:0:0:0:
221,377,69555,22,0,L|237:237,1,140,6|2,0:0|0:0,0:0:0:0:
249,152,69992,2,0,P|275:176|307:190,1,70,0|0,1:0|0:0,0:0:0:0:
388,166,70283,2,0,P|332:207|324:276,1,140,2|0,0:0|1:0,0:0:0:0:
350,354,70720,6,0,L|420:347,1,70,2|0,0:0|0:0,0:0:0:0:
477,258,71011,2,0,L|407:251,1,70,2|0,0:0|1:0,0:0:0:0:
388,166,71302,2,0,L|458:159,1,70,0|2,0:0|0:0,0:0:0:0:
401,70,71593,2,0,L|331:63,1,70,2|0,0:0|1:0,0:0:0:0:
252,132,71885,6,0,P|184:140|132:96,1,140,2|2,0:0|0:0,0:0:0:0:
184,31,72322,2,0,P|218:32|249:47,1,70,0|0,1:0|0:0,0:0:0:0:
252,132,72613,2,0,B|257:182|230:222|230:222|251:212|274:213,1,140,2|0,0:0|1:0,0:0:0:0:
377,233,73050,6,0,P|337:288|270:299,1,140,2|2,0:0|0:0,0:0:0:0:
186,292,73487,1,0,1:0:0:0:
252,132,73778,2,0,L|322:139,2,70,0|2|0,0:0|0:0|1:0,0:0:0:0:
358,61,74215,22,0,P|295:33|228:48,1,140,2|0,0:0|0:0,0:0:0:0:
172,164,74652,1,2,1:2:0:0:
172,164,75380,53,2,0:0:0:0:
135,85,75671,1,2,0:0:0:0:
216,53,75962,1,2,0:0:0:0:
252,132,76254,38,0,L|249:201,1,70,0|0,1:0|0:0,0:0:0:0:
337,120,76545,38,0,P|403:127|435:187,1,140,6|2,0:0|0:0,0:0:0:0:
437,272,76982,2,0,L|368:276,1,70,0|0,1:0|0:0,0:0:0:0:
318,205,77273,2,0,L|248:201,1,70,2|2,0:0|0:0,0:0:0:0:
203,295,77564,2,0,P|135:298|88:249,1,140,0|0,1:0|0:0,0:0:0:0:
76,163,78001,6,0,P|110:165|141:181,1,70,2|0,0:0|1:0,0:0:0:0:
172,104,78293,2,0,P|200:123|219:152,1,70,0|2,0:0|0:0,0:0:0:0:
284,100,78584,2,0,P|298:131|300:166,1,70,2|0,0:0|1:0,0:0:0:0:
269,244,78875,6,0,L|408:232,1,140,2|2,0:0|0:0,0:0:0:0:
486,271,79312,2,0,P|490:307|482:339,1,70,0|0,1:0|0:0,0:0:0:0:
404,300,79603,2,0,P|399:265|408:231,1,70,2|2,0:0|0:0,0:0:0:0:
504,186,79895,2,0,P|436:188|380:148,1,140,0|0,1:0|0:0,0:0:0:0:
340,72,80331,6,0,L|271:81,1,70,2|0,0:0|1:0,0:0:0:0:
226,153,80623,2,0,L|295:162,1,70,0|2,0:0|0:0,0:0:0:0:
228,240,80914,2,0,L|163:213,1,70,2|0,0:0|1:0,0:0:0:0:
201,326,81205,22,0,B|237:335|268:320|268:320|300:304|337:315,1,140,6|2,0:0|0:0,0:0:0:0:
411,359,81642,2,0,L|419:290,1,70,0|0,1:0|0:0,0:0:0:0:
337,315,81933,2,0,L|329:246,1,70,2|2,0:0|0:0,0:0:0:0:
405,168,82225,2,0,P|441:225|419:289,1,140,0|0,1:0|0:0,0:0:0:0:
337,315,82662,6,0,L|329:246,1,70,2|0,0:0|1:0,0:0:0:0:
242,247,82953,2,0,L|269:183,1,70,0|2,0:0|0:0,0:0:0:0:
195,141,83244,2,0,L|250:99,1,70,2|0,0:0|1:0,0:0:0:0:
148,67,83535,6,0,P|110:124|125:191,1,140,6|2,0:0|0:0,0:0:0:0:
203,226,83972,2,0,P|212:259|208:294,1,70,0|0,1:0|0:0,0:0:0:0:
134,334,84263,1,2,0:0:0:0:
56,302,84409,2,0,L|49:232,1,70,2|0,0:0|1:0,0:0:0:0:
82,118,84700,6,0,P|138:149|206:126,1,140,6|2,0:0|0:0,0:0:0:0:
268,65,85137,1,0,1:0:0:0:
350,34,85283,1,0,0:0:0:0:
374,38,85356,1,2,0:0:0:0:
398,42,85429,2,0,L|394:111,1,70,2|2,0:0|0:0,0:0:0:0:
314,138,85720,2,0,L|318:207,1,70,0|0,1:0|0:0,0:0:0:0:
431,248,86011,1,6,0:0:0:0:
256,192,86157,12,0,87467,0:0:0:0:
256,192,87759,21,4,0:0:0:0:
259,198,87904,1,0,0:0:0:0:
