osu file format v14

[General]
AudioFilename: AppMusic.mp3
AudioLeadIn: 0
PreviewTime: 59500
Countdown: 0
SampleSet: Soft
StackLeniency: 0.7
Mode: 0
LetterboxInBreaks: 0
WidescreenStoryboard: 0

[Editor]
Bookmarks: 5471,22947,32413,51054,59500
DistanceSpacing: 1
BeatDivisor: 8
GridSize: 4
TimelineZoom: 1.2

[Metadata]
Title:DiVE!!
TitleUnicode:DiVE!!
Artist:Amatsuki
ArtistUnicode:天月-あまつき-
Creator:SyraxAxoJaxco
Version:Easy
Source:デジモンユニバース アプリモンスターズ
Tags:Dejimon Yunibasu Apuri Monsutazu Digimon Universe Appli Monsters Appmon Shinkai Haru Karan Eri Asuka Torajirou Astra Katsura Rei Yuujin Oozora Gatchmon Dokamon Musimon Hackmon Offmon Onmon Pata-Mon opening
BeatmapID:1308504
BeatmapSetID:620718

[Difficulty]
HPDrainRate:2
CircleSize:3
OverallDifficulty:3
ApproachRate:2.5
SliderMultiplier:0.8
SliderTickRate:1

[Events]
//Background and Video events
Video,-27,"AppVideo.avi"
0,0,"AppBackground.jpg",0,0
//Break Periods
//Storyboard Layer 0 (Background)
//Storyboard Layer 1 (Fail)
//Storyboard Layer 2 (Pass)
//Storyboard Layer 3 (Foreground)
//Storyboard Sound Samples

[TimingPoints]
963,291.26213592233,4,2,1,90,1,0
7662,-100,4,2,2,90,0,0
7734,-100,4,2,1,90,0,0
11157,-100,4,2,2,90,0,0
11229,-100,4,2,0,90,0,0
12686,-100,4,2,1,90,0,0
16982,-100,4,2,2,90,0,0
17055,-100,4,2,1,90,0,0
20477,-100,4,2,2,90,0,0
20768,-100,4,2,0,90,0,0
22953,-100,4,2,1,90,0,0
32419,-100,4,2,1,70,0,0
41594,-100,4,2,1,80,0,0
46254,-100,4,2,1,90,0,0
47856,-100,4,2,2,90,0,0
48875,-100,4,2,1,90,0,0
49603,-100,4,2,0,90,0,0
51060,-100,4,2,1,70,0,0
51933,-100,4,2,0,50,0,0
52006,-100,4,2,0,70,0,0
55720,-100,4,2,1,90,0,0
60234,-100,4,2,1,90,0,1
61254,-100,4,2,2,90,0,1
61327,-100,4,2,1,90,0,1
64749,-100,4,2,2,90,0,1
64822,-100,4,2,0,90,0,1
66278,-100,4,2,1,90,0,1
70574,-100,4,2,2,90,0,1
70647,-100,4,2,1,90,0,1
74069,-100,4,2,2,90,0,1
74361,-100,4,2,0,90,0,1
74652,-100,4,2,1,90,0,0
76545,-100,4,2,1,90,0,1
76563,-100,4,2,1,90,0,0

[Colours]
Combo1 : 29,70,73
Combo2 : 251,45,45
Combo3 : 255,128,192
Combo4 : 249,190,70

[HitObjects]
256,192,380,12,2,5477,0:0:0:0:
60,152,6642,6,0,L|56:272,1,120,6|0,0:0|1:0,0:0:0:0:
104,336,7370,2,0,P|164:340|212:308,1,120,2|2,0:0|0:0,0:0:0:0:
256,240,8098,2,0,L|252:160,1,80,2|2,0:0|0:0,0:0:0:0:
300,96,8681,1,2,0:0:0:0:
358,41,8972,6,0,B|398:29|438:29|438:29|470:53,1,120,2|0,0:0|1:0,0:0:0:0:
512,120,9700,2,0,P|516:160|508:200,1,80,2|0,0:0|1:0,0:0:0:0:
485,232,10137,2,0,L|365:228,1,120,2|0,0:0|1:0,0:0:0:0:
304,176,10865,6,0,B|328:144|328:144|320:64,2,120,2|2|0,0:0|0:0|1:0,0:0:0:0:
256,240,12030,2,0,B|232:272|232:272|240:352,2,120,4|2|0,1:0|0:0|1:0,0:0:0:0:
198,184,13196,2,0,P|162:168|122:168,1,80,4|4,1:0|1:0,0:0:0:0:
63,223,13778,6,0,L|66:303,1,80,2|0,1:2|1:0,0:0:0:0:
130,351,14361,1,0,1:0:0:0:
183,291,14652,2,0,B|237:252|293:291|293:291|352:328|406:291,1,240,0|2,1:0|0:0,0:0:0:0:
482,196,15962,6,0,P|486:137|451:91,1,120,6|0,0:0|1:0,0:0:0:0:
411,160,16691,2,0,B|331:168|331:168|297:149,1,120,2|2,0:0|0:0,0:0:0:0:
230,103,17419,1,2,0:0:0:0:
163,58,17710,2,0,P|125:47|87:56,1,80,2|2,0:0|0:0,0:0:0:0:
32,116,18293,6,0,B|23:158|32:196|32:196|62:221,1,120,2|0,0:0|1:0,0:0:0:0:
132,260,19021,2,0,P|145:298|141:337,1,80,2|0,0:0|1:0,0:0:0:0:
118,370,19458,2,0,L|238:362,1,120,2|0,0:0|1:0,0:0:0:0:
288,300,20186,6,0,P|342:277|400:292,2,120,2|2|2,0:0|0:0|1:2,0:0:0:0:
288,300,22953,22,0,L|292:180,1,120,6|0,0:0|1:0,0:0:0:0:
354,128,23681,1,2,0:0:0:0:
312,60,23972,2,0,P|272:60|235:73,1,80,0|2,1:0|0:0,0:0:0:0:
176,128,24555,2,0,P|138:114|98:114,1,80,0|2,1:0|0:0,0:0:0:0:
11,195,25283,6,0,P|61:224|120:217,1,120,2|0,0:0|1:0,0:0:0:0:
179,272,26011,1,2,0:0:0:0:
244,224,26302,2,0,L|324:228,1,80,0|2,1:0|0:0,0:0:0:0:
344,306,26885,2,0,L|424:302,1,80,0|2,1:0|0:0,0:0:0:0:
508,216,27613,6,0,B|506:172|480:142|480:142|444:124,1,120,6|0,0:0|1:0,0:0:0:0:
384,177,28341,1,2,0:0:0:0:
311,143,28632,2,0,P|303:103|315:67,1,80,0|2,1:0|0:0,0:0:0:0:
251,17,29215,2,0,L|172:24,1,80,0|2,1:0|0:0,0:0:0:0:
52,40,29943,6,0,P|88:84|96:145,1,120,6|0,0:0|1:0,0:0:0:0:
80,224,30671,1,2,0:0:0:0:
33,336,31108,2,0,B|61:308|61:308|101:296|139:312,1,120,6|0,0:0|1:0,0:0:0:0:
205,360,31837,1,2,0:0:0:0:
276,321,32128,1,2,0:0:0:0:
348,356,32419,6,0,P|424:348|452:276,2,160,6|2|2,0:0|0:0|0:0,0:0:0:0:
212,276,34167,1,2,0:0:0:0:
348,196,34749,6,0,B|464:188|464:188|504:204,2,160,2|2|2,0:0|0:0|0:0,0:0:0:0:
348,356,36497,1,2,0:0:0:0:
212,276,37079,6,0,P|192:200|212:120,1,160,6|2,0:0|0:0,0:0:0:0:
344,36,38244,2,0,B|401:12|457:20|457:20|485:56,1,160,2|2,0:0|0:0,0:0:0:0:
504,212,39409,6,0,P|425:222|350:196,1,160,2|2,0:0|0:0,0:0:0:0:
210,122,40574,1,2,0:0:0:0:
116,374,41594,6,0,P|163:338|221:336,1,120,6|0,2:0|1:0,0:0:0:0:
287,288,42322,2,0,P|327:290|364:304,1,80,2|0,0:0|1:0,0:0:0:0:
419,245,42904,1,2,0:0:0:0:
484,198,43196,2,0,P|498:234|494:274,2,80,0|2|0,1:0|0:0|1:0,0:0:0:0:
424,144,44070,5,2,0:0:0:0:
448,68,44361,2,0,P|448:28|432:-8,2,80,0|2|0,1:0|0:0|1:0,0:0:0:0:
424,144,45235,1,2,0:0:0:0:
352,178,45526,2,0,L|272:174,1,80,0|2,1:0|0:0,0:0:0:0:
175,247,46254,6,0,P|187:187|155:139,1,120,6|0,0:0|1:0,0:0:0:0:
78,122,46982,2,0,B|40:135|40:135|15:165,1,80,2|0,0:0|1:0,0:0:0:0:
10,246,47564,2,0,P|50:288|109:296,1,120,2|2,0:0|0:0,0:0:0:0:
175,247,48293,1,2,0:0:0:0:
220,179,48584,6,0,P|228:121|189:77,1,120,6|0,0:0|1:0,0:0:0:0:
113,51,49312,2,0,B|75:98|75:98|81:157,2,120,2|0|0,0:0|1:0|1:0,0:0:0:0:
189,77,50477,2,0,P|227:88|267:84,1,80,2|2,0:0|0:0,0:0:0:0:
332,36,51060,6,0,L|452:40,1,120,2|0,0:0|1:0,0:0:0:0:
512,144,51933,2,0,L|392:148,1,120,4|2,0:0|0:0,0:0:0:0:
292,216,52807,2,0,P|252:216|216:200,1,80,2|2,0:0|0:0,0:0:0:0:
164,138,53390,6,0,L|160:258,1,120,2|0,0:0|1:0,0:0:0:0:
56,318,54264,2,0,L|52:198,1,120,4|2,0:0|0:0,0:0:0:0:
48,77,55138,2,0,P|72:45|104:21,1,80,2|2,0:0|0:0,0:0:0:0:
176,56,55720,6,0,P|224:117|302:120,1,160,0|4,1:0|0:0,0:0:0:0:
450,62,56885,2,0,P|389:110|386:188,1,160,0|4,1:0|0:0,0:0:0:0:
444,336,58050,6,0,P|428:299|397:275,1,80,2|2,0:0|0:0,0:0:0:0:
317,271,58632,2,0,B|238:282,1,80,2|2,0:0|0:0,0:0:0:0:
198,288,59069,2,0,B|204:209|204:209|187:172,1,120,2|2,0:0|0:0,0:0:0:0:
30,44,60234,6,0,B|12:80|12:80|19:159,1,120,6|0,0:0|1:0,0:0:0:0:
32,239,60962,2,0,P|88:259|144:244,1,120,2|2,0:0|0:0,0:0:0:0:
188,313,61691,2,0,P|227:311|265:320,1,80,2|2,0:0|0:0,0:0:0:0:
341,288,62273,1,2,0:0:0:0:
377,361,62564,6,0,P|436:352|479:313,1,120,2|0,0:0|1:0,0:0:0:0:
491,232,63293,2,0,L|495:152,1,80,2|0,0:0|1:0,0:0:0:0:
481,115,63729,2,0,P|434:80|376:88,1,120,2|0,0:0|1:0,0:0:0:0:
308,131,64458,6,0,P|355:165|414:158,2,120,2|2|4,0:0|0:0|1:0,0:0:0:0:
305,51,65623,2,0,B|328:24|328:24|364:-1|409:14,2,120,4|2|0,1:0|0:0|1:0,0:0:0:0:
237,94,66788,2,0,P|196:92|164:72,1,80,4|4,1:0|1:0,0:0:0:0:
94,30,67370,6,0,P|56:39|27:66,1,80,2|0,1:2|1:0,0:0:0:0:
24,148,67953,1,0,1:0:0:0:
84,204,68244,2,0,B|126:209|162:191|162:191|177:233|211:252|211:252|250:241|290:245,1,240,0|2,1:0|0:0,0:0:0:0:
392,309,69555,6,0,L|396:189,1,120,6|0,0:0|1:0,0:0:0:0:
448,128,70283,2,0,P|457:70|420:26,1,120,2|2,0:0|0:0,0:0:0:0:
340,23,71011,1,2,0:0:0:0:
292,88,71302,2,0,B|296:128|296:128|320:160,1,80,2|2,0:0|0:0,0:0:0:0:
395,189,71885,6,0,P|354:233|296:237,1,120,2|0,0:0|1:0,0:0:0:0:
239,293,72613,2,0,P|203:281|163:287,1,80,2|0,0:0|1:0,0:0:0:0:
127,306,73050,2,0,P|109:249|129:195,1,120,2|0,0:0|1:0,0:0:0:0:
200,154,73778,6,0,L|319:159,2,120,2|2|2,0:0|0:0|1:2,0:0:0:0:
200,154,76545,22,0,P|216:98|188:46,1,120,6|0,0:0|1:0,0:0:0:0:
116,12,77273,1,2,0:0:0:0:
42,44,77564,2,0,L|52:124,1,80,0|2,1:0|0:0,0:0:0:0:
119,170,78147,2,0,L|109:250,1,80,0|2,1:0|0:0,0:0:0:0:
100,368,78875,6,0,P|152:334|208:333,1,120,2|0,0:0|1:0,0:0:0:0:
281,367,79603,1,2,0:0:0:0:
347,322,79895,2,0,P|352:281|342:244,1,80,0|2,1:0|0:0,0:0:0:0:
288,184,80477,2,0,P|283:143|293:106,1,80,0|2,1:0|0:0,0:0:0:0:
377,21,81205,6,0,B|405:49|405:49|417:129,1,120,6|0,0:0|1:0,0:0:0:0:
416,210,81933,1,2,0:0:0:0:
342,244,82225,2,0,P|314:272|301:309,1,80,0|2,1:0|0:0,0:0:0:0:
223,286,82807,2,0,P|227:246|212:209,1,80,0|2,1:0|0:0,0:0:0:0:
111,144,83535,6,0,L|103:264,1,120,6|0,0:0|1:0,0:0:0:0:
118,342,84263,1,2,0:0:0:0:
223,286,84700,2,0,P|269:324|326:323,1,120,6|0,0:0|1:0,0:0:0:0:
381,264,85429,2,0,L|373:184,1,80,2|0,0:0|1:0,0:0:0:0:
256,192,86011,12,4,87904,0:0:0:0:
