osu file format v5

[General]
AudioFilename: Amasia Landscape - Shangri-La (Ending 3).mp3
AudioLeadIn: 0
PreviewTime: -1
Countdown: 1
SampleSet: Soft
EditorBookmarks: 37,19762,42112,50662,77962,88387,96412,118012,127387,136012,170962

[Metadata]
Title:Shangri-La
Artist:Amasia Landscape
Creator:LeMoonwalker
Version:Normal

[Difficulty]
HPDrainRate:7
CircleSize:4
OverallDifficulty:3
SliderMultiplier:1.4
SliderTickRate:1

[Events]
//Background and Video events
0,0,"Shangri-La.jpg"
1,1100,"Shangri-La.avi"
//Break Periods
2,69387,77347
//Storyboard Layer 0 (Background)
//Storyboard Layer 1 (Failing)
//Storyboard Layer 2 (Passing)
//Storyboard Layer 3 (Foreground)
//Storyboard Sound Samples
//Background Colour Transformations
3,100,138,138,255

[TimingPoints]
1980,600,4,2,0,100

[Colours]
Combo1 : 250,193,75
Combo2 : 108,255,131
Combo3 : 0,51,255
Combo4 : 255,60,26

[HitObjects]
128,192,20280,1,0
192,192,20580,1,0
256,192,20880,1,2
320,192,21180,1,2
416,192,21630,1,0
512,192,22080,1,0
480,288,22680,5,0
416,320,22980,1,2
352,288,23280,1,2
256,224,23880,2,0,B|128:128,1,140
64,64,25080,5,0
96,96,25380,1,2
128,64,25680,1,2
160,96,25980,1,0
192,64,26280,1,2
288,64,26880,1,2
416,320,28080,5,0
352,320,28380,1,2
288,320,28680,5,0
256,320,28830,1,2
192,320,29130,5,0
160,320,29280,1,2
128,224,29880,5,0
192,224,30180,1,0
256,224,30480,1,2
320,224,30780,1,0
384,224,31080,1,2
480,224,31680,1,2
448,128,32280,5,0
384,128,32580,1,0
320,128,32880,1,2
192,128,33480,1,0
64,128,34080,1,2
128,256,34680,5,0
192,256,34980,1,0
256,256,35280,1,2
320,256,35580,1,2
384,256,35880,2,2,B|512:192,1,140
480,128,37680,5,2
448,128,37830,1,2
416,128,37980,1,2
352,128,38280,1,0
320,128,38430,1,2
256,128,38730,1,0
224,128,38880,1,2
96,128,39780,5,0
160,64,40080,2,0,B|352:84|384:192|160:224|172:252|140:260|263:324|263:324,1,420
352,256,42480,5,2
288,256,42780,1,0
224,256,43080,1,2
192,256,43230,1,0
128,256,43530,1,0
96,256,43680,1,2
239,188,44580,5,2
320,128,44880,2,0,B|316:132|341:197|320:256|339:286|416:256|95:451|128:288|96:288|64:160|96:64|192:64|256:32|348:40|365:40|396:42|544:32,1,840
256,192,48780,12,2,49680
55,347,51180,5,0
96,320,51480,1,0
128,288,51780,2,0,B|209:239,2,70
64,64,53580,5,0
128,64,53880,1,0
192,64,54180,2,2,B|288:64,2,70
320,224,55980,5,0
256,256,56280,1,0
192,288,56580,2,0,B|96:160,1,140
64,128,57480,1,2
256,128,58380,5,0
320,128,58680,1,0
320,128,58830,1,0
416,128,59280,1,0
480,128,59580,1,0
224,96,60780,5,0
224,160,61080,1,0
224,160,61230,1,0
224,256,61680,2,4,B|448:256,1,210
320,288,63180,5,0
288,288,63330,1,2
224,288,63630,1,0
192,288,63780,1,2
192,224,64080,2,2,B|256:160,1,70
352,160,64980,1,0
448,160,65580,1,4
224,96,66780,5,0
384,256,67980,1,2
160,256,69180,1,4
224,64,78780,6,2,B|352:64,2,105
96,64,80280,6,0,B|256:224,1,210
320,224,81630,2,2,B|384:128,1,105
96,166,83580,6,2,B|96:294,2,105
96,96,85080,6,0,B|96:192,1,70
160,160,85680,5,2
224,128,85980,1,0
288,160,86430,1,2
352,128,86880,1,2
416,224,87480,5,0
416,288,87780,1,0
416,352,88080,1,0
352,352,88380,6,0,B|302:251,2,105
224,352,89880,1,0
160,352,90180,1,2
96,352,90480,1,0
96,224,91080,1,2
160,224,91380,1,2
224,224,91680,1,2
320,192,92280,5,0
384,192,92580,1,0
448,192,92880,1,0
448,256,93180,1,0
384,256,93480,2,0,B|224:256,1,140
384,96,95280,5,0
384,160,95580,1,0
320,160,95880,1,2
288,160,96030,1,2
224,160,96330,1,0
192,160,96480,1,2
128,256,97080,5,0
192,256,97380,1,0
256,256,97680,1,0
320,256,97980,1,0
384,256,98280,1,2
480,256,98880,1,2
480,128,99480,5,0
416,128,99780,1,2
352,128,100080,1,0
224,128,100680,1,2
96,128,101280,1,2
64,224,101880,5,0
128,224,102180,1,0
192,224,102480,1,0
256,224,102780,1,0
320,224,103080,1,2
416,224,103680,1,2
480,64,104880,5,0
448,64,105030,1,0
416,64,105180,1,0
352,64,105480,1,0
320,64,105630,1,0
256,64,105930,1,0
224,64,106080,1,2
32,64,106980,5,0
96,64,107280,2,0,B|416:64|50:326|416:320,1,490
416,256,109680,5,2
416,224,109830,1,2
416,192,109980,1,2
352,192,110280,1,2
320,192,110430,1,2
256,192,110730,1,0
224,192,110880,1,2
64,192,111780,5,0
256,192,112080,12,0,116880
96,160,118380,1,0
160,160,118680,1,0
160,160,118830,1,2
256,160,119280,1,2
320,160,119580,1,4
128,256,120780,5,0
192,256,121080,1,2
192,256,121230,1,2
288,256,121680,2,4,B|384:256,1,70
160,128,123180,5,0
224,128,123480,1,2
288,128,123780,2,0,B|352:96,2,70
288,192,124680,1,2
128,192,125580,5,0
128,256,125880,1,2
160,256,126030,1,0
224,256,126480,1,2
256,256,126630,1,2
192,96,127980,6,0,B|288:96,2,70
128,96,128880,1,2
64,96,129180,1,4
32,320,130380,5,0
96,288,130680,1,2
160,320,130980,1,2
224,288,131280,1,2
288,320,131580,2,4,B|416:256,2,140
256,192,133980,12,0,135780
256,192,136380,5,4
480,160,137580,5,0
416,160,137880,1,2
352,160,138180,1,0
288,160,138480,1,2
224,160,138780,1,2
416,256,139980,5,2
352,256,140280,1,2
288,256,140580,2,0,B|192:256,2,70
224,320,141630,1,6
96,128,142380,5,0
160,128,142680,1,2
224,128,142980,1,0
288,128,143280,1,2
288,128,143430,1,4
160,64,144780,5,0
160,128,145080,1,2
160,160,145230,1,2
256,160,145680,1,0
320,160,145980,1,4
128,288,147180,5,2
160,288,147330,1,2
224,288,147630,1,0
256,288,147780,1,0
320,288,148080,1,2
384,288,148380,1,2
384,160,148980,1,0
384,32,149580,1,2
288,96,150180,5,0
352,96,150480,1,0
384,160,150780,5,2
320,256,151380,1,0
256,160,151980,1,2
352,96,152580,1,0
416,192,153180,1,6
256,192,153480,12,2,159780
