osu file format v5

[General]
AudioFilename: Amasia Landscape - Shangri-La (Ending 3).mp3
AudioLeadIn: 0
PreviewTime: -1
Countdown: 1
SampleSet: Soft
EditorBookmarks: 37,19762,42112,50662,77962,88387,96412,118012,127387,136012,170962

[Metadata]
Title:Shangri-La
Artist:Amasia Landscape
Creator:LeMoonwalker
Version:Easy

[Difficulty]
HPDrainRate:6
CircleSize:3
OverallDifficulty:2
SliderMultiplier:1.4
SliderTickRate:0.5

[Events]
//Background and Video events
0,0,"Shangri-La.jpg"
1,1100,"Shangri-La.avi"
//Break Periods
2,48401,49647
2,69387,77347
//Storyboard Layer 0 (Background)
//Storyboard Layer 1 (Failing)
//Storyboard Layer 2 (Passing)
//Storyboard Layer 3 (Foreground)
//Storyboard Sound Samples
//Background Colour Transformations
3,100,162,161,255

[TimingPoints]
1980,600,4,2,0,100

[Colours]
Combo1 : 250,193,75
Combo2 : 108,255,131
Combo3 : 0,51,255
Combo4 : 255,60,26

[HitObjects]
64,192,20280,1,0
160,128,20880,1,0
288,192,21630,5,0
352,128,22080,1,0
384,288,22680,5,0
288,256,23280,1,0
192,288,23880,2,0,B|32:288,1,140
64,128,25080,5,0
224,128,25980,1,0
384,128,26880,1,0
128,128,28080,5,2
192,128,28380,1,0
256,128,28680,1,0
320,128,28980,1,0
384,128,29280,1,2
384,256,29880,5,0
320,256,30180,1,0
128,256,31230,5,2
128,256,31680,1,2
32,128,32280,5,0
128,192,32880,1,0
224,128,33480,1,0
320,192,34080,1,2
416,256,34680,5,0
288,256,35280,1,0
192,256,35880,6,0,B|32:256,1,140
64,32,37680,5,0
192,32,38280,1,0
320,32,38880,1,2
160,96,39780,5,0
224,96,40080,2,0,B|439:116|448:224|224:256|236:284|204:292|320:352|320:352,1,420
416,320,42480,6,0,B|128:320,1,280
224,160,44580,6,0,B|220:164|245:229|345:289|243:318|320:288|-1:483|32:320|0:320|-32:192|0:96|96:96|160:64|252:72|287:61|326:63|390:72,1,840
64,352,51180,5,0
128,288,51630,2,0,B|256:160,1,175
64,64,53580,5,0
160,64,54030,2,0,B|352:64,1,175
480,256,55980,5,0
416,256,56280,1,0
352,256,56580,2,0,B|192:96,1,210
32,160,58380,5,0
160,160,58980,1,2
288,160,59580,1,2
64,128,60780,5,0
32,224,61230,2,0,B|352:224,1,315
448,256,63180,5,0
320,256,63780,1,0
192,256,64380,1,2
64,256,64980,1,2
64,128,65580,1,6
288,128,66780,6,0,B|64:320,2,280
32,320,78780,5,2
32,160,79680,1,2
32,32,80280,6,0,B|352:320,1,420
96,192,83580,5,2
256,192,84480,1,2
256,320,85080,6,0,B|448:224,2,210
192,224,87480,6,0,B|256:352,1,140
320,320,88380,6,0,B|224:128,1,210
64,96,90180,5,0
64,192,90780,1,2
128,96,91380,1,0
128,192,91980,1,2
224,192,92580,5,0
224,288,93180,1,0
320,288,93630,2,0,B|320:160,1,105
320,64,95280,5,0
320,192,95880,1,2
320,320,96480,1,0
416,192,97380,5,0
352,96,97980,1,0
288,192,98580,1,2
352,288,99780,5,0
256,224,100380,1,2
160,160,100980,1,0
64,96,101580,1,2
128,160,102180,5,0
128,224,102480,1,2
128,288,102780,1,0
128,352,103080,2,0,B|288:352,1,140
224,192,104880,5,0
288,192,105180,1,2
384,192,105780,5,0
448,192,106080,1,2
32,64,106980,5,0
96,64,107280,2,0,B|416:64|45:323|416:320,1,490
416,256,109680,5,2
416,192,109980,1,0
288,192,110580,5,2
224,192,110880,1,0
64,192,111780,5,2
256,192,112080,12,4,116880
96,160,118380,1,0
160,160,118680,1,2
288,160,119280,1,0
352,160,119580,1,6
128,256,120780,5,0
224,256,121230,1,2
320,256,121680,2,4,B|416:256,1,70
160,128,123180,5,0
288,128,123780,2,0,B|384:128,3,70
192,96,125580,5,0
192,192,126030,1,0
192,288,126480,2,2,B|288:288,1,70
384,128,127980,6,0,B|448:96,2,70
320,128,128880,5,2
256,128,129180,1,4
32,256,130380,5,2
96,256,130680,1,2
160,256,130980,1,2
288,256,131580,6,0,B|448:256,2,140
256,192,133980,12,0,135780
256,192,136380,5,4
480,96,137580,5,0
384,96,138030,1,2
288,96,138480,2,4,B|192:96,1,70
416,160,139980,5,0
416,224,140280,1,0
416,288,140580,2,2,B|352:256,3,70
96,128,142380,5,0
224,128,142980,1,2
352,128,143580,1,4
160,64,144780,5,0
160,128,145080,1,2
160,256,145680,1,2
160,320,145980,1,4
32,192,147180,6,0,B|32:256,4,35
160,192,148380,1,2
288,192,148980,1,2
416,192,149580,1,0
416,64,150180,5,0
352,64,150480,1,0
384,128,150780,5,2
384,256,151380,1,0
256,256,151980,1,2
128,256,152580,1,0
0,256,153180,1,6
256,192,153480,12,2,162780
