osu file format v12

[General]
AudioFilename: Amaranthe - Hunger.mp3
AudioLeadIn: 1511
PreviewTime: 49576
Countdown: 0
SampleSet: Normal
StackLeniency: 0.7
Mode: 0
LetterboxInBreaks: 0

[Editor]
Bookmarks: 29970,57570,99570,127170,147570,175770
DistanceSpacing: 1.1
BeatDivisor: 4
GridSize: 4

[Metadata]
Title:Hunger
TitleUnicode:Hunger
Artist:Amaranthe
ArtistUnicode:Amaranthe
Creator:- N a n a k a -
Version:The Destiny
Source:Amaranthe Album 2011
Tags:Melodic deathmetal metal
BeatmapID:176056
BeatmapSetID:57572

[Difficulty]
HPDrainRate:6
CircleSize:4
OverallDifficulty:7
ApproachRate:9
SliderMultiplier:2
SliderTickRate:1

[Events]
//Background and Video events
//Break Periods
2,80752,82202
2,138202,144602
//Storyboard Layer 0 (Background)
Sprite,Background,TopLeft,"Amaran.png",0,0
//Storyboard Layer 1 (Fail)
//Storyboard Layer 2 (Pass)
//Storyboard Layer 3 (Foreground)
//Storyboard Sound Samples
//Background Colour Transformations
3,100,0,0,0

[TimingPoints]
152,300,4,1,1,60,1,0
1202,300,4,1,1,60,1,0
1202,-100,4,1,1,60,0,1
1277,-100,4,1,1,60,0,0
10802,-133.333333333333,4,1,1,60,0,0
17702,-100,4,1,1,60,0,0
19802,-133.333333333333,4,1,1,60,0,0
28802,-133.333333333333,4,2,1,65,0,0
30002,-100,4,1,1,60,0,1
30077,-100,4,1,1,60,0,0
39452,-133.333333333333,4,1,1,60,0,0
45602,-100,4,1,1,60,0,0
46802,-80,4,1,1,60,0,0
48002,-100,4,1,1,60,0,0
48452,-100,4,1,0,60,0,0
49202,-100,4,1,1,80,0,1
49352,-100,4,1,1,60,0,1
58802,-100,4,1,1,80,0,0
58952,-100,4,1,1,60,0,0
59252,-100,4,1,0,80,0,1
59402,-100,4,1,1,60,0,1
70202,-100,4,1,1,20,0,0
70802,-100,4,1,1,60,0,1
70877,-100,4,1,1,60,0,0
82802,-133.333333333333,4,1,1,60,0,0
98402,-133.333333333333,4,2,1,65,0,0
99602,-100,4,1,1,60,0,1
99677,-100,4,1,1,60,0,0
109802,-133.333333333333,4,1,1,60,0,0
115202,-100,4,1,1,60,0,0
116402,-80,4,1,1,60,0,0
117602,-100,4,1,1,60,0,0
118052,-100,4,1,0,60,0,0
118802,-100,4,1,1,60,0,1
128402,-100,4,1,1,60,0,0
128852,-100,4,1,0,60,0,1
129002,-100,4,1,1,60,0,1
138002,-100,4,1,1,60,0,0
147602,-100,4,1,1,60,0,1
147677,-100,4,1,1,60,0,0
156077,-100,4,2,1,60,0,0
157202,-100,4,1,1,60,0,0
166802,-100,4,1,1,60,0,1
175952,-100,4,1,1,60,0,0
176402,-80,4,1,1,80,0,0
176552,-80,4,1,1,60,0,0
176852,-80,4,1,0,60,0,1
177002,-80,4,1,1,60,0,1
184802,-80,4,1,2,60,0,1
186002,-100,4,1,1,60,0,0
187802,-100,4,1,1,20,0,0

[Colours]
Combo1 : 213,241,14
Combo2 : 0,255,255
Combo3 : 1,254,115
Combo4 : 249,121,6

[HitObjects]
124,120,152,2,0,L|172:216,1,100
240,136,452,2,0,L|200:232,1,100
300,244,752,2,0,L|200:268,2,100
388,192,1202,5,4,0:0:0:0:
388,192,1277,1,0,0:0:0:0:
388,192,1352,1,0,0:0:0:0:
344,104,1502,1,0,0:0:0:0:
344,104,1577,1,0,0:0:0:0:
344,104,1652,1,0,0:0:0:0:
288,188,1802,1,8,0:0:0:0:
200,140,1952,2,0,L|152:128,2,50
216,240,2252,2,0,L|192:284,2,50
112,200,2552,5,0,0:0:0:0:
96,100,2702,1,0,0:0:0:0:
196,92,2852,1,0,0:0:0:0:
212,192,3002,5,8,0:0:0:0:
292,284,3152,1,0,0:0:0:0:
212,192,3302,2,0,L|320:168,1,100
336,80,3602,5,0,0:0:0:0:
364,92,3677,1,0,0:0:0:0:
388,112,3752,1,0,0:0:0:0:
372,212,3902,1,0,0:0:0:0:
344,224,3977,1,0,0:0:0:0:
316,228,4052,1,0,0:0:0:0:
260,148,4202,1,8,0:0:0:0:
188,80,4352,1,0,0:0:0:0:
160,92,4427,1,0,0:0:0:0:
136,112,4502,2,0,P|116:160|136:200,1,100
160,220,4727,1,0,0:0:0:0:
188,228,4802,1,0,0:0:0:0:
256,284,4952,5,0,0:0:0:0:
372,172,5102,1,0,0:0:0:0:
340,328,5252,1,0,0:0:0:0:
280,180,5402,1,8,0:0:0:0:
424,248,5552,2,0,L|436:348,2,100
392,88,6002,5,0,0:0:0:0:
392,88,6077,1,0,0:0:0:0:
392,88,6152,1,0,0:0:0:0:
296,64,6302,2,0,L|252:40,2,50
320,160,6602,1,8,0:0:0:0:
380,240,6752,2,0,L|424:264,2,50
280,252,7052,1,0,0:0:0:0:
280,252,7127,1,0,0:0:0:0:
280,252,7202,1,0,0:0:0:0:
248,156,7352,6,0,L|148:156,1,100
48,156,7652,2,0,L|148:156,1,100,0|8,0:0|0:0,0:0:0:0:
148,256,7952,1,0,0:0:0:0:
224,324,8102,1,0,0:0:0:0:
324,324,8252,1,0,0:0:0:0:
436,176,8402,6,0,L|368:104,1,100,4|0,0:0|0:0,0:0:0:0:
260,132,8702,2,0,L|160:148,1,100
104,252,9002,2,0,L|200:280,1,100,8|0,0:0|0:0,0:0:0:0:
324,324,9302,2,0,L|356:228,1,100
432,112,9602,2,0,L|348:168,1,100
204,204,9902,2,0,L|176:108,2,100,0|0|8,0:0|0:0|0:0,0:0:0:0:
340,120,10352,2,0,L|404:200,2,100,2|0|0,0:0|0:0|0:0,0:0:0:0:
292,272,10802,5,4,0:0:0:0:
272,280,10877,1,0,0:0:0:0:
252,284,10952,1,0,0:0:0:0:
232,288,11027,1,0,0:0:0:0:
208,292,11102,2,0,P|132:288|72:248,1,150.000005722046,0|8,0:0|0:0,0:0:0:0:
204,148,11702,6,0,L|228:76,2,75.0000028610231
252,204,12152,1,0,0:0:0:0:
304,256,12302,2,0,L|276:328,2,75.0000028610231,0|0|8,0:0|0:0|0:0,0:0:0:0:
332,172,12752,1,0,0:0:0:0:
388,244,12902,1,0,0:0:0:0:
420,160,13052,1,0,0:0:0:0:
320,88,13202,5,4,0:0:0:0:
296,88,13277,1,0,0:0:0:0:
272,92,13352,1,0,0:0:0:0:
252,104,13427,1,0,0:0:0:0:
236,120,13502,2,0,P|200:176|184:256,1,150.000005722046,0|8,0:0|0:0,0:0:0:0:
80,148,14102,5,0,0:0:0:0:
152,168,14252,1,0,0:0:0:0:
224,152,14402,2,0,L|300:152,1,75.0000028610231
200,224,14702,2,0,L|232:292,1,75.0000028610231
124,236,15002,2,0,L|68:292,2,75.0000028610231,8|0|0,0:0|0:0|0:0,0:0:0:0:
124,116,15452,1,0,0:0:0:0:
256,64,15602,5,4,0:0:0:0:
280,60,15677,1,0,0:0:0:0:
304,64,15752,1,0,0:0:0:0:
324,72,15827,1,0,0:0:0:0:
340,88,15902,2,0,P|360:160|356:236,1,150.000005722046,0|8,0:0|0:0,0:0:0:0:
140,288,16502,5,0,0:0:0:0:
112,220,16652,1,0,0:0:0:0:
188,228,16802,1,0,0:0:0:0:
164,156,16952,1,0,0:0:0:0:
256,80,17102,5,0,0:0:0:0:
284,148,17252,1,0,0:0:0:0:
332,92,17402,1,8,0:0:0:0:
364,160,17552,1,0,0:0:0:0:
324,268,17702,5,0,0:0:0:0:
324,268,17852,1,0,0:0:0:0:
324,268,18002,2,0,P|228:304|132:292,1,200
200,216,18452,1,0,0:0:0:0:
260,136,18602,2,0,P|356:100|452:112,2,200,8|0|0,0:0|0:0|0:0,0:0:0:0:
184,80,19352,5,0,0:0:0:0:
272,212,19502,1,0,0:0:0:0:
200,284,19652,1,0,0:0:0:0:
260,136,19802,2,2,B|272:120|272:120|284:136|284:136|296:120|296:120|308:136|308:136|320:120|320:120|332:136|332:136|344:120|344:120|356:136|356:136|368:120|368:120|376:136|376:136|388:120|388:120|400:136|400:136|412:120|412:120|424:136|424:136|436:120|436:120|448:136,1,300.000011444092,10|4,0:0|0:0,0:0:0:0:
456,144,20477,1,0,0:0:0:0:
464,172,20552,1,0,0:0:0:0:
460,200,20627,1,0,0:0:0:0:
444,228,20702,2,0,P|384:272|312:292,1,150.000005722046,0|8,0:0|0:0,0:0:0:0:
136,192,21302,6,0,L|92:132,1,75.0000028610231
196,152,21602,1,0,0:0:0:0:
172,80,21752,1,0,0:0:0:0:
264,132,21902,2,0,L|268:56,1,75.0000028610231
368,124,22202,5,8,0:0:0:0:
368,228,22352,1,0,0:0:0:0:
272,176,22502,5,0,0:0:0:0:
420,176,22652,1,0,0:0:0:0:
272,176,22802,5,4,0:0:0:0:
252,180,22877,1,0,0:0:0:0:
232,188,22952,1,0,0:0:0:0:
216,204,23027,1,0,0:0:0:0:
208,224,23102,2,0,P|184:296|116:316,1,150.000005722046,0|8,0:0|0:0,0:0:0:0:
256,56,23702,6,0,P|292:64|324:84,1,75.0000028610231
256,220,24002,2,0,P|220:212|188:192,1,75.0000028610231,0|0,0:0|0:0,0:0:0:0:
256,132,24302,2,0,P|292:140|324:160,1,75.0000028610231
256,296,24602,6,0,P|220:288|188:268,1,75.0000028610231,8|0,0:0|0:0,0:0:0:0:
104,272,24902,2,0,P|52:224|48:148,1,150.000005722046,0|4,0:0|0:0,0:0:0:0:
64,132,25277,1,0,0:0:0:0:
84,124,25352,1,0,0:0:0:0:
108,120,25427,1,0,0:0:0:0:
132,120,25502,2,0,B|156:152|168:156|168:156|220:152|232:200|232:200|244:204,1,150.000005722046,0|8,0:0|0:0,0:0:0:0:
424,192,26102,6,0,L|464:128,2,75.0000028610231
328,236,26552,2,0,P|288:240|256:228,1,75.0000028610231
180,152,26852,2,0,L|168:76,2,75.0000028610231,0|8|0,0:0|0:0|0:0,0:0:0:0:
196,256,27302,5,0,0:0:0:0:
212,328,27452,1,0,0:0:0:0:
256,216,27602,2,0,L|320:176,1,75.0000028610231
252,140,27902,1,0,0:0:0:0:
256,216,28052,1,0,0:0:0:0:
312,268,28202,5,8,0:0:0:0:
328,284,28277,1,0,0:0:0:0:
348,296,28352,1,0,0:0:0:0:
372,300,28427,1,0,0:0:0:0:
396,300,28502,1,2,0:0:0:0:
380,212,28652,1,4,0:0:0:0:
116,84,28802,6,0,P|92:112|80:148,1,75.0000028610231,2|2,0:0|0:0,0:0:0:0:
396,300,29102,2,0,P|420:272|432:236,1,75.0000028610231,2|0,0:0|0:0,0:0:0:0:
148,332,29402,2,0,P|176:356|212:368,1,75.0000028610231,2|0,0:0|0:0,0:0:0:0:
364,52,29702,2,0,P|336:28|300:16,1,75.0000028610231,2|2,0:0|0:0,0:0:0:0:
256,192,30002,5,4,0:0:0:0:
256,192,30077,1,0,0:0:0:0:
256,192,30152,1,0,0:0:0:0:
160,220,30302,2,0,L|112:232,2,50
236,284,30602,1,8,0:0:0:0:
276,100,30752,2,0,L|272:48,2,50
352,168,31052,1,0,0:0:0:0:
352,168,31127,1,0,0:0:0:0:
352,168,31202,1,0,0:0:0:0:
344,268,31352,5,0,0:0:0:0:
240,172,31502,1,0,0:0:0:0:
140,76,31652,1,0,0:0:0:0:
128,176,31802,2,0,P|152:220|188:260,1,100,8|0,0:0|0:0,0:0:0:0:
352,168,32102,2,0,P|328:124|292:84,1,100
240,172,32402,5,0,0:0:0:0:
232,200,32477,1,0,0:0:0:0:
236,228,32552,1,0,0:0:0:0:
308,296,32702,2,0,L|276:336,2,50
380,224,33002,1,8,0:0:0:0:
424,136,33152,1,0,0:0:0:0:
408,108,33227,1,0,0:0:0:0:
384,92,33302,1,0,0:0:0:0:
284,96,33452,2,0,L|252:52,2,50
308,192,33752,5,0,0:0:0:0:
148,172,33902,1,0,0:0:0:0:
220,316,34052,1,0,0:0:0:0:
220,156,34202,5,8,0:0:0:0:
204,316,34352,1,0,0:0:0:0:
236,160,34502,1,0,0:0:0:0:
192,312,34652,1,0,0:0:0:0:
252,164,34802,6,0,L|300:144,2,50,0|0|0,0:0|0:0|0:0,0:0:0:0:
332,280,35102,2,0,L|288:304,2,50
240,240,35402,1,8,0:0:0:0:
140,236,35552,1,0,0:0:0:0:
112,228,35627,1,0,0:0:0:0:
92,204,35702,1,0,0:0:0:0:
92,104,35852,1,0,0:0:0:0:
120,112,35927,1,0,0:0:0:0:
140,136,36002,1,0,0:0:0:0:
256,56,36152,5,0,0:0:0:0:
372,192,36302,1,0,0:0:0:0:
140,192,36452,1,0,0:0:0:0:
332,108,36602,5,8,0:0:0:0:
256,272,36752,1,0,0:0:0:0:
180,108,36902,1,0,0:0:0:0:
256,288,37052,1,0,0:0:0:0:
332,108,37202,6,0,L|432:80,1,100,4|0,0:0|0:0,0:0:0:0:
180,276,37502,2,0,L|80:304,1,100
180,108,37802,2,0,L|80:80,1,100,8|0,0:0|0:0,0:0:0:0:
332,276,38102,6,0,L|432:304,2,100
180,108,38552,2,0,L|80:80,2,100
256,192,39002,1,8,0:0:0:0:
256,192,39152,2,2,P|360:200|440:252,1,200,2|0,0:0|0:0,0:0:0:0:
440,272,39527,5,0,0:0:0:0:
436,296,39602,1,0,0:0:0:0:
420,312,39677,1,0,0:0:0:0:
400,320,39752,1,0,0:0:0:0:
324,272,39902,1,0,0:0:0:0:
236,288,40052,1,0,0:0:0:0:
132,236,40202,6,0,P|136:160|180:104,1,150.000005722046,8|0,0:0|0:0,0:0:0:0:
244,144,40652,1,0,0:0:0:0:
320,156,40802,2,0,L|364:216,1,75.0000028610231
356,84,41102,1,0,0:0:0:0:
280,72,41252,1,0,0:0:0:0:
208,60,41402,2,0,L|140:96,1,75.0000028610231,8|0,0:0|0:0,0:0:0:0:
128,112,41627,1,0,0:0:0:0:
116,132,41702,1,0,0:0:0:0:
124,208,41852,1,0,0:0:0:0:
180,260,42002,6,0,P|216:280|248:288,1,75.0000028610231
324,160,42302,2,0,P|288:140|256:132,1,75.0000028610231
212,196,42602,2,0,P|248:216|280:224,1,75.0000028610231,8|0,0:0|0:0,0:0:0:0:
364,96,42902,2,0,P|328:76|296:68,2,75.0000028610231
404,160,43352,5,0,0:0:0:0:
412,180,43427,1,0,0:0:0:0:
412,204,43502,1,0,0:0:0:0:
344,284,43652,1,0,0:0:0:0:
296,192,43802,1,8,0:0:0:0:
256,288,43952,1,0,0:0:0:0:
196,204,44102,1,0,0:0:0:0:
240,108,44252,1,0,0:0:0:0:
112,84,44402,6,0,L|76:96,2,37.5000014305115
104,176,44702,1,0,0:0:0:0:
144,256,44852,1,0,0:0:0:0:
228,292,45002,1,12,0:0:0:0:
316,276,45152,1,0,0:0:0:0:
384,220,45302,1,0,0:0:0:0:
400,132,45452,1,0,0:0:0:0:
144,256,45602,6,0,L|112:296,2,50
160,136,45902,1,0,0:0:0:0:
252,216,46052,1,0,0:0:0:0:
268,96,46202,1,12,0:0:0:0:
352,180,46352,1,0,0:0:0:0:
376,64,46502,1,0,0:0:0:0:
448,160,46652,1,0,0:0:0:0:
112,96,46802,6,0,L|64:56,2,62.5
268,96,47102,1,0,0:0:0:0:
112,136,47252,1,0,0:0:0:0:
268,56,47402,1,12,0:0:0:0:
112,176,47552,1,0,0:0:0:0:
268,16,47702,1,0,0:0:0:0:
112,216,47852,1,0,0:0:0:0:
212,304,48002,6,0,L|212:276,8,25,0|0|0|0|0|0|0|0|0,0:0|0:0|0:0|0:0|0:0|0:0|0:0|0:0|0:0,0:0:0:0:
212,184,48452,1,8,0:0:0:0:
308,112,48602,1,8,0:0:0:0:
404,184,48752,1,8,0:0:0:0:
404,304,48902,1,8,0:0:0:0:
308,232,49052,1,8,0:0:0:0:
108,72,49202,5,4,0:0:0:0:
76,188,49352,1,0,0:0:0:0:
192,160,49502,1,8,0:0:0:0:
236,48,49652,2,0,P|284:140|308:232,1,200
192,260,50102,1,8,0:0:0:0:
272,348,50252,1,0,0:0:0:0:
308,232,50402,5,0,0:0:0:0:
220,96,50552,1,0,0:0:0:0:
112,212,50702,1,8,0:0:0:0:
112,212,50852,2,0,P|108:120|176:40,1,200
212,156,51302,1,8,0:0:0:0:
328,192,51452,1,0,0:0:0:0:
212,156,51602,5,0,0:0:0:0:
240,272,51752,1,0,0:0:0:0:
336,340,51902,2,0,P|436:332|484:252,1,200,8|0,0:0|0:0,0:0:0:0:
368,220,52352,1,0,0:0:0:0:
396,104,52502,2,0,P|296:112|248:192,1,200,8|0,0:0|0:0,0:0:0:0:
160,272,52952,1,0,0:0:0:0:
76,184,53102,2,0,P|100:140|96:88,2,100,8|0|0,0:0|0:0|0:0,0:0:0:0:
196,176,53552,1,0,0:0:0:0:
300,236,53702,1,8,0:0:0:0:
300,236,53852,2,0,L|384:292,2,100,0|4|0,0:0|0:0|0:0,0:0:0:0:
384,48,54302,6,0,L|184:48,1,200,8|0,0:0|0:0,0:0:0:0:
284,116,54752,1,0,0:0:0:0:
376,196,54902,2,0,P|280:232|192:200,1,200,8|0,0:0|0:0,0:0:0:0:
284,116,55352,1,0,0:0:0:0:
284,116,55502,2,0,L|284:316,1,200,8|0,0:0|0:0,0:0:0:0:
168,284,55952,2,0,P|120:264|88:228,2,100,0|8|0,0:0|0:0|0:0,0:0:0:0:
212,172,56402,5,4,0:0:0:0:
256,60,56552,1,0,0:0:0:0:
360,120,56702,1,8,0:0:0:0:
324,236,56852,1,0,0:0:0:0:
276,344,57002,1,0,0:0:0:0:
396,340,57152,2,0,L|496:340,1,100,0|8,0:0|0:0,0:0:0:0:
444,232,57452,1,0,0:0:0:0:
160,192,57602,5,4,0:0:0:0:
308,128,57752,1,0,0:0:0:0:
292,288,57902,1,8,0:0:0:0:
188,168,58052,5,0,0:0:0:0:
344,136,58202,1,0,0:0:0:0:
292,288,58352,1,0,0:0:0:0:
216,148,58502,5,8,0:0:0:0:
376,152,58652,1,0,0:0:0:0:
292,288,58802,5,4,0:0:0:0:
172,276,58952,1,0,0:0:0:0:
236,88,59102,1,8,0:0:0:0:
196,200,59252,2,0,P|96:208|16:268,1,200,4|0,0:0|0:0,0:0:0:0:
124,324,59702,1,8,0:0:0:0:
240,300,59852,1,0,0:0:0:0:
356,328,60002,5,0,0:0:0:0:
456,232,60152,1,0,0:0:0:0:
360,128,60302,1,8,0:0:0:0:
312,228,60452,2,0,P|216:224|124:176,1,200
240,144,60902,2,0,L|264:44,1,100,8|0,0:0|0:0,0:0:0:0:
240,144,61202,5,0,0:0:0:0:
124,176,61352,1,0,0:0:0:0:
192,276,61502,2,0,B|240:296|284:284|284:284|320:328|376:332,1,200,8|0,0:0|0:0,0:0:0:0:
328,220,61952,1,0,0:0:0:0:
192,164,62102,2,0,B|240:144|284:156|284:156|320:112|376:108,1,200,8|0,0:0|0:0,0:0:0:0:
328,220,62552,1,0,0:0:0:0:
208,220,62702,2,0,L|108:220,2,100,8|0|0,0:0|0:0|0:0,0:0:0:0:
88,220,63152,1,0,0:0:0:0:
116,104,63302,1,8,0:0:0:0:
276,56,63452,6,0,L|304:12,2,50
368,132,63752,1,0,0:0:0:0:
248,128,63902,1,8,0:0:0:0:
340,204,64052,1,0,0:0:0:0:
220,196,64202,1,0,0:0:0:0:
312,276,64352,1,0,0:0:0:0:
68,308,64502,6,0,L|56:208,1,100,8|0,0:0|0:0,0:0:0:0:
132,296,64802,2,0,L|160:200,1,100
196,308,65102,2,0,L|260:228,1,100,8|0,0:0|0:0,0:0:0:0:
248,344,65402,2,0,L|340:304,1,100
452,256,65702,1,8,0:0:0:0:
476,160,65852,1,0,0:0:0:0:
272,64,66002,6,0,L|196:128,1,100,4|0,0:0|0:0,0:0:0:0:
148,260,66302,2,0,L|220:192,1,100,12|0,0:0|0:0,0:0:0:0:
356,160,66602,2,0,L|280:224,1,100,4|0,0:0|0:0,0:0:0:0:
232,356,66902,2,0,L|304:288,1,100,12|0,0:0|0:0,0:0:0:0:
324,264,67127,1,0,0:0:0:0:
344,240,67202,1,4,0:0:0:0:
164,132,67352,5,0,0:0:0:0:
264,64,67502,1,8,0:0:0:0:
288,180,67652,1,0,0:0:0:0:
288,180,67727,1,0,0:0:0:0:
288,180,67802,1,0,0:0:0:0:
184,244,67952,1,0,0:0:0:0:
88,172,68102,1,8,0:0:0:0:
184,244,68252,1,8,0:0:0:0:
284,308,68402,5,4,0:0:0:0:
284,308,68477,1,0,0:0:0:0:
284,308,68552,1,0,0:0:0:0:
384,320,68702,2,0,L|436:324,2,50
344,228,69002,1,8,0:0:0:0:
412,156,69152,2,0,L|464:160,2,50
312,136,69452,1,0,0:0:0:0:
312,136,69527,1,0,0:0:0:0:
312,136,69602,1,0,0:0:0:0:
236,204,69752,2,0,L|140:176,1,100
140,176,69977,1,0,0:0:0:0:
140,176,70052,1,0,0:0:0:0:
256,328,70202,5,0,0:0:0:0:
254,57,70802,6,0,L|254:7,2,50,4|0|0,0:0|0:0|0:0,0:0:0:0:
160,92,71102,1,0,0:0:0:0:
160,92,71177,1,0,0:0:0:0:
160,92,71252,1,0,0:0:0:0:
98,170,71402,1,8,0:0:0:0:
156,252,71552,1,0,0:0:0:0:
156,252,71627,1,0,0:0:0:0:
156,252,71702,1,0,0:0:0:0:
250,287,71852,2,0,L|250:337,2,50,0|0|0,0:0|0:0|0:0,0:0:0:0:
368,168,72152,5,0,0:0:0:0:
300,92,72302,1,0,0:0:0:0:
416,172,72452,1,0,0:0:0:0:
204,192,72602,5,8,0:0:0:0:
44,192,72752,1,0,0:0:0:0:
128,248,72902,1,0,0:0:0:0:
64,100,73052,1,0,0:0:0:0:
256,36,73202,6,0,L|308:28,2,50
256,136,73502,2,0,L|204:128,2,50
344,88,73802,1,8,0:0:0:0:
256,240,73952,2,0,L|208:228,2,50
256,340,74252,2,0,L|308:332,2,50
172,288,74552,5,0,0:0:0:0:
128,200,74702,1,0,0:0:0:0:
224,72,74852,1,0,0:0:0:0:
324,84,75002,5,8,0:0:0:0:
432,132,75152,1,0,0:0:0:0:
308,196,75302,1,0,0:0:0:0:
448,276,75452,1,0,0:0:0:0:
256,192,75602,6,0,L|220:228,2,50
348,232,75902,1,0,0:0:0:0:
340,260,75977,1,0,0:0:0:0:
320,284,76052,1,0,0:0:0:0:
336,132,76202,1,8,0:0:0:0:
252,72,76352,2,0,L|200:72,2,50
340,20,76652,1,0,0:0:0:0:
368,28,76727,1,0,0:0:0:0:
396,40,76802,1,0,0:0:0:0:
336,132,76952,5,0,0:0:0:0:
256,140,77102,1,0,0:0:0:0:
176,148,77252,1,0,0:0:0:0:
292,260,77402,5,8,0:0:0:0:
208,80,77552,1,0,0:0:0:0:
204,260,77702,1,0,0:0:0:0:
292,80,77852,1,0,0:0:0:0:
372,156,78002,6,0,L|440:232,1,100,4|0,0:0|0:0,0:0:0:0:
320,212,78302,2,0,L|220:192,1,100
144,100,78602,2,0,L|108:196,1,100,8|0,0:0|0:0,0:0:0:0:
40,292,78902,2,0,L|136:328,1,100
204,228,79202,2,0,L|280:156,1,100
364,48,79502,1,0,0:0:0:0:
224,64,79652,1,0,0:0:0:0:
340,144,79802,1,8,0:0:0:0:
292,24,79952,6,2,B|300:36|300:36|288:44|288:44|300:56|300:56|288:64|288:64|300:76|300:76|288:84|288:84|300:96|300:96|288:104|288:104|300:116|300:116|288:124|288:124|300:136|300:136|288:144|288:144|300:156|300:156|288:163|288:163|300:176|300:176|288:184|288:184|300:196|300:196|288:204|288:204|300:216|300:216|288:224|288:224|296:236,1,300,2|0,0:0|0:0,0:0:0:0:
297,217,80477,1,0,0:0:0:0:
297,217,80552,1,0,0:0:0:0:
136,128,82802,5,4,0:0:0:0:
164,112,82877,1,0,0:0:0:0:
192,108,82952,1,0,0:0:0:0:
220,112,83027,1,0,0:0:0:0:
244,128,83102,2,0,P|268:156|288:188,2,75.0000028610231,0|0|8,0:0|0:0|0:0,0:0:0:0:
152,204,83702,1,0,0:0:0:0:
92,216,83852,1,0,0:0:0:0:
132,260,84002,2,0,P|164:276|204:276,1,75.0000028610231
332,196,84302,6,0,P|300:180|260:180,1,75.0000028610231,0|0,0:0|0:0,0:0:0:0:
288,328,84602,2,0,P|320:344|360:344,1,75.0000028610231,8|0,0:0|0:0,0:0:0:0:
424,304,84902,2,0,P|464:240|472:168,1,150.000005722046,0|4,0:0|0:0,0:0:0:0:
460,148,85277,5,0,0:0:0:0:
448,128,85352,1,0,0:0:0:0:
432,112,85427,1,0,0:0:0:0:
412,100,85502,2,0,B|360:96|360:96|344:96|300:80|268:116,1,150.000005722046,0|8,0:0|0:0,0:0:0:0:
120,152,86102,5,0,0:0:0:0:
88,220,86252,1,0,0:0:0:0:
204,192,86402,1,0,0:0:0:0:
196,268,86552,1,0,0:0:0:0:
300,204,86702,1,0,0:0:0:0:
320,276,86852,1,0,0:0:0:0:
392,180,87002,1,8,0:0:0:0:
444,232,87152,1,0,0:0:0:0:
256,96,87302,6,0,L|256:20,1,75.0000028610231
256,96,87602,2,0,P|188:128|152:192,1,150.000005722046
84,272,88052,1,0,0:0:0:0:
152,191,88202,2,0,P|224:204|284:252,1,150.000005722046,8|0,0:0|0:0,0:0:0:0:
360,56,88802,5,0,0:0:0:0:
392,188,88952,1,0,0:0:0:0:
292,96,89102,1,0,0:0:0:0:
428,96,89252,1,0,0:0:0:0:
332,188,89402,2,2,B|320:196|320:196|324:208|324:208|312:216|312:216|316:228|316:228|304:236|304:236|308:248|308:248|296:256|296:256|300:268|300:268|288:276|288:276|292:288|292:288|280:296,1,150.000005722046,10|0,0:0|0:0,0:0:0:0:
72,124,90002,5,4,0:0:0:0:
92,112,90077,1,0,0:0:0:0:
116,108,90152,1,0,0:0:0:0:
140,108,90227,1,0,0:0:0:0:
160,116,90302,2,0,P|216:152|236:232,1,150.000005722046,0|8,0:0|0:0,0:0:0:0:
388,120,90902,6,8,L|352:188,1,75.0000028610231,0|0,0:0|0:0,0:0:0:0:
252,252,91202,1,0,0:0:0:0:
180,232,91352,1,0,0:0:0:0:
140,120,91502,2,0,L|176:52,1,75.0000028610231
256,144,91802,5,8,0:0:0:0:
132,200,91952,1,0,0:0:0:0:
256,144,92102,1,0,0:0:0:0:
308,268,92252,1,0,0:0:0:0:
188,328,92402,5,4,0:0:0:0:
168,320,92477,1,0,0:0:0:0:
148,308,92552,1,0,0:0:0:0:
128,296,92627,1,0,0:0:0:0:
112,280,92702,2,0,P|68:216|76:148,1,150.000005722046,0|8,0:0|0:0,0:0:0:0:
256,192,93302,5,0,0:0:0:0:
332,192,93452,1,0,0:0:0:0:
332,192,93602,2,0,L|408:192,2,75.0000028610231
180,192,94052,2,0,L|104:192,1,75.0000028610231,0|8,0:0|0:0,0:0:0:0:
180,192,94352,6,2,B|200:160|256:28|308:160|332:192,1,225.000008583069,2|4,0:0|0:0,0:0:0:0:
336,212,94877,1,0,0:0:0:0:
340,232,94952,1,0,0:0:0:0:
344,256,95027,1,0,0:0:0:0:
348,280,95102,2,0,P|280:320|208:320,1,150.000005722046,0|8,0:0|0:0,0:0:0:0:
152,88,95702,5,0,0:0:0:0:
108,152,95852,2,0,P|92:192|92:228,2,75.0000028610231
152,88,96302,1,0,0:0:0:0:
188,152,96452,1,0,0:0:0:0:
256,252,96602,5,8,0:0:0:0:
292,188,96752,1,0,0:0:0:0:
352,256,96902,1,0,0:0:0:0:
396,160,97052,1,0,0:0:0:0:
312,72,97202,6,0,L|284:48,2,37.5000014305115
256,180,97502,2,0,L|224:204,2,37.5000014305115
176,88,97802,2,0,L|148:64,2,37.5000014305115,8|0|0,0:0|0:0|0:0,0:0:0:0:
112,192,98102,1,8,0:0:0:0:
256,336,98252,1,4,0:0:0:0:
400,192,98402,6,0,P|392:228|368:256,1,75.0000028610231,2|2,0:0|0:0,0:0:0:0:
112,192,98702,2,0,P|120:156|144:128,1,75.0000028610231,2|0,0:0|0:0,0:0:0:0:
256,336,99002,2,0,P|220:328|192:304,1,75.0000028610231,2|0,0:0|0:0,0:0:0:0:
256,48,99302,2,0,P|292:56|320:80,1,75.0000028610231,2|2,0:0|0:0,0:0:0:0:
256,192,99602,5,4,0:0:0:0:
256,192,99677,1,0,0:0:0:0:
256,192,99752,1,0,0:0:0:0:
184,120,99902,2,0,L|152:80,2,50
152,216,100202,1,8,0:0:0:0:
52,236,100352,1,0,0:0:0:0:
52,236,100427,1,0,0:0:0:0:
52,236,100502,1,0,0:0:0:0:
120,312,100652,2,0,L|152:352,2,50
212,276,100952,5,0,0:0:0:0:
308,148,101102,1,0,0:0:0:0:
152,116,101252,1,0,0:0:0:0:
272,220,101402,5,8,0:0:0:0:
348,80,101552,1,0,0:0:0:0:
228,188,101702,1,0,0:0:0:0:
376,124,101852,1,0,0:0:0:0:
216,140,102002,5,0,0:0:0:0:
208,112,102077,1,0,0:0:0:0:
212,84,102152,1,0,0:0:0:0:
384,172,102302,1,0,0:0:0:0:
396,200,102377,1,0,0:0:0:0:
392,228,102452,1,0,0:0:0:0:
304,156,102602,1,8,0:0:0:0:
372,48,102752,2,0,L|320:48,2,50
236,260,103052,2,0,L|288:260,2,50
80,180,103352,5,0,0:0:0:0:
100,60,103502,1,0,0:0:0:0:
208,112,103652,1,0,0:0:0:0:
192,304,103802,5,8,0:0:0:0:
332,288,103952,1,0,0:0:0:0:
256,352,104102,1,0,0:0:0:0:
296,216,104252,1,0,0:0:0:0:
324,56,104402,6,0,L|372:32,2,50
220,224,104702,2,0,L|180:256,2,50
272,140,105002,1,8,0:0:0:0:
188,84,105152,2,0,L|140:72,2,50
360,188,105452,2,0,L|408:208,2,50
272,140,105752,5,0,0:0:0:0:
292,44,105902,1,0,0:0:0:0:
264,180,106052,1,0,0:0:0:0:
100,204,106202,6,0,L|68:108,1,100,8|0,0:0|0:0,0:0:0:0:
128,260,106502,2,0,L|192:336,1,100
396,120,106802,6,0,L|308:168,1,100,4|0,0:0|0:0,0:0:0:0:
204,208,107102,1,0,0:0:0:0:
128,112,107252,2,0,L|200:40,1,100,0|8,0:0|0:0,0:0:0:0:
324,80,107552,1,0,0:0:0:0:
372,212,107702,2,0,L|272:236,1,100
132,276,108002,2,0,L|68:200,2,100
288,316,108452,2,0,L|388:300,1,100,0|8,0:0|0:0,0:0:0:0:
400,128,108752,6,2,P|316:72|220:64,1,200,2|0,0:0|0:0,0:0:0:0:
192,80,109127,1,0,0:0:0:0:
172,104,109202,1,0,0:0:0:0:
168,132,109277,1,0,0:0:0:0:
172,160,109352,2,0,P|176:212|144:244,1,100
84,164,109652,1,0,0:0:0:0:
120,72,109802,6,0,P|188:44|264:40,1,150.000005722046,8|0,0:0|0:0,0:0:0:0:
264,116,110252,1,0,0:0:0:0:
324,160,110402,2,0,P|356:176|380:208,2,75.0000028610231,0|0|0,0:0|0:0|0:0,0:0:0:0:
288,228,110852,2,0,P|264:256|228:272,1,75.0000028610231,0|8,0:0|0:0,0:0:0:0:
156,256,111152,1,0,0:0:0:0:
156,256,111227,1,0,0:0:0:0:
156,256,111302,1,0,0:0:0:0:
100,168,111452,1,0,0:0:0:0:
204,176,111602,6,0,L|236:196,2,37.5000014305115
196,88,111902,1,0,0:0:0:0:
284,108,112052,1,0,0:0:0:0:
348,48,112202,1,8,0:0:0:0:
388,128,112352,1,0,0:0:0:0:
468,168,112502,2,0,P|456:204|432:236,2,75.0000028610231
332,192,112952,5,0,0:0:0:0:
304,188,113027,1,0,0:0:0:0:
276,192,113102,1,0,0:0:0:0:
300,280,113252,1,0,0:0:0:0:
232,336,113402,2,0,L|260:360,2,37.5000014305115,8|0|0,0:0|0:0|0:0,0:0:0:0:
204,248,113702,1,0,0:0:0:0:
132,196,113852,1,0,0:0:0:0:
300,56,114002,6,0,L|336:64,2,37.5000014305115,0|0|0,0:0|0:0|0:0,0:0:0:0:
212,68,114302,1,0,0:0:0:0:
132,112,114452,1,0,0:0:0:0:
212,152,114602,1,12,0:0:0:0:
300,136,114752,1,0,0:0:0:0:
388,160,114902,1,0,0:0:0:0:
324,220,115052,1,0,0:0:0:0:
136,296,115202,6,0,L|92:320,2,50
248,340,115502,1,0,0:0:0:0:
220,224,115652,1,0,0:0:0:0:
184,340,115802,1,12,0:0:0:0:
288,284,115952,1,0,0:0:0:0:
280,164,116102,1,0,0:0:0:0:
168,120,116252,1,0,0:0:0:0:
412,308,116402,6,0,L|464:344,2,62.5
288,224,116702,1,0,0:0:0:0:
428,256,116852,1,0,0:0:0:0:
272,276,117002,1,12,0:0:0:0:
444,204,117152,1,0,0:0:0:0:
256,328,117302,1,0,0:0:0:0:
460,152,117452,1,0,0:0:0:0:
360,228,117602,6,0,L|356:252,8,25
280,112,118052,1,8,0:0:0:0:
408,168,118202,1,8,0:0:0:0:
268,184,118352,1,8,0:0:0:0:
380,100,118502,1,8,0:0:0:0:
328,232,118652,1,8,0:0:0:0:
320,48,118802,5,4,0:0:0:0:
200,40,118952,1,0,0:0:0:0:
140,144,119102,1,8,0:0:0:0:
32,196,119252,2,0,P|124:240|220:232,1,200
256,348,119702,1,8,0:0:0:0:
368,300,119852,1,0,0:0:0:0:
388,80,120002,5,0,0:0:0:0:
408,200,120152,1,0,0:0:0:0:
324,284,120302,1,8,0:0:0:0:
204,296,120452,2,0,P|116:280|32:212,1,200
152,200,120902,1,8,0:0:0:0:
220,100,121052,2,0,L|268:12,2,100
284,216,121502,6,0,P|384:232|460:296,1,200,8|0,0:0|0:0,0:0:0:0:
256,324,121952,1,0,0:0:0:0:
228,216,122102,2,0,P|128:232|52:296,1,200,8|0,0:0|0:0,0:0:0:0:
256,324,122552,1,0,0:0:0:0:
256,204,122702,1,8,0:0:0:0:
256,84,122852,2,0,P|272:32|308:8,2,100
148,140,123302,1,8,0:0:0:0:
64,224,123452,1,0,0:0:0:0:
148,312,123602,5,4,0:0:0:0:
256,260,123752,1,0,0:0:0:0:
192,364,123902,2,0,P|292:352|372:296,1,200,8|0,0:0|0:0,0:0:0:0:
256,260,124352,1,0,0:0:0:0:
308,152,124502,2,0,P|208:164|128:220,1,200,8|0,0:0|0:0,0:0:0:0:
192,120,124952,1,0,0:0:0:0:
308,84,125102,1,8,0:0:0:0:
400,160,125252,2,0,P|412:208|440:252,2,100
308,84,125702,2,0,P|296:132|264:172,1,100,8|0,0:0|0:0,0:0:0:0:
96,284,126002,5,4,0:0:0:0:
172,192,126152,1,0,0:0:0:0:
248,284,126302,1,8,0:0:0:0:
172,168,126452,1,0,0:0:0:0:
84,304,126602,1,0,0:0:0:0:
172,148,126752,1,0,0:0:0:0:
256,308,126902,2,0,L|356:308,1,100,8|0,0:0|0:0,0:0:0:0:
160,72,127202,5,4,0:0:0:0:
92,192,127352,1,0,0:0:0:0:
164,312,127502,1,8,0:0:0:0:
256,192,127652,1,0,0:0:0:0:
256,192,127802,1,0,0:0:0:0:
352,72,127952,1,0,0:0:0:0:
420,192,128102,1,8,0:0:0:0:
348,312,128252,1,0,0:0:0:0:
256,192,128402,5,4,0:0:0:0:
148,140,128552,1,0,0:0:0:0:
268,120,128702,1,8,0:0:0:0:
184,208,128852,2,0,P|256:276|348:312,1,200,4|0,0:0|0:0,0:0:0:0:
312,196,129302,1,8,0:0:0:0:
400,116,129452,1,0,0:0:0:0:
392,236,129602,1,0,0:0:0:0:
332,132,129752,5,0,0:0:0:0:
240,56,129902,1,8,0:0:0:0:
128,100,130052,2,0,P|112:204|144:292,1,200
32,244,130502,1,8,0:0:0:0:
144,200,130652,1,0,0:0:0:0:
220,108,130802,6,0,P|272:108|316:128,1,100
272,240,131102,2,0,P|368:228|436:156,1,200,8|0,0:0|0:0,0:0:0:0:
272,240,131552,1,0,0:0:0:0:
228,128,131702,2,0,P|132:140|64:212,1,200,8|0,0:0|0:0,0:0:0:0:
228,128,132152,1,0,0:0:0:0:
248,8,132302,2,0,P|208:92|224:196,1,200,8|0,0:0|0:0,0:0:0:0:
116,252,132752,1,0,0:0:0:0:
216,316,132902,1,8,0:0:0:0:
224,196,133052,6,0,L|268:164,2,50
132,120,133352,1,0,0:0:0:0:
244,72,133502,1,8,0:0:0:0:
344,136,133652,1,0,0:0:0:0:
348,256,133802,1,0,0:0:0:0:
240,312,133952,1,0,0:0:0:0:
36,204,134102,6,0,L|132:176,1,100,8|0,0:0|0:0,0:0:0:0:
180,288,134402,2,0,L|284:292,1,100
248,136,134702,2,0,L|348:88,1,100,8|0,0:0|0:0,0:0:0:0:
408,280,135002,2,0,L|508:284,2,100,0|0|8,0:0|0:0|0:0,0:0:0:0:
408,280,135452,1,0,0:0:0:0:
256,192,135602,6,0,P|220:156|172:152,1,100,4|0,0:0|0:0,0:0:0:0:
256,192,135902,2,0,P|292:156|296:108,1,100,12|0,0:0|0:0,0:0:0:0:
256,192,136202,2,0,P|292:228|340:232,1,100,4|0,0:0|0:0,0:0:0:0:
256,192,136502,2,0,P|220:228|216:276,1,100,12|0,0:0|0:0,0:0:0:0:
120,252,136802,6,0,L|96:244,4,25,4|0|0|0|0,0:0|0:0|0:0|0:0|0:0,0:0:0:0:
92,136,137102,1,8,0:0:0:0:
124,100,137177,1,0,0:0:0:0:
172,84,137252,1,0,0:0:0:0:
220,88,137327,1,0,0:0:0:0:
264,116,137402,1,0,0:0:0:0:
288,160,137477,1,0,0:0:0:0:
288,208,137552,1,0,0:0:0:0:
268,252,137627,1,0,0:0:0:0:
228,280,137702,1,8,0:0:0:0:
228,328,137777,1,0,0:0:0:0:
272,352,137852,1,0,0:0:0:0:
320,340,137927,1,0,0:0:0:0:
352,300,138002,1,4,0:0:0:0:
396,192,145202,6,0,L|408:168,4,25
304,192,145502,1,8,0:0:0:0:
224,232,145652,1,0,0:0:0:0:
152,176,145802,2,0,L|104:156,2,50,8|0|0,0:0|0:0|0:0,0:0:0:0:
232,132,146102,1,8,0:0:0:0:
232,132,146252,1,4,0:0:0:0:
240,320,146477,5,0,0:0:0:0:
240,320,146552,1,0,0:0:0:0:
240,320,146627,1,0,0:0:0:0:
240,320,146702,1,0,0:0:0:0:
356,288,146852,1,0,0:0:0:0:
264,212,147002,1,8,0:0:0:0:
380,184,147152,1,0,0:0:0:0:
288,104,147302,1,8,0:0:0:0:
404,68,147452,1,8,0:0:0:0:
80,188,147602,6,0,P|116:148|160:128,2,100,4|0|0,0:0|0:0|0:0,0:0:0:0:
240,320,148202,5,8,0:0:0:0:
312,252,148352,1,0,0:0:0:0:
364,336,148502,1,0,0:0:0:0:
312,252,148652,1,0,0:0:0:0:
276,160,148802,1,0,0:0:0:0:
376,168,148952,2,0,P|420:156|460:112,1,100
200,68,149402,5,8,0:0:0:0:
200,68,149552,1,0,0:0:0:0:
104,192,149852,6,0,P|132:232|180:256,2,100,0|4|0,0:0|0:0|0:0,0:0:0:0:
200,164,150302,1,0,0:0:0:0:
408,272,150602,5,8,0:0:0:0:
356,188,150752,1,0,0:0:0:0:
312,276,150902,1,0,0:0:0:0:
312,276,151052,2,0,P|216:304|116:288,1,200,0|0,0:0|0:0,0:0:0:0:
80,196,151502,1,0,0:0:0:0:
176,216,151652,1,0,0:0:0:0:
148,120,151802,1,8,0:0:0:0:
228,180,151952,1,0,0:0:0:0:
240,80,152102,1,0,0:0:0:0:
288,176,152252,1,0,0:0:0:0:
452,128,152402,6,0,P|448:180|416:212,2,100,4|0|0,0:0|0:0|0:0,0:0:0:0:
116,192,153002,6,0,P|124:248|152:284,2,100,8|0|0,0:0|0:0|0:0,0:0:0:0:
212,212,153452,1,0,0:0:0:0:
308,232,153602,2,0,P|300:176|272:140,2,100
256,36,154202,5,8,0:0:0:0:
256,36,154352,1,0,0:0:0:0:
88,192,154652,6,0,P|88:240|112:288,1,100
132,304,154877,1,0,0:0:0:0:
160,316,154952,1,0,0:0:0:0:
188,320,155027,1,0,0:0:0:0:
216,320,155102,1,0,0:0:0:0:
244,316,155177,1,0,0:0:0:0:
272,308,155252,1,0,0:0:0:0:
300,296,155327,1,0,0:0:0:0:
324,280,155402,1,0,0:0:0:0:
344,256,155477,1,0,0:0:0:0:
360,232,155552,1,0,0:0:0:0:
372,204,155627,1,0,0:0:0:0:
376,176,155702,6,0,P|384:152|384:128,3,50
380,96,156002,6,0,L|368:48,1,50,0|0,0:0|0:0,0:0:0:0:
344,68,156152,2,0,L|320:24,1,50,0|0,0:0|0:0,0:0:0:0:
304,52,156302,2,0,L|268:16,1,50,0|0,0:0|0:0,0:0:0:0:
260,44,156452,2,0,L|212:32,1,50
184,40,156602,1,0,0:0:0:0:
160,60,156677,1,0,0:0:0:0:
140,84,156752,1,0,0:0:0:0:
128,112,156827,1,0,0:0:0:0:
124,140,156902,1,0,0:0:0:0:
124,168,156977,1,0,0:0:0:0:
128,196,157052,1,0,0:0:0:0:
144,224,157127,1,0,0:0:0:0:
168,240,157202,5,0,0:0:0:0:
268,236,157352,1,0,0:0:0:0:
316,324,157502,1,0,0:0:0:0:
416,316,157652,1,0,0:0:0:0:
444,220,157802,1,8,0:0:0:0:
264,76,158102,6,0,P|228:112|208:164,2,100
392,76,158552,2,0,P|428:112|448:164,1,100
352,192,158852,5,0,0:0:0:0:
364,292,159002,2,0,P|316:316|268:332,1,100,8|0,0:0|0:0,0:0:0:0:
244,336,159227,1,0,0:0:0:0:
216,332,159302,2,0,P|172:316|128:288,1,100
256,148,159602,6,0,L|292:184,2,50
172,96,159902,1,0,0:0:0:0:
148,192,160052,1,0,0:0:0:0:
64,140,160202,1,8,0:0:0:0:
256,256,160502,6,0,L|300:284,3,50
328,288,160802,1,0,0:0:0:0:
356,284,160877,1,0,0:0:0:0:
380,268,160952,1,0,0:0:0:0:
400,244,161027,1,0,0:0:0:0:
416,220,161102,1,0,0:0:0:0:
424,192,161177,1,0,0:0:0:0:
420,164,161252,1,0,0:0:0:0:
408,136,161327,1,0,0:0:0:0:
384,116,161402,1,8,0:0:0:0:
356,104,161477,1,0,0:0:0:0:
328,96,161552,1,0,0:0:0:0:
296,96,161627,1,0,0:0:0:0:
268,104,161702,6,0,L|224:128,2,50
140,160,162002,1,0,0:0:0:0:
96,28,162152,1,0,0:0:0:0:
140,160,162302,1,0,0:0:0:0:
64,276,162452,1,0,0:0:0:0:
196,328,162602,1,8,0:0:0:0:
408,244,162902,5,0,0:0:0:0:
392,144,163052,1,0,0:0:0:0:
316,208,163202,2,0,L|216:220,1,100,0|0,0:0|0:0,0:0:0:0:
96,64,163652,5,0,0:0:0:0:
96,64,163802,2,0,L|200:172,1,150,12|4,0:0|0:0,0:0:0:0:
372,68,164252,1,4,0:0:0:0:
372,68,164402,2,0,P|304:136|256:232,1,200,4|0,0:0|0:0,0:0:0:0:
160,208,164852,2,0,L|60:200,1,100,0|8,0:0|0:0,0:0:0:0:
124,124,165152,1,0,0:0:0:0:
256,76,165302,5,0,0:0:0:0:
224,112,165377,1,0,0:0:0:0:
212,160,165452,1,0,0:0:0:0:
216,208,165527,1,0,0:0:0:0:
236,256,165602,1,0,0:0:0:0:
272,292,165677,1,0,0:0:0:0:
320,308,165752,1,0,0:0:0:0:
368,296,165827,1,0,0:0:0:0:
412,272,165902,1,0,0:0:0:0:
436,228,165977,1,0,0:0:0:0:
436,180,166052,1,0,0:0:0:0:
412,136,166127,1,0,0:0:0:0:
368,108,166202,1,0,0:0:0:0:
320,108,166277,1,0,0:0:0:0:
280,140,166352,1,0,0:0:0:0:
268,188,166427,1,0,0:0:0:0:
292,232,166502,2,0,P|316:240|344:240,3,50
348,180,166802,5,4,0:0:0:0:
244,56,166952,1,0,0:0:0:0:
156,136,167102,1,8,0:0:0:0:
68,56,167252,2,0,P|40:136|92:232,1,200
200,352,167702,1,8,0:0:0:0:
308,296,167852,1,0,0:0:0:0:
428,308,168002,6,0,P|464:272|472:220,1,100
420,116,168302,1,8,0:0:0:0:
380,228,168452,2,0,P|316:180|304:64,1,200
268,184,168902,1,8,0:0:0:0:
176,104,169052,1,0,0:0:0:0:
80,240,169202,6,0,L|80:344,1,100,0|0,0:0|0:0,0:0:0:0:
200,332,169502,2,0,P|160:240|176:144,1,200,8|0,0:0|0:0,0:0:0:0:
284,52,169952,1,0,0:0:0:0:
424,28,170102,6,8,P|464:120|448:216,1,200,8|0,0:0|0:0,0:0:0:0:
312,296,170552,1,0,0:0:0:0:
152,308,170702,2,0,P|112:276|96:228,1,100,8|0,0:0|0:0,0:0:0:0:
160,136,171002,1,0,0:0:0:0:
232,232,171152,1,0,0:0:0:0:
312,140,171302,1,8,0:0:0:0:
372,244,171452,1,0,0:0:0:0:
460,132,171602,6,0,P|448:84|416:44,1,100,4|0,0:0|0:0,0:0:0:0:
460,132,171902,2,0,P|372:184|308:256,1,200,8|0,0:0|0:0,0:0:0:0:
240,184,172352,1,0,0:0:0:0:
307,256,172502,2,0,P|224:316|132:352,1,200,8|0,0:0|0:0,0:0:0:0:
96,260,172952,1,0,0:0:0:0:
20,164,173102,2,0,P|52:124|96:100,1,100,8|0,0:0|0:0,0:0:0:0:
208,144,173402,2,0,P|176:184|132:208,1,100
144,88,173702,2,0,P|176:48|220:24,1,100,8|0,0:0|0:0,0:0:0:0:
336,208,174002,6,0,P|336:260|356:308,1,100,4|0,0:0|0:0,0:0:0:0:
176,208,174302,2,0,P|176:260|156:308,1,100,8|0,0:0|0:0,0:0:0:0:
320,116,174602,2,0,P|344:160|336:208,1,100
192,116,174902,2,0,P|168:160|176:208,1,100,8|0,0:0|0:0,0:0:0:0:
136,72,175202,5,4,0:0:0:0:
376,72,175352,1,0,0:0:0:0:
376,312,175502,1,8,0:0:0:0:
136,312,175652,1,0,0:0:0:0:
256,116,175802,1,0,0:0:0:0:
256,316,175952,6,0,L|256:340,11,25
256,256,176402,5,4,0:0:0:0:
388,180,176552,1,0,0:0:0:0:
304,56,176702,1,8,0:0:0:0:
180,136,176852,2,0,P|120:236|168:352,1,250,4|0,0:0|0:0,0:0:0:0:
180,136,177302,2,0,P|236:172|292:180,1,125,8|0,0:0|0:0,0:0:0:0:
456,40,177602,5,0,0:0:0:0:
440,188,177752,1,0,0:0:0:0:
292,180,177902,1,8,0:0:0:0:
296,328,178052,2,0,P|168:324|72:256,1,250
296,328,178502,2,0,P|264:272|256:212,1,125,8|0,0:0|0:0,0:0:0:0:
116,56,178802,5,0,0:0:0:0:
116,56,178877,1,0,0:0:0:0:
116,56,178952,1,0,0:0:0:0:
100,204,179102,2,0,P|144:248|200:276,1,125,8|0,0:0|0:0,0:0:0:0:
468,140,179402,2,0,P|424:96|368:68,1,125,0|0,0:0|0:0,0:0:0:0:
220,84,179702,1,8,0:0:0:0:
204,232,179852,1,0,0:0:0:0:
352,220,180002,6,0,P|316:168|256:160,1,125
156,272,180302,2,0,P|192:324|252:332,1,125,8|0,0:0|0:0,0:0:0:0:
352,220,180602,2,0,L|368:96,1,125
220,84,180902,2,0,L|200:208,1,125,8|0,0:0|0:0,0:0:0:0:
200,207,181127,5,0,0:0:0:0:
200,207,181202,1,0,0:0:0:0:
264,344,181352,1,0,0:0:0:0:
412,312,181502,2,0,L|488:212,2,125,8|0|0,0:0|0:0|0:0,0:0:0:0:
264,344,181952,1,0,0:0:0:0:
264,344,182027,1,0,0:0:0:0:
264,344,182102,6,0,P|200:344|144:324,1,125,8|0,0:0|0:0,0:0:0:0:
248,40,182402,2,0,P|312:40|368:60,1,125
104,200,182702,2,0,P|104:136|124:80,1,125,8|0,0:0|0:0,0:0:0:0:
408,184,183002,2,0,P|408:248|388:304,2,125,0|0|8,0:0|0:0|0:0,0:0:0:0:
272,120,183452,1,0,0:0:0:0:
256,308,183602,5,4,0:0:0:0:
256,308,183677,1,0,0:0:0:0:
256,308,183752,1,0,0:0:0:0:
372,192,183902,5,12,0:0:0:0:
372,192,183977,1,0,0:0:0:0:
372,192,184052,1,0,0:0:0:0:
256,76,184202,5,4,0:0:0:0:
256,76,184277,1,0,0:0:0:0:
256,76,184352,1,0,0:0:0:0:
140,192,184502,5,12,0:0:0:0:
140,192,184577,1,0,0:0:0:0:
140,192,184652,1,0,0:0:0:0:
256,192,184802,6,0,L|256:128,2,62.5,12|8|8,0:0|0:0|0:0,0:0:0:0:
252,228,185027,1,0,0:0:0:0:
236,260,185102,1,8,0:0:0:0:
88,260,185252,2,0,L|60:316,2,62.5,8|8|8,0:0|0:0|0:0,0:0:0:0:
120,112,185552,1,8,0:0:0:0:
268,128,185702,1,8,0:0:0:0:
304,136,185777,1,8,0:0:0:0:
340,148,185852,1,8,0:0:0:0:
376,164,185927,1,0,0:0:0:0:
396,184,186002,6,0,L|428:224,2,50,4|0|0,0:0|0:0|0:0,0:0:0:0:
324,252,186302,2,0,L|316:304,2,50,0|0|0,0:0|0:0|0:0,0:0:0:0:
244,192,186602,2,0,P|192:200|148:184,1,100,8|0,0:0|0:0,0:0:0:0:
124,164,186827,1,0,0:0:0:0:
112,136,186902,1,0,0:0:0:0:
208,108,187052,2,0,L|232:64,2,50
264,24,187352,2,0,P|316:16|360:32,1,100,0|0,0:0|0:0,0:0:0:0:
384,52,187577,1,0,0:0:0:0:
396,80,187652,1,0,0:0:0:0:
244,316,187802,5,8,0:0:0:0:
