osu file format v14

[General]
AudioFilename: Afterlife.mp3
AudioLeadIn: 0
PreviewTime: 99293
Countdown: 1
SampleSet: Soft
StackLeniency: 0.7
Mode: 0
LetterboxInBreaks: 1
WidescreenStoryboard: 0

[Editor]
DistanceSpacing: 2
BeatDivisor: 4
GridSize: 8
TimelineZoom: 1.7

[Metadata]
Title:Afterlife
TitleUnicode:Afterlife
Artist:Amaranthe
ArtistUnicode:Amaranthe
Creator:NyaKame
Version:Everlasting
Source:The Nexus Album
Tags:Melodic Power Metal Metalcore
BeatmapID:1200106
BeatmapSetID:566532

[Difficulty]
HPDrainRate:5
CircleSize:4
OverallDifficulty:8.2
ApproachRate:10
SliderMultiplier:1.7
SliderTickRate:1

[Events]
//Background and Video events
0,0,"everlasting.jpg",0,0
//Break Periods
2,73590,74696
2,163736,167184
//Storyboard Layer 0 (Background)
//Storyboard Layer 1 (Fail)
//Storyboard Layer 2 (Pass)
//Storyboard Layer 3 (Foreground)
//Storyboard Sound Samples

[TimingPoints]
220,292.682926829268,4,2,0,100,1,0
220,-100,4,2,0,100,0,0
19683,-125,4,2,0,100,0,0
33439,-111.111111111111,4,2,0,100,0,0
38268,-100,4,2,0,100,0,0
46317,-133.333333333333,4,2,0,100,0,0
47049,-86.9565217391303,4,2,0,100,0,1
64024,-100,4,2,0,100,0,0
82756,-125,4,2,0,100,0,0
92122,-100,4,2,0,100,0,0
99146,-83.3333333333333,4,2,0,100,0,1
119049,-133.333333333333,4,2,0,100,0,0
126073,-100,4,2,0,100,0,0
156512,-90.9090909090909,4,2,0,100,0,0
167634,-100,4,2,0,100,0,0
172902,-76.9230769230769,4,2,0,100,0,1
182268,-90.9090909090909,4,2,0,100,0,0

[Colours]
Combo1 : 26,116,242
Combo2 : 255,128,64
Combo3 : 255,128,128
Combo4 : 23,209,116
Combo5 : 226,45,124

[HitObjects]
96,144,220,5,0,0:0:0:0:
104,168,293,1,0,0:0:0:0:
112,184,366,1,0,0:0:0:0:
128,200,439,1,0,0:0:0:0:
144,216,512,2,0,B|200:248|240:240|240:240|272:256|312:256,1,170
376,120,951,5,0,0:0:0:0:
216,56,1098,1,0,0:0:0:0:
288,208,1244,1,0,0:0:0:0:
456,176,1390,1,0,0:0:0:0:
176,160,1537,6,0,P|152:224|160:248,1,85
155,237,1756,1,0,0:0:0:0:
155,237,1829,1,0,0:0:0:0:
312,296,1976,1,0,0:0:0:0:
280,128,2122,1,0,0:0:0:0:
432,296,2268,1,0,0:0:0:0:
192,256,2415,1,0,0:0:0:0:
408,144,2561,1,0,0:0:0:0:
168,72,2707,1,0,0:0:0:0:
240,320,2854,1,0,0:0:0:0:
344,96,3000,5,0,0:0:0:0:
136,168,3146,1,0,0:0:0:0:
136,168,3219,1,0,0:0:0:0:
136,168,3293,1,0,0:0:0:0:
352,240,3439,1,0,0:0:0:0:
352,240,3585,2,0,P|368:176|352:144,1,85
144,288,3878,5,0,0:0:0:0:
224,112,4024,1,0,0:0:0:0:
352,240,4171,1,0,0:0:0:0:
352,240,4244,1,0,0:0:0:0:
352,240,4317,1,0,0:0:0:0:
136,168,4463,1,0,0:0:0:0:
296,56,4610,1,0,0:0:0:0:
240,296,4756,5,0,0:0:0:0:
384,128,4902,1,0,0:0:0:0:
168,64,5049,1,0,0:0:0:0:
168,64,5122,1,0,0:0:0:0:
168,64,5195,1,0,0:0:0:0:
248,304,5341,5,0,0:0:0:0:
64,200,5487,1,0,0:0:0:0:
248,192,5634,2,0,L|344:168,1,85
264,80,5926,1,0,0:0:0:0:
448,184,6072,1,0,0:0:0:0:
264,192,6219,2,0,L|168:216,1,85
184,216,6439,1,0,0:0:0:0:
184,216,6512,1,0,0:0:0:0:
352,64,6659,5,0,0:0:0:0:
384,304,6805,1,0,0:0:0:0:
256,40,6951,1,0,0:0:0:0:
272,272,7098,1,0,0:0:0:0:
184,112,7244,1,0,0:0:0:0:
176,336,7390,1,0,0:0:0:0:
88,64,7537,1,0,0:0:0:0:
80,272,7683,1,0,0:0:0:0:
256,184,7829,5,0,0:0:0:0:
272,176,7902,1,0,0:0:0:0:
288,168,7976,1,0,0:0:0:0:
440,88,8122,1,0,0:0:0:0:
448,256,8268,2,0,P|400:288|360:304,1,85
208,312,8561,2,0,P|144:304|112:288,1,85
208,64,8854,5,0,0:0:0:0:
232,88,8927,1,0,0:0:0:0:
256,112,9000,1,0,0:0:0:0:
280,128,9073,1,0,0:0:0:0:
304,136,9146,1,0,0:0:0:0:
336,144,9219,1,0,0:0:0:0:
360,160,9293,6,0,L|432:192,1,42.5
304,304,9439,2,0,L|248:312,1,42.5
120,192,9585,2,0,L|184:200,1,42.5
192,208,9732,1,0,0:0:0:0:
216,216,9805,1,0,0:0:0:0:
240,224,9878,2,0,P|296:240|328:248,1,85
408,112,10171,5,0,0:0:0:0:
256,64,10317,1,0,0:0:0:0:
112,232,10463,1,0,0:0:0:0:
264,176,10610,1,0,0:0:0:0:
408,304,10756,1,0,0:0:0:0:
224,320,10902,1,0,0:0:0:0:
408,304,11049,1,0,0:0:0:0:
224,320,11195,1,0,0:0:0:0:
256,120,11341,5,0,0:0:0:0:
368,272,11488,1,0,0:0:0:0:
168,224,11634,2,0,L|88:264,1,85
96,88,11927,1,0,0:0:0:0:
304,144,12073,1,0,0:0:0:0:
168,320,12219,1,0,0:0:0:0:
168,320,12293,1,0,0:0:0:0:
168,320,12366,1,0,0:0:0:0:
384,320,12512,6,0,B|384:272|384:272|360:224,1,85
168,248,12805,1,0,0:0:0:0:
232,48,12951,2,0,B|288:56|288:56|320:88,1,85
96,248,13244,1,0,0:0:0:0:
416,144,13390,1,0,0:0:0:0:
96,248,13537,1,0,0:0:0:0:
304,320,13683,5,0,0:0:0:0:
144,64,13829,1,0,0:0:0:0:
304,320,13976,1,0,0:0:0:0:
360,48,14122,5,0,0:0:0:0:
136,320,14268,1,0,0:0:0:0:
360,48,14415,1,0,0:0:0:0:
136,320,14561,1,0,0:0:0:0:
72,96,14707,5,0,0:0:0:0:
224,144,14854,1,0,0:0:0:0:
96,240,15000,1,0,0:0:0:0:
240,312,15146,1,0,0:0:0:0:
144,112,15293,2,0,P|216:88|256:88,1,85
320,286,15585,2,0,P|256:310|216:310,1,85
240,312,15805,1,0,0:0:0:0:
240,312,15878,1,0,0:0:0:0:
368,80,16024,5,0,0:0:0:0:
144,144,16171,1,0,0:0:0:0:
392,168,16317,1,0,0:0:0:0:
128,128,16463,1,0,0:0:0:0:
352,256,16610,1,0,0:0:0:0:
128,104,16756,1,0,0:0:0:0:
272,328,16902,1,0,0:0:0:0:
144,80,17049,1,0,0:0:0:0:
176,352,17195,5,0,0:0:0:0:
176,352,17341,1,0,0:0:0:0:
296,96,17488,1,0,0:0:0:0:
88,216,17634,1,0,0:0:0:0:
88,216,17707,1,0,0:0:0:0:
88,216,17780,1,0,0:0:0:0:
320,272,17927,1,0,0:0:0:0:
320,272,18000,1,0,0:0:0:0:
320,272,18073,2,0,P|360:248|392:216,1,85
232,72,18366,5,0,0:0:0:0:
176,224,18512,1,0,0:0:0:0:
336,184,18659,1,0,0:0:0:0:
184,136,18805,5,0,0:0:0:0:
264,272,18951,1,0,0:0:0:0:
320,120,19098,1,0,0:0:0:0:
200,224,19244,5,0,0:0:0:0:
360,224,19390,1,0,0:0:0:0:
264,96,19537,1,0,0:0:0:0:
264,96,19683,5,0,0:0:0:0:
264,96,19756,1,0,0:0:0:0:
264,96,19829,1,0,0:0:0:0:
160,176,19976,1,0,0:0:0:0:
160,176,20049,1,0,0:0:0:0:
160,176,20122,1,0,0:0:0:0:
208,296,20268,5,0,0:0:0:0:
336,304,20415,2,0,P|384:280|400:256,1,68
280,200,20707,1,0,0:0:0:0:
400,152,20854,1,0,0:0:0:0:
280,200,21000,1,0,0:0:0:0:
192,104,21146,5,0,0:0:0:0:
168,120,21219,1,0,0:0:0:0:
144,136,21293,1,0,0:0:0:0:
144,280,21439,1,0,0:0:0:0:
48,200,21585,1,0,0:0:0:0:
144,136,21732,1,0,0:0:0:0:
168,120,21805,1,0,0:0:0:0:
192,104,21878,1,0,0:0:0:0:
312,64,22024,2,0,P|368:56|392:64,1,68
408,184,22317,6,0,L|352:208,1,34
424,272,22463,1,0,0:0:0:0:
296,256,22610,1,0,0:0:0:0:
192,336,22756,1,0,0:0:0:0:
80,280,22902,6,0,L|96:232,1,34
176,232,23049,1,0,0:0:0:0:
72,160,23195,1,0,0:0:0:0:
192,104,23341,1,0,0:0:0:0:
344,208,23488,5,0,0:0:0:0:
176,272,23634,1,0,0:0:0:0:
288,104,23780,1,0,0:0:0:0:
256,320,23927,1,0,0:0:0:0:
176,128,24073,1,0,0:0:0:0:
368,296,24219,1,0,0:0:0:0:
104,208,24366,1,0,0:0:0:0:
392,136,24512,1,0,0:0:0:0:
136,320,24659,6,0,L|112:280,1,34
112,200,24805,1,0,0:0:0:0:
240,224,24951,1,0,0:0:0:0:
112,200,25098,1,0,0:0:0:0:
176,88,25244,5,0,0:0:0:0:
280,160,25390,1,0,0:0:0:0:
328,40,25537,1,0,0:0:0:0:
408,224,25683,1,0,0:0:0:0:
192,304,25829,6,0,L|160:264,1,34
280,256,25976,1,0,0:0:0:0:
368,312,26122,1,0,0:0:0:0:
432,232,26268,1,0,0:0:0:0:
160,80,26415,5,0,0:0:0:0:
64,168,26561,2,0,L|136:232,1,68
352,80,26854,5,0,0:0:0:0:
448,168,27000,2,0,L|376:232,1,68
192,320,27293,5,0,0:0:0:0:
120,208,27439,2,0,L|40:232,1,68
320,320,27732,5,0,0:0:0:0:
392,208,27878,2,0,L|472:232,1,68
256,48,28171,5,0,0:0:0:0:
80,176,28317,1,0,0:0:0:0:
256,48,28463,1,0,0:0:0:0:
432,176,28610,1,0,0:0:0:0:
432,176,28683,1,0,0:0:0:0:
432,176,28756,1,0,0:0:0:0:
256,304,28902,5,0,0:0:0:0:
256,304,28976,1,0,0:0:0:0:
256,304,29049,2,0,P|176:296|160:288,1,68
256,80,29341,1,0,0:0:0:0:
256,80,29415,1,0,0:0:0:0:
256,80,29488,2,0,P|336:88|352:96,1,68
64,192,29927,5,0,0:0:0:0:
200,320,30073,1,0,0:0:0:0:
352,232,30219,1,0,0:0:0:0:
96,288,30366,1,0,0:0:0:0:
304,320,30512,6,0,L|360:312,1,34
264,224,30659,1,0,0:0:0:0:
152,96,30805,1,0,0:0:0:0:
120,264,30951,1,0,0:0:0:0:
216,144,31098,5,0,0:0:0:0:
424,312,31244,1,0,0:0:0:0:
368,64,31390,1,0,0:0:0:0:
272,328,31537,1,0,0:0:0:0:
144,128,31683,1,0,0:0:0:0:
160,112,31756,1,0,0:0:0:0:
176,96,31829,1,0,0:0:0:0:
376,192,31976,1,0,0:0:0:0:
112,312,32122,1,0,0:0:0:0:
144,128,32268,5,0,0:0:0:0:
160,112,32341,1,0,0:0:0:0:
176,96,32414,1,0,0:0:0:0:
376,192,32561,1,0,0:0:0:0:
112,312,32707,1,0,0:0:0:0:
376,192,32854,1,0,0:0:0:0:
176,96,33000,1,0,0:0:0:0:
264,352,33146,1,0,0:0:0:0:
336,56,33293,1,0,0:0:0:0:
88,216,33439,5,0,0:0:0:0:
376,288,33585,2,0,L|416:312,2,38.2499988327027
176,144,33878,1,0,0:0:0:0:
456,176,34024,2,0,L|416:168,2,38.2499988327027
168,304,34317,1,0,0:0:0:0:
432,48,34463,1,0,0:0:0:0:
200,176,34610,5,0,0:0:0:0:
200,176,34756,2,0,P|152:168|112:176,1,76.4999976654053
280,320,35049,1,0,0:0:0:0:
384,136,35195,1,0,0:0:0:0:
384,112,35268,1,0,0:0:0:0:
384,88,35341,1,0,0:0:0:0:
464,320,35488,1,0,0:0:0:0:
248,272,35634,1,0,0:0:0:0:
128,56,35780,5,0,0:0:0:0:
80,312,35927,2,0,B|128:288|128:288|160:256,1,76.4999976654053
384,56,36219,5,0,0:0:0:0:
432,312,36366,2,0,B|384:288|384:288|352:256,1,76.4999976654053
256,48,36659,5,0,0:0:0:0:
408,240,36805,2,0,P|432:184|448:144,1,76.4999976654053
256,336,37098,5,0,0:0:0:0:
104,144,37244,2,0,P|80:200|64:240,1,76.4999976654053
80,256,37463,1,0,0:0:0:0:
104,296,37537,1,0,0:0:0:0:
144,320,37610,1,0,0:0:0:0:
184,312,37683,1,0,0:0:0:0:
208,280,37756,1,0,0:0:0:0:
224,240,37829,1,0,0:0:0:0:
232,200,37902,1,0,0:0:0:0:
240,160,37976,1,0,0:0:0:0:
416,320,38268,6,0,P|440:264|440:232,1,85
280,184,38561,1,0,0:0:0:0:
432,104,38707,1,0,0:0:0:0:
336,248,38854,1,0,0:0:0:0:
328,80,39000,1,0,0:0:0:0:
184,160,39146,1,0,0:0:0:0:
352,168,39293,1,0,0:0:0:0:
240,296,39439,6,0,P|176:296|128:280,1,85
80,136,39732,1,0,0:0:0:0:
224,48,39878,2,0,P|288:40|320:40,1,85
288,208,40171,1,0,0:0:0:0:
288,208,40317,1,0,0:0:0:0:
144,296,40463,1,0,0:0:0:0:
120,128,40610,1,0,0:0:0:0:
120,128,40683,1,0,0:0:0:0:
120,128,40756,1,0,0:0:0:0:
256,112,40902,5,0,0:0:0:0:
184,256,41049,1,0,0:0:0:0:
184,256,41122,1,0,0:0:0:0:
184,256,41195,2,0,P|216:296|248:312,1,85
360,240,41488,1,0,0:0:0:0:
424,128,41634,5,0,0:0:0:0:
304,64,41780,1,0,0:0:0:0:
392,224,41927,1,0,0:0:0:0:
376,24,42073,1,0,0:0:0:0:
304,304,42219,6,0,L|352:280,1,42.5
360,184,42366,1,0,0:0:0:0:
256,64,42512,1,0,0:0:0:0:
208,304,42659,6,0,L|160:280,1,42.5
152,184,42806,1,0,0:0:0:0:
256,64,42951,2,0,L|312:64|352:64,1,85
360,320,43244,5,0,0:0:0:0:
176,120,43390,1,0,0:0:0:0:
176,120,43463,1,0,0:0:0:0:
176,120,43537,1,0,0:0:0:0:
408,192,43683,1,0,0:0:0:0:
128,264,43829,1,0,0:0:0:0:
320,72,43976,5,0,0:0:0:0:
280,72,44049,1,0,0:0:0:0:
240,72,44122,1,0,0:0:0:0:
200,88,44195,1,0,0:0:0:0:
168,112,44268,1,0,0:0:0:0:
144,144,44341,1,0,0:0:0:0:
128,184,44415,6,0,L|168:216,1,42.5
320,216,44561,2,0,L|264:184,1,42.5
216,312,44707,2,0,L|264:336,1,42.5
296,336,44854,1,0,0:0:0:0:
336,328,44927,1,0,0:0:0:0:
376,312,45000,1,0,0:0:0:0:
400,280,45073,1,0,0:0:0:0:
416,240,45146,1,0,0:0:0:0:
408,192,45219,1,0,0:0:0:0:
392,152,45293,5,0,0:0:0:0:
128,80,45585,5,0,0:0:0:0:
128,80,45732,1,0,0:0:0:0:
224,256,46024,1,0,0:0:0:0:
344,64,46317,2,0,B|384:112|384:112|344:144|424:208|424:208|408:208|360:256|376:296|376:296,1,255
224,320,47049,6,0,L|160:288,1,48.8750009322167
144,144,47195,2,0,L|216:184,1,48.8750009322167
376,280,47341,2,0,L|312:248,1,48.8750009322167
272,56,47488,2,0,L|320:88,1,48.8750009322167
128,224,47634,6,0,P|168:256|224:280,1,97.7500018644333
360,144,47927,2,0,P|304:104|264:88,1,97.7500018644333
320,280,48219,1,0,0:0:0:0:
152,120,48366,1,0,0:0:0:0:
128,320,48512,1,0,0:0:0:0:
272,96,48659,1,0,0:0:0:0:
48,224,48805,1,0,0:0:0:0:
296,352,48951,1,0,0:0:0:0:
296,352,49024,1,0,0:0:0:0:
296,352,49098,1,0,0:0:0:0:
369,101,49244,6,0,P|313:101|257:93,1,97.7500018644333
144,272,49537,1,0,0:0:0:0:
272,96,49683,1,0,0:0:0:0:
352,304,49829,1,0,0:0:0:0:
272,96,49976,1,0,0:0:0:0:
272,96,50049,1,0,0:0:0:0:
272,96,50122,1,0,0:0:0:0:
96,104,50268,5,0,0:0:0:0:
304,216,50415,1,0,0:0:0:0:
64,208,50561,1,0,0:0:0:0:
208,336,50707,2,0,P|256:336|304:320,1,97.7500018644333
208,96,51000,1,0,0:0:0:0:
208,96,51073,1,0,0:0:0:0:
208,96,51146,2,0,P|264:96|296:120,1,97.7500018644333
168,272,51439,5,0,0:0:0:0:
360,288,51585,1,0,0:0:0:0:
432,104,51732,1,0,0:0:0:0:
240,80,51878,1,0,0:0:0:0:
168,272,52024,2,0,P|232:288|272:288,1,97.7500018644333
352,96,52317,6,0,L|240:112,1,97.7500018644333
128,128,52610,1,0,0:0:0:0:
360,224,52756,2,0,L|240:240,1,97.7500018644333
160,312,53049,1,0,0:0:0:0:
256,144,53195,6,0,B|288:184|288:184|336:192|344:240|392:240|424:216,1,195.500003728867
384,56,53634,1,0,0:0:0:0:
128,120,53780,2,0,B|104:176|104:176|144:208|88:256|152:312|272:264,1,293.2500055933
268,265,54293,1,0,0:0:0:0:
268,265,54366,1,0,0:0:0:0:
280,56,54512,1,0,0:0:0:0:
272,272,54659,1,0,0:0:0:0:
440,144,54805,5,0,0:0:0:0:
192,176,54951,1,0,0:0:0:0:
416,288,55098,1,0,0:0:0:0:
416,288,55171,1,0,0:0:0:0:
416,288,55244,1,0,0:0:0:0:
160,288,55390,1,0,0:0:0:0:
320,176,55537,1,0,0:0:0:0:
128,80,55683,2,0,P|184:64|240:72,1,97.7500018644333
312,328,55976,5,0,0:0:0:0:
384,112,56122,1,0,0:0:0:0:
368,104,56195,1,0,0:0:0:0:
352,96,56268,1,0,0:0:0:0:
144,264,56415,1,0,0:0:0:0:
144,104,56561,1,0,0:0:0:0:
376,272,56707,2,0,L|336:304,2,48.8750009322167
72,192,57000,6,0,L|160:192|176:192,1,97.7500018644333
288,64,57293,1,0,0:0:0:0:
304,72,57366,1,0,0:0:0:0:
320,88,57439,2,0,P|384:160|376:264,1,195.500003728867
224,304,57878,5,0,0:0:0:0:
96,104,58024,1,0,0:0:0:0:
344,160,58171,1,0,0:0:0:0:
72,304,58317,1,0,0:0:0:0:
263,62,58463,1,0,0:0:0:0:
344,328,58610,1,0,0:0:0:0:
96,104,58756,1,0,0:0:0:0:
392,80,58902,1,0,0:0:0:0:
208,344,59049,1,0,0:0:0:0:
208,48,59195,1,0,0:0:0:0:
424,232,59341,6,0,P|352:272|320:272,1,97.7500018644333
256,72,59634,1,0,0:0:0:0:
88,232,59780,2,0,P|160:272|192:272,1,97.7500018644333
256,80,60073,1,0,0:0:0:0:
256,336,60219,1,0,0:0:0:0:
256,88,60366,1,0,0:0:0:0:
256,336,60512,2,0,L|144:320,1,97.7500018644333
256,96,60805,1,0,0:0:0:0:
256,336,60952,2,0,L|368:320,1,97.7500018644333
256,48,61244,5,0,0:0:0:0:
112,264,61390,2,0,L|88:168,1,97.7500018644333
392,80,61683,2,0,L|368:288,1,195.500003728867
128,192,62122,1,0,0:0:0:0:
272,64,62268,2,0,L|168:24,1,97.7500018644333
88,144,62561,1,0,0:0:0:0:
192,272,62707,1,0,0:0:0:0:
360,272,62854,2,0,L|400:160,1,97.7500018644333
168,72,63146,5,0,0:0:0:0:
120,328,63293,1,0,0:0:0:0:
360,176,63439,1,0,0:0:0:0:
96,240,63585,1,0,0:0:0:0:
288,64,63732,1,0,0:0:0:0:
344,336,63878,1,0,0:0:0:0:
112,152,64024,6,0,P|160:128|208:120,1,97.7500018644333
432,224,64317,1,0,0:0:0:0:
240,304,64463,1,0,0:0:0:0:
360,80,64610,1,0,0:0:0:0:
136,184,64756,1,0,0:0:0:0:
136,184,64829,1,0,0:0:0:0:
136,184,64902,1,0,0:0:0:0:
352,288,65049,1,0,0:0:0:0:
224,80,65195,5,0,0:0:0:0:
152,272,65341,1,0,0:0:0:0:
136,64,65488,1,0,0:0:0:0:
248,272,65634,1,0,0:0:0:0:
200,32,65780,1,0,0:0:0:0:
216,320,65927,1,0,0:0:0:0:
272,48,66073,1,0,0:0:0:0:
144,320,66219,1,0,0:0:0:0:
64,64,66366,5,0,0:0:0:0:
280,176,66512,1,0,0:0:0:0:
80,192,66659,1,0,0:0:0:0:
272,40,66805,1,0,0:0:0:0:
272,40,66878,1,0,0:0:0:0:
272,40,66951,1,0,0:0:0:0:
432,224,67098,2,0,P|440:272|424:320,1,85
431,306,67317,1,0,0:0:0:0:
431,306,67390,1,0,0:0:0:0:
200,280,67537,5,0,0:0:0:0:
144,56,67683,1,0,0:0:0:0:
96,288,67829,1,0,0:0:0:0:
224,72,67976,1,0,0:0:0:0:
312,312,68122,1,0,0:0:0:0:
360,56,68268,1,0,0:0:0:0:
216,320,68415,1,0,0:0:0:0:
80,56,68561,1,0,0:0:0:0:
72,328,68707,5,0,0:0:0:0:
72,328,68780,1,0,0:0:0:0:
72,328,68854,1,0,0:0:0:0:
136,120,69000,1,0,0:0:0:0:
304,200,69146,2,0,L|352:224|384:240,1,85
48,192,69439,2,0,P|104:224|152:240,1,85
128,232,69659,1,0,0:0:0:0:
128,232,69732,1,0,0:0:0:0:
232,72,69878,5,0,0:0:0:0:
352,288,70024,1,0,0:0:0:0:
416,112,70171,1,0,0:0:0:0:
160,96,70317,1,0,0:0:0:0:
112,336,70464,1,0,0:0:0:0:
264,176,70610,1,0,0:0:0:0:
112,336,70756,1,0,0:0:0:0:
360,328,70902,1,0,0:0:0:0:
104,56,71049,5,0,0:0:0:0:
248,160,71195,1,0,0:0:0:0:
80,240,71341,1,0,0:0:0:0:
256,344,71488,2,0,L|328:296,1,85
256,40,71780,2,0,L|328:88,1,85
64,144,72073,5,0,0:0:0:0:
80,152,72146,1,0,0:0:0:0:
96,160,72219,1,0,0:0:0:0:
112,168,72293,1,0,0:0:0:0:
136,176,72366,1,0,0:0:0:0:
160,184,72439,1,0,0:0:0:0:
192,192,72512,5,0,0:0:0:0:
224,192,72585,1,0,0:0:0:0:
256,184,72659,1,0,0:0:0:0:
280,160,72732,1,0,0:0:0:0:
296,128,72805,1,0,0:0:0:0:
320,104,72878,1,0,0:0:0:0:
360,80,72951,5,0,0:0:0:0:
408,80,73024,1,0,0:0:0:0:
448,112,73098,1,0,0:0:0:0:
464,160,73171,1,0,0:0:0:0:
456,208,73244,1,0,0:0:0:0:
440,256,73317,1,0,0:0:0:0:
400,280,73390,5,0,0:0:0:0:
256,192,75146,12,0,76902,0:0:0:0:
256,192,77049,5,0,0:0:0:0:
256,192,77122,1,0,0:0:0:0:
256,192,77195,1,0,0:0:0:0:
256,192,77268,1,0,0:0:0:0:
256,192,77341,1,0,0:0:0:0:
392,64,77488,5,0,0:0:0:0:
352,320,77634,1,0,0:0:0:0:
200,64,77780,5,0,0:0:0:0:
152,320,77927,1,0,0:0:0:0:
120,64,78073,5,0,0:0:0:0:
160,320,78219,1,0,0:0:0:0:
312,64,78365,5,0,0:0:0:0:
360,320,78512,1,0,0:0:0:0:
360,320,78585,1,0,0:0:0:0:
360,320,78659,1,0,0:0:0:0:
424,216,78805,1,0,0:0:0:0:
152,224,78951,5,0,0:0:0:0:
368,144,79098,1,0,0:0:0:0:
144,112,79244,1,0,0:0:0:0:
336,248,79390,1,0,0:0:0:0:
112,320,79537,1,0,0:0:0:0:
88,88,79683,1,0,0:0:0:0:
112,80,79756,1,0,0:0:0:0:
136,72,79829,1,0,0:0:0:0:
256,192,79976,1,0,0:0:0:0:
384,80,80122,1,0,0:0:0:0:
280,104,80268,5,0,0:0:0:0:
192,288,80415,1,0,0:0:0:0:
192,288,80488,1,0,0:0:0:0:
192,288,80562,1,0,0:0:0:0:
376,232,80707,5,0,0:0:0:0:
112,200,80854,1,0,0:0:0:0:
112,200,80927,1,0,0:0:0:0:
112,200,81001,1,0,0:0:0:0:
296,336,81146,5,0,0:0:0:0:
208,64,81293,1,0,0:0:0:0:
208,64,81366,1,0,0:0:0:0:
208,64,81440,1,0,0:0:0:0:
128,312,81585,5,0,0:0:0:0:
392,48,81732,2,0,L|400:96,2,42.5
416,304,82024,5,0,0:0:0:0:
392,48,82171,1,0,0:0:0:0:
416,304,82317,1,0,0:0:0:0:
392,48,82463,2,0,P|312:48|272:56,1,85
128,128,82756,6,0,L|176:152,1,34
160,240,82902,1,0,0:0:0:0:
264,184,83049,1,0,0:0:0:0:
336,264,83195,1,0,0:0:0:0:
352,248,83268,1,0,0:0:0:0:
368,232,83341,1,0,0:0:0:0:
344,128,83488,1,0,0:0:0:0:
248,72,83634,5,0,0:0:0:0:
160,216,83780,1,0,0:0:0:0:
64,80,83927,2,0,L|112:64,1,34
144,136,84073,1,0,0:0:0:0:
256,136,84219,1,0,0:0:0:0:
352,72,84366,2,0,L|400:56,1,34
432,128,84512,1,0,0:0:0:0:
376,208,84659,1,0,0:0:0:0:
200,280,84805,5,0,0:0:0:0:
256,176,84951,1,0,0:0:0:0:
128,208,85098,1,0,0:0:0:0:
176,104,85244,1,0,0:0:0:0:
56,112,85390,1,0,0:0:0:0:
304,120,85537,2,0,L|344:120,2,34
184,56,85829,5,0,0:0:0:0:
208,320,85976,1,0,0:0:0:0:
72,144,86122,1,0,0:0:0:0:
336,240,86268,1,0,0:0:0:0:
112,304,86415,1,0,0:0:0:0:
128,96,86561,5,0,0:0:0:0:
336,72,86707,1,0,0:0:0:0:
128,232,86854,1,0,0:0:0:0:
384,288,87000,1,0,0:0:0:0:
240,120,87146,1,0,0:0:0:0:
144,336,87293,1,0,0:0:0:0:
144,336,87366,1,0,0:0:0:0:
144,336,87439,1,0,0:0:0:0:
48,128,87585,1,0,0:0:0:0:
280,56,87732,5,0,0:0:0:0:
392,248,87878,1,0,0:0:0:0:
392,248,87951,1,0,0:0:0:0:
392,248,88024,1,0,0:0:0:0:
184,200,88171,5,0,0:0:0:0:
264,352,88317,1,0,0:0:0:0:
256,160,88463,1,0,0:0:0:0:
176,344,88610,1,0,0:0:0:0:
352,144,88756,1,0,0:0:0:0:
96,296,88902,2,0,P|72:256|72:216,1,68
69,235,89122,1,0,0:0:0:0:
69,235,89195,1,0,0:0:0:0:
128,128,89341,1,0,0:0:0:0:
240,64,89488,1,0,0:0:0:0:
320,272,89634,5,0,0:0:0:0:
160,232,89780,1,0,0:0:0:0:
168,192,89854,1,0,0:0:0:0:
200,168,89927,1,0,0:0:0:0:
312,56,90073,5,0,0:0:0:0:
472,96,90219,1,0,0:0:0:0:
464,136,90293,1,0,0:0:0:0:
432,160,90366,1,0,0:0:0:0:
264,184,90512,5,0,0:0:0:0:
224,344,90658,1,0,0:0:0:0:
184,336,90732,1,0,0:0:0:0:
160,304,90805,1,0,0:0:0:0:
88,168,90951,5,0,0:0:0:0:
128,8,91097,1,0,0:0:0:0:
168,16,91171,1,0,0:0:0:0:
192,48,91244,1,0,0:0:0:0:
200,80,91317,1,0,0:0:0:0:
192,120,91390,1,0,0:0:0:0:
200,152,91463,1,0,0:0:0:0:
216,184,91537,1,0,0:0:0:0:
384,80,91829,5,0,0:0:0:0:
96,272,92122,6,0,P|136:296|176:304,1,85
312,200,92415,1,0,0:0:0:0:
168,112,92561,1,0,0:0:0:0:
328,48,92707,1,0,0:0:0:0:
200,224,92854,1,0,0:0:0:0:
432,160,93000,1,0,0:0:0:0:
320,320,93146,1,0,0:0:0:0:
256,80,93293,6,0,P|192:88|152:128,1,85
256,192,93585,1,0,0:0:0:0:
256,304,93732,2,0,P|320:296|360:256,1,85
384,72,94024,1,0,0:0:0:0:
128,312,94171,1,0,0:0:0:0:
136,64,94317,1,0,0:0:0:0:
376,320,94463,5,0,0:0:0:0:
376,320,94537,1,0,0:0:0:0:
376,320,94610,1,0,0:0:0:0:
392,176,94756,1,0,0:0:0:0:
192,224,94902,1,0,0:0:0:0:
192,224,94976,1,0,0:0:0:0:
192,224,95049,1,0,0:0:0:0:
464,96,95195,1,0,0:0:0:0:
464,96,95341,1,0,0:0:0:0:
192,56,95488,5,0,0:0:0:0:
320,168,95634,1,0,0:0:0:0:
192,280,95780,1,0,0:0:0:0:
120,48,95927,1,0,0:0:0:0:
392,168,96073,1,0,0:0:0:0:
128,304,96219,1,0,0:0:0:0:
256,32,96366,5,0,0:0:0:0:
416,296,96512,1,0,0:0:0:0:
384,312,96585,1,0,0:0:0:0:
344,320,96659,1,0,0:0:0:0:
304,328,96732,1,0,0:0:0:0:
264,328,96805,2,0,P|208:320|176:304,1,85
336,112,97098,5,0,0:0:0:0:
112,64,97244,2,0,P|104:120|104:168,1,85
320,280,97537,2,0,P|336:224|336:160,1,85
104,320,97829,6,0,L|168:296,1,42.5
104,64,97976,2,0,L|168:88,1,42.5
208,264,98122,2,0,L|256:248,1,42.5
208,120,98268,2,0,L|256:136,1,42.5
312,192,98415,5,0,0:0:0:0:
312,192,98488,1,0,0:0:0:0:
312,192,98561,1,0,0:0:0:0:
312,192,98634,1,0,0:0:0:0:
328,192,98707,1,0,0:0:0:0:
344,192,98780,1,0,0:0:0:0:
360,192,98854,1,0,0:0:0:0:
384,184,98927,1,0,0:0:0:0:
408,168,99000,1,0,0:0:0:0:
424,144,99073,1,0,0:0:0:0:
432,112,99146,6,0,P|440:56|424:0,1,101.999996887207
232,56,99439,1,0,0:0:0:0:
112,216,99585,1,0,0:0:0:0:
112,216,99659,1,0,0:0:0:0:
112,216,99732,1,0,0:0:0:0:
304,280,99878,1,0,0:0:0:0:
416,112,100024,1,0,0:0:0:0:
176,320,100171,6,0,P|160:264|160:208,1,101.999996887207
352,160,100463,1,0,0:0:0:0:
168,72,100610,1,0,0:0:0:0:
344,344,100756,1,0,0:0:0:0:
320,48,100902,1,0,0:0:0:0:
320,48,100976,1,0,0:0:0:0:
320,48,101049,1,0,0:0:0:0:
136,296,101195,1,0,0:0:0:0:
136,296,101268,1,0,0:0:0:0:
136,296,101341,1,0,0:0:0:0:
80,64,101488,6,0,P|144:56|192:56,1,101.999996887207
256,192,101780,1,0,0:0:0:0:
432,320,101927,2,0,P|368:328|320:328,1,101.999996887207
80,128,102219,2,0,P|72:184|80:240,1,101.999996887207
424,128,102512,1,0,0:0:0:0:
320,312,102659,1,0,0:0:0:0:
240,96,102805,1,0,0:0:0:0:
320,312,102951,1,0,0:0:0:0:
120,296,103098,1,0,0:0:0:0:
120,296,103171,1,0,0:0:0:0:
120,296,103244,1,0,0:0:0:0:
392,248,103390,5,0,0:0:0:0:
208,40,103537,1,0,0:0:0:0:
120,296,103683,1,0,0:0:0:0:
392,248,103829,6,0,P|384:176|368:120,1,101.999996887207
184,88,104122,1,0,0:0:0:0:
64,248,104268,1,0,0:0:0:0:
376,128,104415,1,0,0:0:0:0:
88,136,104561,5,0,0:0:0:0:
360,48,104707,1,0,0:0:0:0:
232,312,104854,1,0,0:0:0:0:
232,312,104927,1,0,0:0:0:0:
232,312,105000,2,0,P|296:312|336:304,1,101.999996887207
288,104,105293,5,0,0:0:0:0:
128,232,105439,1,0,0:0:0:0:
360,224,105585,1,0,0:0:0:0:
160,96,105732,1,0,0:0:0:0:
280,312,105878,2,0,L|304:360,2,50.9999984436036
392,160,106171,6,0,B|336:96|336:96|280:104,1,101.999996887207
112,104,106463,1,0,0:0:0:0:
128,304,106610,2,0,B|200:312|200:312|240:288,1,101.999996887207
288,104,106902,1,0,0:0:0:0:
464,208,107049,2,0,P|440:272|392:304,1,101.999996887207
216,264,107341,1,0,0:0:0:0:
216,264,107415,1,0,0:0:0:0:
216,264,107488,1,0,0:0:0:0:
104,96,107634,2,0,B|168:64|168:64|200:72|200:72|240:128|264:56|296:72|296:72|336:56|360:80|400:16,1,305.999990661621
379,42,108146,1,0,0:0:0:0:
379,42,108219,1,0,0:0:0:0:
368,248,108366,5,0,0:0:0:0:
168,200,108512,1,0,0:0:0:0:
352,112,108659,1,0,0:0:0:0:
376,96,108732,1,0,0:0:0:0:
400,80,108805,1,0,0:0:0:0:
232,208,108951,2,0,L|328:144,1,101.999996887207
72,312,109244,2,0,L|176:240,1,101.999996887207
72,80,109537,6,0,B|144:64|144:64|192:72,1,101.999996887207
200,272,109829,1,0,0:0:0:0:
368,152,109976,1,0,0:0:0:0:
184,56,110122,1,0,0:0:0:0:
328,264,110268,1,0,0:0:0:0:
312,48,110415,1,0,0:0:0:0:
128,160,110561,1,0,0:0:0:0:
128,160,110634,1,0,0:0:0:0:
128,160,110707,1,0,0:0:0:0:
408,144,110854,5,0,0:0:0:0:
184,312,111000,1,0,0:0:0:0:
176,32,111146,1,0,0:0:0:0:
368,312,111293,1,0,0:0:0:0:
336,32,111439,1,0,0:0:0:0:
128,224,111585,1,0,0:0:0:0:
128,224,111659,1,0,0:0:0:0:
128,224,111732,1,0,0:0:0:0:
424,88,111878,6,0,P|448:160|432:208,1,101.999996887207
88,88,112170,2,0,P|64:160|80:208,1,101.999996887207
256,336,112463,2,0,L|256:224,1,101.999996887207
424,88,112756,1,0,0:0:0:0:
88,88,112902,1,0,0:0:0:0:
424,88,113049,1,0,0:0:0:0:
88,88,113195,6,0,P|80:152|88:208,1,101.999996887207
288,216,113488,1,0,0:0:0:0:
384,40,113634,2,0,P|320:32|280:40,1,101.999996887207
192,224,113927,1,0,0:0:0:0:
392,240,114073,1,0,0:0:0:0:
392,240,114146,1,0,0:0:0:0:
392,240,114219,1,0,0:0:0:0:
384,40,114366,2,0,P|304:32|264:40,1,101.999996887207
136,176,114659,5,0,0:0:0:0:
224,360,114805,1,0,0:0:0:0:
232,160,114951,1,0,0:0:0:0:
32,128,115098,1,0,0:0:0:0:
104,320,115244,1,0,0:0:0:0:
104,320,115317,1,0,0:0:0:0:
104,320,115390,1,0,0:0:0:0:
304,296,115537,2,0,P|384:280|416:256,1,101.999996887207
240,48,115829,5,0,0:0:0:0:
96,272,115976,1,0,0:0:0:0:
392,224,116122,1,0,0:0:0:0:
112,72,116268,1,0,0:0:0:0:
264,352,116415,1,0,0:0:0:0:
40,192,116561,1,0,0:0:0:0:
40,192,116634,1,0,0:0:0:0:
40,192,116707,1,0,0:0:0:0:
360,96,116854,5,0,0:0:0:0:
176,296,117000,1,0,0:0:0:0:
184,56,117146,1,0,0:0:0:0:
368,312,117293,1,0,0:0:0:0:
296,24,117439,1,0,0:0:0:0:
72,240,117585,1,0,0:0:0:0:
448,144,117732,1,0,0:0:0:0:
104,120,119049,5,0,0:0:0:0:
104,120,119122,1,0,0:0:0:0:
104,120,119195,2,0,B|160:112|176:96|176:96|216:112|232:96,1,127.500004863739
344,136,119634,1,0,0:0:0:0:
240,208,119780,1,0,0:0:0:0:
360,240,119927,2,0,B|368:288|368:288|344:304|344:304|328:320|296:296|248:312|208:320,1,191.250007295609
112,264,120512,5,0,0:0:0:0:
168,152,120659,1,0,0:0:0:0:
40,152,120805,1,0,0:0:0:0:
112,264,120951,1,0,0:0:0:0:
136,272,121024,1,0,0:0:0:0:
160,272,121098,1,0,0:0:0:0:
184,272,121171,1,0,0:0:0:0:
208,272,121244,1,0,0:0:0:0:
232,272,121317,1,0,0:0:0:0:
256,272,121390,6,0,L|336:272,1,63.7500024318696
256,160,121683,1,0,0:0:0:0:
376,192,121829,1,0,0:0:0:0:
400,64,121976,2,0,L|312:64,1,63.7500024318696
144,152,122268,2,0,L|224:160,1,63.7500024318696
440,264,122561,2,0,L|352:272,1,63.7500024318696
256,312,122854,5,0,0:0:0:0:
152,240,123000,1,0,0:0:0:0:
200,120,123146,1,0,0:0:0:0:
80,80,123293,1,0,0:0:0:0:
40,200,123439,6,0,L|72:224,2,31.8750012159348
104,312,123732,2,0,L|128:280,2,31.8750012159348
232,296,124024,2,0,L|240:240,1,31.8750012159348
288,160,124171,2,0,L|296:208,1,31.8750012159348
352,304,124317,2,0,L|360:256,1,31.8750012159348
400,176,124463,2,0,L|408:120,1,31.8750012159348
328,56,124610,1,0,0:0:0:0:
328,56,124683,1,0,0:0:0:0:
328,56,124756,1,0,0:0:0:0:
192,56,124902,6,0,B|160:88|160:88|160:112|136:136|112:160,1,127.500004863739
128,280,125341,1,0,0:0:0:0:
248,224,125488,1,0,0:0:0:0:
288,344,125634,1,0,0:0:0:0:
384,256,125780,2,0,L|416:224,2,31.8750012159348
448,64,126073,6,0,L|344:72,1,85
80,184,126512,2,0,L|184:200,1,85
320,264,126805,2,0,L|224:288,1,85
64,304,127098,1,0,0:0:0:0:
64,304,127171,1,0,0:0:0:0:
64,304,127244,2,0,P|120:312|152:320,1,85
216,160,127537,5,0,0:0:0:0:
400,128,127683,1,0,0:0:0:0:
336,296,127829,1,0,0:0:0:0:
128,240,127976,1,0,0:0:0:0:
256,40,128122,1,0,0:0:0:0:
416,256,128268,1,0,0:0:0:0:
176,352,128415,2,0,B|144:296|168:272|168:272|128:208|128:168,1,170
132,196,128780,1,0,0:0:0:0:
132,196,128854,1,0,0:0:0:0:
352,80,129000,6,0,P|368:144|392:176,1,85
304,320,129293,1,0,0:0:0:0:
328,320,129366,1,0,0:0:0:0:
352,320,129439,2,0,P|400:320|440:304,1,85
128,208,129732,2,0,P|200:256|216:256,1,85
352,80,130024,2,0,B|304:64|304:64|256:80|224:64|184:56,1,170
186,56,130390,1,0,0:0:0:0:
186,56,130463,1,0,0:0:0:0:
72,208,130610,6,0,L|88:248,2,42.5
216,304,130902,1,0,0:0:0:0:
216,304,131049,2,0,P|296:304|328:288,1,85
296,136,131341,2,0,P|240:120|184:144,1,85
216,304,131634,2,0,P|296:304|328:288,1,85
296,88,131927,2,0,P|240:72|184:96,1,85
216,304,132219,2,0,P|296:304|328:288,1,85
296,32,132512,1,0,0:0:0:0:
296,32,132585,1,0,0:0:0:0:
296,32,132659,1,0,0:0:0:0:
120,64,132805,6,0,B|112:112|136:128|96:144|80:184|112:216|184:168,1,170
304,272,133244,1,0,0:0:0:0:
440,168,133390,1,0,0:0:0:0:
288,96,133537,1,0,0:0:0:0:
392,232,133683,1,0,0:0:0:0:
392,232,133756,1,0,0:0:0:0:
392,232,133829,1,0,0:0:0:0:
224,280,133976,1,0,0:0:0:0:
80,192,134122,2,0,L|160:128,1,85
312,176,134415,2,0,L|384:120,1,85
224,56,134707,5,0,0:0:0:0:
56,80,134854,2,0,B|96:128|64:160|64:160|104:208|80:224|112:256,1,170
104,256,135219,1,0,0:0:0:0:
112,280,135293,1,0,0:0:0:0:
128,296,135366,1,0,0:0:0:0:
144,312,135439,1,0,0:0:0:0:
424,144,135585,5,0,0:0:0:0:
128,136,135732,1,0,0:0:0:0:
432,256,135878,1,0,0:0:0:0:
104,248,136024,1,0,0:0:0:0:
368,352,136171,5,0,0:0:0:0:
224,80,136317,1,0,0:0:0:0:
112,352,136463,1,0,0:0:0:0:
112,352,136537,1,0,0:0:0:0:
112,352,136610,1,0,0:0:0:0:
384,224,136756,1,0,0:0:0:0:
64,184,136902,1,0,0:0:0:0:
64,152,136976,1,0,0:0:0:0:
72,120,137049,1,0,0:0:0:0:
88,96,137122,1,0,0:0:0:0:
112,72,137195,6,0,L|168:56,1,42.5
192,128,137341,2,0,L|240:112,1,42.5
264,192,137488,2,0,L|312:168,1,42.5
352,64,137634,2,0,L|296:96,1,42.5
416,144,137780,2,0,L|368:168,1,42.5
408,256,137927,2,0,L|352:280,1,42.5
288,328,138073,6,0,B|224:328|224:328|176:328|112:344|144:264,1,170
152,40,138659,1,0,0:0:0:0:
368,56,138951,1,0,0:0:0:0:
456,256,139244,1,0,0:0:0:0:
360,208,139390,6,0,L|296:224,1,42.5
272,312,139537,1,0,0:0:0:0:
216,232,139683,1,0,0:0:0:0:
160,312,139830,1,0,0:0:0:0:
96,240,139976,1,0,0:0:0:0:
112,120,140122,5,0,0:0:0:0:
248,64,140268,1,0,0:0:0:0:
384,152,140415,1,0,0:0:0:0:
352,320,140561,1,0,0:0:0:0:
120,272,140707,5,0,0:0:0:0:
120,272,140780,1,0,0:0:0:0:
120,272,140854,2,0,B|96:224|96:224|120:200|88:176|32:136|224:256|200:208|120:104|184:80|240:160|288:48,1,340
286,51,141512,1,0,0:0:0:0:
286,51,141585,1,0,0:0:0:0:
408,168,141732,5,0,0:0:0:0:
256,248,141878,2,0,L|216:272,2,42.5
144,120,142171,2,0,L|184:152,2,42.5
72,272,142463,1,0,0:0:0:0:
72,272,142610,1,0,0:0:0:0:
344,320,143049,5,0,0:0:0:0:
128,64,143341,1,0,0:0:0:0:
472,72,143634,1,0,0:0:0:0:
176,240,143927,1,0,0:0:0:0:
320,152,144073,5,0,0:0:0:0:
320,152,144146,1,0,0:0:0:0:
320,152,144219,1,0,0:0:0:0:
384,240,144366,1,0,0:0:0:0:
320,152,144512,1,0,0:0:0:0:
440,304,144659,1,0,0:0:0:0:
440,304,144805,2,0,P|368:328|328:320,1,85
96,136,145390,5,0,0:0:0:0:
352,56,145976,6,0,P|384:96|384:128,1,85
376,152,146195,1,0,0:0:0:0:
368,176,146268,1,0,0:0:0:0:
360,192,146341,1,0,0:0:0:0:
344,208,146415,1,0,0:0:0:0:
328,224,146488,1,0,0:0:0:0:
296,248,146561,5,0,0:0:0:0:
256,264,146634,1,0,0:0:0:0:
216,264,146707,1,0,0:0:0:0:
176,248,146780,1,0,0:0:0:0:
136,232,146854,6,0,L|120:184,1,42.5
32,96,147000,2,0,L|48:144,1,42.5
160,112,147146,2,0,B|208:104|208:104|240:88|256:104|256:104|280:80|328:80,1,170
408,296,147732,5,0,0:0:0:0:
408,296,147878,1,0,0:0:0:0:
208,304,148024,1,0,0:0:0:0:
104,88,148317,5,0,0:0:0:0:
104,88,148463,1,0,0:0:0:0:
304,80,148610,1,0,0:0:0:0:
416,200,148756,6,0,L|368:176,1,42.5
312,240,148902,2,0,L|272:264,1,42.5
232,176,149049,1,0,0:0:0:0:
168,256,149195,1,0,0:0:0:0:
96,184,149341,1,0,0:0:0:0:
56,280,149488,1,0,0:0:0:0:
56,280,149634,1,0,0:0:0:0:
136,336,149780,1,0,0:0:0:0:
392,96,150073,5,0,0:0:0:0:
392,96,150219,1,0,0:0:0:0:
400,264,150366,1,0,0:0:0:0:
120,288,150659,5,0,0:0:0:0:
120,288,150805,1,0,0:0:0:0:
112,120,150952,1,0,0:0:0:0:
224,288,151098,1,0,0:0:0:0:
208,80,151244,1,0,0:0:0:0:
320,288,151390,1,0,0:0:0:0:
296,48,151537,1,0,0:0:0:0:
432,296,151683,1,0,0:0:0:0:
384,24,151829,5,0,0:0:0:0:
400,56,151902,1,0,0:0:0:0:
408,96,151976,1,0,0:0:0:0:
408,136,152049,1,0,0:0:0:0:
392,168,152122,1,0,0:0:0:0:
360,192,152195,1,0,0:0:0:0:
320,200,152268,1,0,0:0:0:0:
280,192,152341,1,0,0:0:0:0:
240,176,152415,5,0,0:0:0:0:
208,152,152488,1,0,0:0:0:0:
176,136,152561,1,0,0:0:0:0:
136,136,152634,1,0,0:0:0:0:
104,160,152707,2,0,L|72:192,2,42.5
72,216,152927,1,0,0:0:0:0:
72,256,153000,5,0,0:0:0:0:
88,288,153073,1,0,0:0:0:0:
120,312,153146,1,0,0:0:0:0:
152,328,153219,1,0,0:0:0:0:
192,328,153293,2,0,L|240:312,1,42.5
432,224,153439,2,0,L|368:248,1,42.5
208,216,153585,2,0,L|272:200,1,42.5
392,80,153732,2,0,L|328:104,1,42.5
320,104,153878,5,0,0:0:0:0:
288,104,153951,1,0,0:0:0:0:
264,88,154024,1,0,0:0:0:0:
240,72,154098,1,0,0:0:0:0:
216,64,154171,1,0,0:0:0:0:
184,56,154244,1,0,0:0:0:0:
152,56,154317,1,0,0:0:0:0:
128,72,154390,1,0,0:0:0:0:
120,104,154463,6,0,L|144:144,2,42.5
144,176,154683,1,0,0:0:0:0:
136,208,154756,1,0,0:0:0:0:
120,232,154829,1,0,0:0:0:0:
112,264,154902,1,0,0:0:0:0:
120,296,154976,1,0,0:0:0:0:
136,320,155049,6,0,L|184:352,1,42.5
424,368,155195,2,0,L|360:336,1,42.5
352,232,155341,1,0,0:0:0:0:
320,248,155415,1,0,0:0:0:0:
288,256,155488,1,0,0:0:0:0:
256,256,155561,1,0,0:0:0:0:
224,240,155634,1,0,0:0:0:0:
200,216,155707,1,0,0:0:0:0:
184,192,155780,5,0,0:0:0:0:
168,168,155854,1,0,0:0:0:0:
168,136,155927,1,0,0:0:0:0:
168,104,156000,1,0,0:0:0:0:
176,72,156073,1,0,0:0:0:0:
200,48,156146,1,0,0:0:0:0:
232,40,156219,5,0,0:0:0:0:
264,40,156293,1,0,0:0:0:0:
288,56,156366,1,0,0:0:0:0:
304,80,156439,1,0,0:0:0:0:
312,112,156512,2,0,P|328:168|320:216,1,93.5000028533936
160,288,156805,5,0,0:0:0:0:
104,112,156951,1,0,0:0:0:0:
280,168,157098,1,0,0:0:0:0:
74,210,157244,5,0,0:0:0:0:
210,46,157390,1,0,0:0:0:0:
301,237,157537,1,0,0:0:0:0:
96,107,157683,5,0,0:0:0:0:
171,340,157829,1,0,0:0:0:0:
298,128,157976,1,0,0:0:0:0:
96,272,158122,5,0,0:0:0:0:
219,36,158268,1,0,0:0:0:0:
386,238,158415,1,0,0:0:0:0:
64,80,158561,5,0,0:0:0:0:
232,336,158707,1,0,0:0:0:0:
392,80,158854,1,0,0:0:0:0:
392,80,159000,2,0,P|400:136|400:176,1,93.5000028533936
232,264,159293,5,0,0:0:0:0:
200,264,159366,1,0,0:0:0:0:
168,264,159439,1,0,0:0:0:0:
248,104,159585,1,0,0:0:0:0:
72,168,159732,1,0,0:0:0:0:
176,16,159878,1,0,0:0:0:0:
184,200,160024,5,0,0:0:0:0:
368,184,160171,1,0,0:0:0:0:
112,280,160317,1,0,0:0:0:0:
432,240,160463,1,0,0:0:0:0:
432,240,160537,1,0,0:0:0:0:
432,240,160610,1,0,0:0:0:0:
112,168,160756,1,0,0:0:0:0:
248,40,160902,6,0,L|272:112,1,46.7500014266968
328,168,161049,2,0,L|352:120,1,46.7500014266968
400,40,161195,2,0,P|432:88|440:136,1,93.5000028533936
360,288,161488,1,0,0:0:0:0:
176,240,161634,1,0,0:0:0:0:
304,104,161780,1,0,0:0:0:0:
304,344,161927,1,0,0:0:0:0:
64,312,162073,1,0,0:0:0:0:
104,72,162219,5,0,0:0:0:0:
128,72,162293,1,0,0:0:0:0:
152,72,162366,1,0,0:0:0:0:
176,72,162439,1,0,0:0:0:0:
200,72,162512,1,0,0:0:0:0:
224,72,162585,1,0,0:0:0:0:
248,72,162659,1,0,0:0:0:0:
272,72,162732,1,0,0:0:0:0:
296,72,162805,1,0,0:0:0:0:
320,72,162878,1,0,0:0:0:0:
344,72,162951,6,0,B|408:80|432:96|472:128|400:192|440:256|344:248|344:248|384:304|344:336,1,374.000011413575
88,80,167634,6,0,B|152:112|176:96|176:96|232:120|264:104,1,170
336,88,168219,1,0,0:0:0:0:
408,200,168512,1,0,0:0:0:0:
328,304,168805,1,0,0:0:0:0:
96,136,169390,5,0,0:0:0:0:
392,56,169976,5,0,0:0:0:0:
144,296,170561,5,0,0:0:0:0:
168,296,170634,1,0,0:0:0:0:
192,296,170707,1,0,0:0:0:0:
216,296,170780,1,0,0:0:0:0:
240,296,170854,1,0,0:0:0:0:
304,288,171000,5,0,0:0:0:0:
336,288,171073,1,0,0:0:0:0:
368,280,171146,1,0,0:0:0:0:
400,264,171219,1,0,0:0:0:0:
424,240,171293,1,0,0:0:0:0:
432,208,171366,1,0,0:0:0:0:
424,176,171439,6,0,L|408:128,1,42.5
344,64,171585,2,0,L|320:112,1,42.5
192,208,171732,2,0,L|224:160,1,42.5
288,72,171878,2,0,L|264:120,1,42.5
136,224,172024,2,0,L|168:176,1,42.5
176,160,172171,5,0,0:0:0:0:
192,128,172244,1,0,0:0:0:0:
176,96,172317,1,0,0:0:0:0:
144,80,172390,1,0,0:0:0:0:
112,80,172463,1,0,0:0:0:0:
80,96,172537,1,0,0:0:0:0:
72,128,172610,6,0,L|80:184,1,42.5
144,240,172756,2,0,L|160:296,1,42.5
240,336,172902,2,0,B|320:344|296:336|304:336|304:336|312:320|336:304|384:320,1,110.499994941712
340,313,173122,1,0,0:0:0:0:
340,313,173195,1,0,0:0:0:0:
208,72,173341,6,0,L|96:120,1,110.499994941712
304,312,173634,2,0,L|416:264,1,110.499994941712
312,48,173927,2,0,L|360:160,1,110.499994941712
160,320,174219,1,0,0:0:0:0:
96,104,174366,1,0,0:0:0:0:
312,160,174512,5,0,0:0:0:0:
104,232,174659,1,0,0:0:0:0:
256,88,174805,1,0,0:0:0:0:
240,320,174951,1,0,0:0:0:0:
416,88,175098,1,0,0:0:0:0:
120,80,175244,1,0,0:0:0:0:
368,272,175390,5,0,0:0:0:0:
240,48,175537,1,0,0:0:0:0:
64,296,175683,1,0,0:0:0:0:
392,168,175829,1,0,0:0:0:0:
192,352,175976,1,0,0:0:0:0:
80,64,176122,1,0,0:0:0:0:
392,304,176268,1,0,0:0:0:0:
144,40,176415,5,0,0:0:0:0:
192,328,176561,1,0,0:0:0:0:
240,64,176707,1,0,0:0:0:0:
96,304,176853,1,0,0:0:0:0:
368,32,177000,1,0,0:0:0:0:
320,328,177146,1,0,0:0:0:0:
272,64,177293,1,0,0:0:0:0:
416,296,177439,1,0,0:0:0:0:
96,136,177585,6,0,P|88:200|104:256,1,110.499994941712
328,88,177878,1,0,0:0:0:0:
384,312,178024,2,0,P|304:336|264:328,1,110.499994941712
184,96,178317,1,0,0:0:0:0:
48,288,178463,1,0,0:0:0:0:
48,288,178537,1,0,0:0:0:0:
48,288,178610,1,0,0:0:0:0:
368,200,178756,6,0,P|368:136|352:88,1,110.499994941712
184,312,179049,1,0,0:0:0:0:
64,96,179195,2,0,P|128:64|168:64,1,110.499994941712
256,288,179488,1,0,0:0:0:0:
376,64,179634,1,0,0:0:0:0:
104,184,179780,1,0,0:0:0:0:
424,280,179927,6,0,P|336:304|304:304,1,110.499994941712
216,112,180219,1,0,0:0:0:0:
136,320,180366,1,0,0:0:0:0:
352,184,180512,1,0,0:0:0:0:
72,240,180659,1,0,0:0:0:0:
344,304,180805,5,0,0:0:0:0:
112,80,180951,1,0,0:0:0:0:
96,296,181098,1,0,0:0:0:0:
352,72,181244,1,0,0:0:0:0:
352,72,181317,1,0,0:0:0:0:
352,72,181390,1,0,0:0:0:0:
80,152,181537,5,0,0:0:0:0:
360,336,181683,1,0,0:0:0:0:
416,48,181829,1,0,0:0:0:0:
168,336,181976,1,0,0:0:0:0:
160,32,182122,1,0,0:0:0:0:
432,192,182268,6,0,P|376:216|336:232,1,93.5000028533936
216,88,182561,1,0,0:0:0:0:
128,256,182707,1,0,0:0:0:0:
128,256,182780,1,0,0:0:0:0:
128,256,182854,1,0,0:0:0:0:
312,280,183000,1,0,0:0:0:0:
392,112,183146,1,0,0:0:0:0:
208,80,183293,1,0,0:0:0:0:
152,240,183439,5,0,0:0:0:0:
368,240,183585,1,0,0:0:0:0:
136,200,183732,1,0,0:0:0:0:
384,280,183878,1,0,0:0:0:0:
152,160,184024,1,0,0:0:0:0:
376,320,184171,1,0,0:0:0:0:
176,128,184317,1,0,0:0:0:0:
360,360,184463,1,0,0:0:0:0:
336,56,184610,5,0,0:0:0:0:
312,56,184683,1,0,0:0:0:0:
288,56,184756,1,0,0:0:0:0:
104,192,184902,1,0,0:0:0:0:
360,304,185049,2,0,L|256:304,1,93.5000028533936
56,304,185341,1,0,0:0:0:0:
56,64,185488,1,0,0:0:0:0:
288,56,185634,1,0,0:0:0:0:
312,56,185707,1,0,0:0:0:0:
336,56,185780,1,0,0:0:0:0:
176,280,185927,5,0,0:0:0:0:
328,136,186073,1,0,0:0:0:0:
328,136,186219,1,0,0:0:0:0:
128,136,186366,5,0,0:0:0:0:
336,264,186512,1,0,0:0:0:0:
336,264,186659,1,0,0:0:0:0:
200,48,186805,1,0,0:0:0:0:
112,312,186951,1,0,0:0:0:0:
112,312,187024,1,0,0:0:0:0:
112,312,187098,1,0,0:0:0:0:
400,304,187244,5,0,0:0:0:0:
368,80,187390,2,0,L|272:112,1,93.5000028533936
80,224,187683,2,0,L|168:272,1,93.5000028533936
162,268,187902,1,0,0:0:0:0:
162,268,187976,1,0,0:0:0:0:
368,160,188122,5,0,0:0:0:0:
104,160,188268,1,0,0:0:0:0:
368,160,188415,1,0,0:0:0:0:
208,328,188561,5,0,0:0:0:0:
264,56,188707,1,0,0:0:0:0:
208,328,188854,1,0,0:0:0:0:
264,56,189000,1,0,0:0:0:0:
400,280,189146,5,0,0:0:0:0:
120,96,189293,1,0,0:0:0:0:
136,320,189439,1,0,0:0:0:0:
352,72,189585,2,0,P|376:112|384:160,1,93.5000028533936
384,160,189805,1,0,0:0:0:0:
384,160,189878,1,0,0:0:0:0:
112,176,190024,1,0,0:0:0:0:
336,328,190171,1,0,0:0:0:0:
136,56,190317,5,0,0:0:0:0:
168,280,190463,1,0,0:0:0:0:
208,96,190610,5,0,0:0:0:0:
232,224,190756,1,0,0:0:0:0:
280,128,190902,5,0,0:0:0:0:
296,176,191049,1,0,0:0:0:0:
328,152,191195,1,0,0:0:0:0:
296,136,191341,1,0,0:0:0:0:
304,160,191488,1,0,0:0:0:0:
120,64,191634,5,0,0:0:0:0:
96,200,191780,2,0,L|144:208,2,46.7500014266968
168,328,192073,2,0,L|224:304,1,46.7500014266968
320,328,192219,1,0,0:0:0:0:
408,112,192365,5,0,0:0:0:0:
