osu file format v14

[General]
AudioFilename: audio.mp3
AudioLeadIn: 0
PreviewTime: -1
Countdown: 0
SampleSet: None
StackLeniency: 0.7
Mode: 3
LetterboxInBreaks: 0
SpecialStyle: 0
WidescreenStoryboard: 0

[Editor]
DistanceSpacing: 1
BeatDivisor: 4
GridSize: 32
TimelineZoom: 1

[Metadata]
Title:Within the Rainbow Colored Light
TitleUnicode:Within the Rainbow Colored Light
Artist:Amane Suzuha Character Song
ArtistUnicode:Amane Suzuha Character Song
Creator:Erick-Kun
Version:Time Travel
Source:
Tags:
BeatmapID:970970
BeatmapSetID:452679

[Difficulty]
HPDrainRate:8
CircleSize:4
OverallDifficulty:8
ApproachRate:5
SliderMultiplier:1.4
SliderTickRate:1

[Events]
//Background and Video events
0,0,"maxresdefault.jpg",0,0
//Break Periods
//Storyboard Layer 0 (Background)
//Storyboard Layer 1 (Fail)
//Storyboard Layer 2 (Pass)
//Storyboard Layer 3 (Foreground)
//Storyboard Sound Samples

[TimingPoints]
545,428.571428571429,4,1,0,100,1,0
26070,-66.6666666666667,4,1,0,100,0,0
26284,-100,4,1,0,100,0,0
43427,-200,4,1,0,100,0,0
51825,428.571428571429,4,1,0,100,1,0
51825,-200,4,1,0,100,0,0
56898,-66.6666666666667,4,1,0,100,0,0
57973,-133.333333333333,4,1,0,100,0,0
58656,428.571428571429,4,1,0,100,1,0
58829,-100,4,1,0,100,0,0

[HitObjects]
64,192,545,128,0,2260:0:0:0:0:
192,192,2260,1,0,0:0:0:0:
320,192,2260,1,0,0:0:0:0:
448,192,2367,1,0,0:0:0:0:
320,192,2474,1,0,0:0:0:0:
192,192,2581,1,0,0:0:0:0:
320,192,2688,1,0,0:0:0:0:
448,192,2795,1,0,0:0:0:0:
64,192,2902,1,0,0:0:0:0:
192,192,3010,1,0,0:0:0:0:
320,192,3117,1,0,0:0:0:0:
192,192,3224,1,0,0:0:0:0:
64,192,3331,1,0,0:0:0:0:
448,192,3438,1,0,0:0:0:0:
320,192,3545,1,0,0:0:0:0:
192,192,3652,1,0,0:0:0:0:
320,192,3760,1,0,0:0:0:0:
448,192,3867,1,0,0:0:0:0:
64,192,3974,1,0,0:0:0:0:
320,192,3974,1,0,0:0:0:0:
192,192,4081,1,0,0:0:0:0:
320,192,4188,1,0,0:0:0:0:
192,192,4295,1,0,0:0:0:0:
64,192,4402,1,0,0:0:0:0:
320,192,4402,1,0,0:0:0:0:
448,192,4510,1,0,0:0:0:0:
320,192,4617,1,0,0:0:0:0:
192,192,4724,1,0,0:0:0:0:
320,192,4831,1,0,0:0:0:0:
448,192,4938,1,0,0:0:0:0:
64,192,5045,1,0,0:0:0:0:
192,192,5152,1,0,0:0:0:0:
320,192,5260,1,0,0:0:0:0:
192,192,5367,1,0,0:0:0:0:
64,192,5474,1,0,0:0:0:0:
448,192,5581,1,0,0:0:0:0:
320,192,5688,1,0,0:0:0:0:
192,192,5795,1,0,0:0:0:0:
320,192,5902,1,0,0:0:0:0:
448,192,6010,1,0,0:0:0:0:
64,192,6117,1,0,0:0:0:0:
320,192,6117,1,0,0:0:0:0:
192,192,6224,1,0,0:0:0:0:
320,192,6331,1,0,0:0:0:0:
192,192,6438,1,0,0:0:0:0:
64,192,6545,1,0,0:0:0:0:
320,192,6545,1,0,0:0:0:0:
448,192,6652,1,0,0:0:0:0:
320,192,6760,1,0,0:0:0:0:
192,192,6867,1,0,0:0:0:0:
320,192,6974,1,0,0:0:0:0:
448,192,7081,1,0,0:0:0:0:
64,192,7188,1,0,0:0:0:0:
192,192,7295,1,0,0:0:0:0:
320,192,7402,1,0,0:0:0:0:
192,192,7510,1,0,0:0:0:0:
64,192,7617,1,0,0:0:0:0:
448,192,7724,1,0,0:0:0:0:
320,192,7831,1,0,0:0:0:0:
192,192,7938,1,0,0:0:0:0:
320,192,8045,1,0,0:0:0:0:
448,192,8152,1,0,0:0:0:0:
64,192,8260,1,0,0:0:0:0:
320,192,8260,1,0,0:0:0:0:
192,192,8367,1,0,0:0:0:0:
320,192,8474,1,0,0:0:0:0:
192,192,8581,1,0,0:0:0:0:
64,192,8688,1,0,0:0:0:0:
320,192,8688,1,0,0:0:0:0:
448,192,8795,1,0,0:0:0:0:
320,192,8902,1,0,0:0:0:0:
192,192,9010,1,0,0:0:0:0:
320,192,9117,1,0,0:0:0:0:
448,192,9224,1,0,0:0:0:0:
64,192,9331,1,0,0:0:0:0:
192,192,9438,1,0,0:0:0:0:
320,192,9545,1,0,0:0:0:0:
192,192,9652,1,0,0:0:0:0:
64,192,9760,1,0,0:0:0:0:
448,192,9867,1,0,0:0:0:0:
320,192,9974,1,0,0:0:0:0:
192,192,10081,1,0,0:0:0:0:
320,192,10188,1,0,0:0:0:0:
448,192,10295,1,0,0:0:0:0:
64,192,10402,1,0,0:0:0:0:
320,192,10402,1,0,0:0:0:0:
192,192,10510,1,0,0:0:0:0:
320,192,10617,1,0,0:0:0:0:
192,192,10724,1,0,0:0:0:0:
64,192,10831,1,0,0:0:0:0:
320,192,10831,1,0,0:0:0:0:
448,192,10938,1,0,0:0:0:0:
320,192,11045,1,0,0:0:0:0:
192,192,11152,1,0,0:0:0:0:
320,192,11260,1,0,0:0:0:0:
448,192,11367,1,0,0:0:0:0:
64,192,11474,1,0,0:0:0:0:
192,192,11581,1,0,0:0:0:0:
320,192,11688,1,0,0:0:0:0:
192,192,11795,1,0,0:0:0:0:
64,192,11902,1,0,0:0:0:0:
448,192,12010,1,0,0:0:0:0:
320,192,12117,1,0,0:0:0:0:
192,192,12224,1,0,0:0:0:0:
320,192,12331,1,0,0:0:0:0:
448,192,12438,1,0,0:0:0:0:
320,192,12545,1,0,0:0:0:0:
448,192,12652,1,0,0:0:0:0:
320,192,12760,1,0,0:0:0:0:
192,192,12867,1,0,0:0:0:0:
320,192,12974,1,0,0:0:0:0:
448,192,13081,1,0,0:0:0:0:
64,192,13188,1,0,0:0:0:0:
192,192,13295,1,0,0:0:0:0:
320,192,13402,1,0,0:0:0:0:
192,192,13510,1,0,0:0:0:0:
64,192,13617,1,0,0:0:0:0:
448,192,13724,1,0,0:0:0:0:
320,192,13831,1,0,0:0:0:0:
192,192,13938,1,0,0:0:0:0:
320,192,14045,1,0,0:0:0:0:
448,192,14152,1,0,0:0:0:0:
320,192,14260,1,0,0:0:0:0:
64,192,14260,1,0,0:0:0:0:
192,192,14367,1,0,0:0:0:0:
320,192,14474,1,0,0:0:0:0:
192,192,14581,1,0,0:0:0:0:
64,192,14688,1,0,0:0:0:0:
320,192,14688,1,0,0:0:0:0:
448,192,14795,1,0,0:0:0:0:
320,192,14902,1,0,0:0:0:0:
192,192,15010,1,0,0:0:0:0:
320,192,15117,1,0,0:0:0:0:
448,192,15224,1,0,0:0:0:0:
64,192,15331,1,0,0:0:0:0:
192,192,15438,1,0,0:0:0:0:
320,192,15545,1,0,0:0:0:0:
448,192,15545,1,0,0:0:0:0:
448,192,15652,1,0,0:0:0:0:
320,192,15760,1,0,0:0:0:0:
192,192,15867,1,0,0:0:0:0:
64,192,15974,1,0,0:0:0:0:
320,192,15974,1,0,0:0:0:0:
192,192,16188,128,0,16295:0:0:0:0:
448,192,16402,1,0,0:0:0:0:
192,192,16617,1,0,0:0:0:0:
448,192,16831,128,0,17260:0:0:0:0:
64,192,17045,1,0,0:0:0:0:
320,192,17260,1,0,0:0:0:0:
64,192,17474,1,0,0:0:0:0:
448,192,17688,1,0,0:0:0:0:
192,192,17902,1,0,0:0:0:0:
64,192,17902,128,0,18010:0:0:0:0:
448,192,18117,1,0,0:0:0:0:
320,192,18331,1,0,0:0:0:0:
64,192,18545,128,0,18974:0:0:0:0:
192,192,18974,1,0,0:0:0:0:
448,192,19188,1,0,0:0:0:0:
320,192,19402,1,0,0:0:0:0:
192,192,19617,128,0,19724:0:0:0:0:
448,192,19831,1,0,0:0:0:0:
192,192,20045,1,0,0:0:0:0:
320,192,20260,128,0,20688:0:0:0:0:
192,192,20474,1,0,0:0:0:0:
64,192,20688,1,0,0:0:0:0:
320,192,20902,1,0,0:0:0:0:
192,192,21117,1,0,0:0:0:0:
64,192,21331,128,0,21438:0:0:0:0:
192,192,21545,1,0,0:0:0:0:
320,192,21760,1,0,0:0:0:0:
64,192,21974,128,0,22402:0:0:0:0:
320,192,22188,1,0,0:0:0:0:
448,192,22402,1,0,0:0:0:0:
192,192,22617,1,0,0:0:0:0:
320,192,22831,1,0,0:0:0:0:
192,192,23045,128,0,23260:0:0:0:0:
448,192,23260,1,0,0:0:0:0:
64,192,23474,1,0,0:0:0:0:
320,192,23688,128,0,24117:0:0:0:0:
448,192,23688,128,0,24117:0:0:0:0:
192,192,24117,1,0,0:0:0:0:
448,192,24545,1,0,0:0:0:0:
192,192,24760,1,0,0:0:0:0:
64,192,24974,1,0,0:0:0:0:
320,192,25402,128,0,25831:0:0:0:0:
192,192,25831,1,0,0:0:0:0:
448,192,25831,1,0,0:0:0:0:
64,192,26045,128,0,26260:0:0:0:0:
192,192,26260,1,0,0:0:0:0:
448,192,26474,128,0,26688:0:0:0:0:
320,192,26688,1,0,0:0:0:0:
192,192,26795,1,0,0:0:0:0:
64,192,26902,1,0,0:0:0:0:
192,192,27117,128,0,27545:0:0:0:0:
448,192,27117,128,0,27545:0:0:0:0:
320,192,27331,1,0,0:0:0:0:
64,192,27545,1,0,0:0:0:0:
320,192,27760,1,0,0:0:0:0:
64,192,27974,1,0,0:0:0:0:
192,192,27974,1,0,0:0:0:0:
192,192,28188,128,0,28402:0:0:0:0:
448,192,28188,128,0,28402:0:0:0:0:
64,192,28402,1,0,0:0:0:0:
192,192,28510,1,0,0:0:0:0:
320,192,28617,1,0,0:0:0:0:
64,192,28831,128,0,29260:0:0:0:0:
320,192,29260,1,0,0:0:0:0:
320,192,29688,1,0,0:0:0:0:
192,192,29688,1,0,0:0:0:0:
64,192,29902,128,0,30117:0:0:0:0:
192,192,30117,1,0,0:0:0:0:
320,192,30224,1,0,0:0:0:0:
448,192,30331,1,0,0:0:0:0:
192,192,30545,128,0,30974:0:0:0:0:
64,192,30760,1,0,0:0:0:0:
320,192,30974,1,0,0:0:0:0:
448,192,31188,1,0,0:0:0:0:
64,192,31402,128,0,31617:0:0:0:0:
320,192,31402,128,0,31617:0:0:0:0:
192,192,31617,128,0,31724:0:0:0:0:
448,192,31831,1,0,0:0:0:0:
320,192,31938,1,0,0:0:0:0:
192,192,32045,1,0,0:0:0:0:
64,192,32260,128,0,32688:0:0:0:0:
320,192,32260,128,0,32688:0:0:0:0:
192,192,32688,1,0,0:0:0:0:
448,192,32902,1,0,0:0:0:0:
320,192,33010,1,0,0:0:0:0:
192,192,33117,1,0,0:0:0:0:
64,192,33117,1,0,0:0:0:0:
320,192,33331,128,0,33438:0:0:0:0:
448,192,33331,128,0,33438:0:0:0:0:
64,192,33545,1,0,0:0:0:0:
192,192,33545,1,0,0:0:0:0:
192,192,33652,128,0,33760:0:0:0:0:
320,192,33760,1,0,0:0:0:0:
448,192,33974,128,0,34402:0:0:0:0:
192,192,34188,1,0,0:0:0:0:
320,192,34402,1,0,0:0:0:0:
64,192,34831,1,0,0:0:0:0:
192,192,34831,1,0,0:0:0:0:
448,192,35045,128,0,35152:0:0:0:0:
192,192,35260,1,0,0:0:0:0:
64,192,35367,1,0,0:0:0:0:
192,192,35474,1,0,0:0:0:0:
192,192,35688,128,0,36117:0:0:0:0:
448,192,35688,128,0,36117:0:0:0:0:
64,192,36117,1,0,0:0:0:0:
320,192,36331,128,0,36545:0:0:0:0:
192,192,36545,1,0,0:0:0:0:
64,192,36760,128,0,36974:0:0:0:0:
192,192,36974,1,0,0:0:0:0:
448,192,37081,128,0,37188:0:0:0:0:
320,192,37402,128,0,37831:0:0:0:0:
64,192,37402,128,0,37831:0:0:0:0:
448,192,37617,1,0,0:0:0:0:
192,192,37831,1,0,0:0:0:0:
448,192,38045,1,0,0:0:0:0:
192,192,38260,1,0,0:0:0:0:
64,192,38260,1,0,0:0:0:0:
320,192,38474,128,0,38581:0:0:0:0:
64,192,38688,128,0,38795:0:0:0:0:
192,192,38795,128,0,38902:0:0:0:0:
320,192,38902,1,0,0:0:0:0:
192,192,39117,128,0,39545:0:0:0:0:
448,192,39117,128,0,39545:0:0:0:0:
320,192,39545,1,0,0:0:0:0:
64,192,39760,128,0,39974:0:0:0:0:
192,192,39974,1,0,0:0:0:0:
448,192,40188,128,0,40295:0:0:0:0:
192,192,40402,1,0,0:0:0:0:
320,192,40510,128,0,40617:0:0:0:0:
64,192,40831,128,0,41260:0:0:0:0:
448,192,40831,128,0,41260:0:0:0:0:
320,192,41260,1,0,0:0:0:0:
192,192,41474,1,0,0:0:0:0:
64,192,41688,1,0,0:0:0:0:
320,192,41688,1,0,0:0:0:0:
192,192,41902,128,0,42010:0:0:0:0:
320,192,42117,1,0,0:0:0:0:
448,192,42224,128,0,42331:0:0:0:0:
64,192,42545,128,0,42974:0:0:0:0:
320,192,42974,1,0,0:0:0:0:
192,192,43188,1,0,0:0:0:0:
64,192,43402,1,0,0:0:0:0:
448,192,43402,1,0,0:0:0:0:
64,192,43831,1,0,0:0:0:0:
320,192,43831,128,0,43938:0:0:0:0:
320,192,44260,1,0,0:0:0:0:
320,192,44688,1,0,0:0:0:0:
64,192,44688,128,0,44902:0:0:0:0:
192,192,44902,1,0,0:0:0:0:
320,192,44902,128,0,45974:0:0:0:0:
448,192,45117,1,0,0:0:0:0:
192,192,45545,1,0,0:0:0:0:
64,192,45974,1,0,0:0:0:0:
192,192,46402,1,0,0:0:0:0:
448,192,46617,128,0,47260:0:0:0:0:
320,192,46831,1,0,0:0:0:0:
192,192,47259,1,0,0:0:0:0:
192,192,47688,1,0,0:0:0:0:
64,192,47688,128,0,48117:0:0:0:0:
320,192,48117,1,0,0:0:0:0:
192,192,48331,128,0,48545:0:0:0:0:
320,192,48545,1,0,0:0:0:0:
64,192,48760,128,0,48974:0:0:0:0:
320,192,48974,1,0,0:0:0:0:
192,192,49188,128,0,49402:0:0:0:0:
448,192,49402,1,0,0:0:0:0:
320,192,49617,1,0,0:0:0:0:
64,192,50045,1,0,0:0:0:0:
320,192,50045,1,0,0:0:0:0:
192,192,50260,128,0,50688:0:0:0:0:
320,192,50688,1,0,0:0:0:0:
64,192,51117,128,0,51545:0:0:0:0:
320,192,51545,1,0,0:0:0:0:
448,192,51825,128,0,52253:0:0:0:0:
192,192,52039,1,0,0:0:0:0:
320,192,52039,1,0,0:0:0:0:
192,192,52467,1,0,0:0:0:0:
320,192,52467,1,0,0:0:0:0:
64,192,52616,128,0,52723:0:0:0:0:
192,192,52830,128,0,53152:0:0:0:0:
320,192,53217,1,0,0:0:0:0:
64,192,53539,1,0,0:0:0:0:
448,192,53753,128,0,54610:0:0:0:0:
192,192,54289,1,0,0:0:0:0:
320,192,54610,1,0,0:0:0:0:
64,192,54825,1,0,0:0:0:0:
192,192,54825,1,0,0:0:0:0:
192,192,55039,1,0,0:0:0:0:
320,192,55039,1,0,0:0:0:0:
448,192,55253,128,0,56753:0:0:0:0:
192,192,55467,1,0,0:0:0:0:
64,192,55467,1,0,0:0:0:0:
320,192,55896,1,0,0:0:0:0:
192,192,55896,1,0,0:0:0:0:
64,192,56325,1,0,0:0:0:0:
192,192,56325,1,0,0:0:0:0:
64,192,56902,128,0,57973:0:0:0:0:
192,192,57973,1,0,0:0:0:0:
192,192,58253,1,0,0:0:0:0:
448,192,58253,1,0,0:0:0:0:
320,192,58467,1,0,0:0:0:0:
64,192,58656,1,0,0:0:0:0:
192,192,58656,1,0,0:0:0:0:
192,192,58870,1,0,0:0:0:0:
320,192,58870,1,0,0:0:0:0:
448,192,59084,1,0,0:0:0:0:
320,192,59191,1,0,0:0:0:0:
192,192,59298,1,0,0:0:0:0:
64,192,59298,1,0,0:0:0:0:
320,192,59406,1,0,0:0:0:0:
448,192,59513,1,0,0:0:0:0:
320,192,59620,1,0,0:0:0:0:
192,192,59727,1,0,0:0:0:0:
64,192,59727,1,0,0:0:0:0:
320,192,59834,1,0,0:0:0:0:
448,192,59941,1,0,0:0:0:0:
320,192,60048,1,0,0:0:0:0:
192,192,60156,1,0,0:0:0:0:
64,192,60263,1,0,0:0:0:0:
192,192,60370,1,0,0:0:0:0:
448,192,60370,1,0,0:0:0:0:
320,192,60477,1,0,0:0:0:0:
64,192,60584,1,0,0:0:0:0:
192,192,60584,1,0,0:0:0:0:
320,192,60691,1,0,0:0:0:0:
192,192,60798,1,0,0:0:0:0:
64,192,60906,1,0,0:0:0:0:
192,192,61013,1,0,0:0:0:0:
320,192,61013,1,0,0:0:0:0:
192,192,61227,1,0,0:0:0:0:
320,192,61334,1,0,0:0:0:0:
448,192,61441,1,0,0:0:0:0:
320,192,61548,1,0,0:0:0:0:
448,192,61656,1,0,0:0:0:0:
320,192,61763,1,0,0:0:0:0:
192,192,61870,1,0,0:0:0:0:
64,192,61977,1,0,0:0:0:0:
192,192,62084,1,0,0:0:0:0:
448,192,62084,1,0,0:0:0:0:
320,192,62298,1,0,0:0:0:0:
192,192,62406,1,0,0:0:0:0:
448,192,62513,1,0,0:0:0:0:
192,192,62620,1,0,0:0:0:0:
64,192,62727,1,0,0:0:0:0:
320,192,62727,1,0,0:0:0:0:
320,192,62941,1,0,0:0:0:0:
192,192,63048,1,0,0:0:0:0:
64,192,63156,1,0,0:0:0:0:
320,192,63156,1,0,0:0:0:0:
192,192,63263,1,0,0:0:0:0:
320,192,63370,1,0,0:0:0:0:
448,192,63477,1,0,0:0:0:0:
320,192,63584,1,0,0:0:0:0:
192,192,63584,1,0,0:0:0:0:
64,192,63691,1,0,0:0:0:0:
192,192,63798,1,0,0:0:0:0:
320,192,63906,1,0,0:0:0:0:
448,192,64013,1,0,0:0:0:0:
192,192,64013,1,0,0:0:0:0:
320,192,64120,1,0,0:0:0:0:
192,192,64227,1,0,0:0:0:0:
64,192,64334,1,0,0:0:0:0:
192,192,64441,1,0,0:0:0:0:
448,192,64441,1,0,0:0:0:0:
320,192,64548,1,0,0:0:0:0:
192,192,64656,1,0,0:0:0:0:
64,192,64763,1,0,0:0:0:0:
192,192,64870,1,0,0:0:0:0:
64,192,64977,1,0,0:0:0:0:
192,192,65084,1,0,0:0:0:0:
320,192,65191,1,0,0:0:0:0:
192,192,65298,1,0,0:0:0:0:
64,192,65298,1,0,0:0:0:0:
448,192,65406,1,0,0:0:0:0:
320,192,65513,1,0,0:0:0:0:
192,192,65620,1,0,0:0:0:0:
448,192,65727,1,0,0:0:0:0:
64,192,65727,1,0,0:0:0:0:
192,192,65834,1,0,0:0:0:0:
448,192,65941,1,0,0:0:0:0:
192,192,66156,1,0,0:0:0:0:
448,192,66370,1,0,0:0:0:0:
64,192,66477,1,0,0:0:0:0:
320,192,66584,1,0,0:0:0:0:
192,192,66691,1,0,0:0:0:0:
64,192,66798,1,0,0:0:0:0:
448,192,66906,1,0,0:0:0:0:
192,192,67013,1,0,0:0:0:0:
320,192,67013,1,0,0:0:0:0:
64,192,67120,1,0,0:0:0:0:
320,192,67227,1,0,0:0:0:0:
448,192,67334,1,0,0:0:0:0:
64,192,67441,1,0,0:0:0:0:
320,192,67441,1,0,0:0:0:0:
320,192,67548,1,0,0:0:0:0:
64,192,67656,1,0,0:0:0:0:
64,192,67763,1,0,0:0:0:0:
320,192,67870,1,0,0:0:0:0:
64,192,68084,1,0,0:0:0:0:
64,192,68191,1,0,0:0:0:0:
320,192,68298,1,0,0:0:0:0:
320,192,68406,1,0,0:0:0:0:
192,192,68513,1,0,0:0:0:0:
64,192,68620,1,0,0:0:0:0:
192,192,68727,1,0,0:0:0:0:
320,192,68727,1,0,0:0:0:0:
448,192,68834,1,0,0:0:0:0:
320,192,68941,1,0,0:0:0:0:
192,192,69048,1,0,0:0:0:0:
320,192,69156,1,0,0:0:0:0:
64,192,69156,1,0,0:0:0:0:
192,192,69263,1,0,0:0:0:0:
320,192,69370,1,0,0:0:0:0:
448,192,69477,1,0,0:0:0:0:
320,192,69584,1,0,0:0:0:0:
192,192,69584,1,0,0:0:0:0:
64,192,69798,1,0,0:0:0:0:
192,192,69798,1,0,0:0:0:0:
320,192,70013,1,0,0:0:0:0:
448,192,70013,1,0,0:0:0:0:
192,192,70227,1,0,0:0:0:0:
320,192,70334,1,0,0:0:0:0:
64,192,70441,1,0,0:0:0:0:
192,192,70441,1,0,0:0:0:0:
448,192,70548,1,0,0:0:0:0:
320,192,70656,1,0,0:0:0:0:
192,192,70656,1,0,0:0:0:0:
64,192,70763,1,0,0:0:0:0:
192,192,70870,1,0,0:0:0:0:
448,192,70870,1,0,0:0:0:0:
320,192,70977,1,0,0:0:0:0:
192,192,71084,1,0,0:0:0:0:
448,192,71084,1,0,0:0:0:0:
64,192,71191,1,0,0:0:0:0:
