osu file format v12

[General]
AudioFilename: audio.mp3
AudioLeadIn: 1000
PreviewTime: 111896
Countdown: 0
SampleSet: Normal
StackLeniency: 0.7
Mode: 0
LetterboxInBreaks: 1

[Editor]
Bookmarks: 30038,57467,84896,112324,139753,153467,167181,180946,194610,223753,251181,278610
DistanceSpacing: 1.5
BeatDivisor: 4
GridSize: 4

[Metadata]
Title:Yume goro mo, Kinou no Koto -Rolling Contact Remix-
TitleUnicode:夢ごろも、昨日のコト -Rolling Contact Remix-
Artist:Amane
ArtistUnicode:天音
Creator:TicClick
Version:Hard
Source:Touhou
Tags:Tomorrow will be special yesterday was not IceBeam Reiji-RJ Vass_Bass Mountain Of Faith MoF Suwako Moriya
BeatmapID:180399
BeatmapSetID:57560

[Difficulty]
HPDrainRate:5
CircleSize:4
OverallDifficulty:6
ApproachRate:7
SliderMultiplier:1.4
SliderTickRate:1

[Events]
//Background and Video events
0,0,"asd.jpg",0,0
//Break Periods
2,140002,152617
2,181146,193760
//Storyboard Layer 0 (Background)
//Storyboard Layer 1 (Fail)
//Storyboard Layer 2 (Pass)
//Storyboard Layer 3 (Foreground)
//Storyboard Sound Samples
//Background Colour Transformations
3,100,163,162,255

[TimingPoints]
946,428.571428571429,4,1,0,50,1,0
1160,-133.333333333333,4,2,0,50,0,0
2553,-133.333333333333,4,1,0,50,0,0
2874,-133.333333333333,4,2,0,50,0,0
4267,-133.333333333333,4,1,0,50,0,0
4481,-133.333333333333,4,2,0,50,0,0
9410,-133.333333333333,4,1,0,50,0,0
9624,-133.333333333333,4,2,0,50,0,0
11124,-133.333333333333,4,1,0,50,0,0
11338,-133.333333333333,4,2,0,50,0,0
12838,-133.333333333333,4,1,0,50,0,0
13053,-133.333333333333,4,2,0,50,0,0
13267,-133.333333333333,4,1,0,50,0,0
13481,-133.333333333333,4,2,0,50,0,0
16053,-133.333333333333,4,1,0,50,0,0
16481,-133.333333333333,4,2,0,50,0,0
17981,-133.333333333333,4,1,0,50,0,0
18196,-133.333333333333,4,2,0,50,0,0
19481,-133.333333333333,4,1,0,50,0,0
20017,-133.333333333333,4,2,0,50,0,0
21410,-133.333333333333,4,1,0,50,0,0
21624,-133.333333333333,4,2,0,50,0,0
22910,-133.333333333333,4,1,0,50,0,0
23338,-133.333333333333,4,2,0,50,0,0
24838,-133.333333333333,4,1,0,50,0,0
25053,-133.333333333333,4,2,0,50,0,0
25910,-133.333333333333,4,1,0,50,0,0
26124,-133.333333333333,4,2,0,50,0,0
28803,-133.333333333333,4,2,0,35,0,0
29231,-133.333333333333,4,2,0,20,0,0
29660,-133.333333333333,4,1,0,40,0,0
30088,-100,4,1,1,50,0,0
54731,-100,4,1,1,55,0,0
55588,-100,4,1,1,60,0,0
55696,-100,4,1,1,60,0,0
56660,-100,4,1,1,50,0,0
57088,-100,4,2,1,60,0,0
57517,-100,4,1,0,50,0,1
57624,-100,4,2,1,50,0,0
58267,-100,4,1,1,50,0,0
58481,-100,4,2,1,50,0,0
59124,-100,4,1,1,50,0,0
59338,-100,4,2,1,50,0,0
59981,-100,4,1,1,50,0,0
60196,-100,4,2,1,50,0,0
60624,-100,4,1,1,50,0,0
61053,-100,4,2,1,50,0,0
61696,-100,4,1,1,50,0,0
61910,-100,4,2,1,50,0,0
62553,-100,4,1,1,50,0,0
64160,-100,4,2,1,50,0,0
64374,-100,4,1,1,50,0,0
64481,-100,4,2,1,50,0,0
65124,-100,4,1,1,50,0,0
65338,-100,4,2,1,50,0,0
65981,-100,4,1,1,50,0,0
66196,-100,4,2,1,50,0,0
66838,-100,4,1,1,50,0,0
67053,-100,4,2,1,50,0,0
67481,-100,4,1,1,50,0,0
67910,-100,4,2,1,50,0,0
68553,-100,4,1,1,50,0,0
68767,-100,4,2,1,50,0,0
69410,-100,4,1,1,50,0,0
71017,-100,4,2,1,50,0,0
71231,-100,4,1,1,50,0,0
71338,-100,4,2,1,50,0,0
71981,-100,4,1,1,50,0,0
72196,-100,4,2,1,50,0,0
72838,-100,4,1,1,50,0,0
73053,-100,4,2,1,50,0,0
73696,-100,4,1,1,50,0,0
73910,-100,4,2,1,50,0,0
74338,-100,4,1,1,50,0,0
74767,-100,4,2,1,50,0,0
75410,-100,4,1,1,50,0,0
75624,-100,4,2,1,50,0,0
76267,-100,4,1,1,50,0,0
77874,-100,4,2,1,50,0,0
78088,-100,4,1,1,50,0,0
78196,-100,4,2,1,50,0,0
78838,-100,4,1,1,50,0,0
79053,-100,4,2,1,50,0,0
79696,-100,4,1,1,50,0,0
79910,-100,4,2,1,50,0,0
80553,-100,4,1,1,50,0,0
80767,-100,4,2,1,50,0,0
81196,-100,4,1,1,50,0,0
81624,-100,4,2,1,50,0,0
82267,-100,4,1,1,50,0,0
82481,-100,4,2,1,50,0,0
83124,-100,4,1,1,50,0,0
84731,-100,4,2,1,50,0,0
84946,-100,4,1,1,50,0,0
85053,-100,4,2,1,50,0,0
85803,-100,4,1,1,50,0,0
85910,-100,4,2,1,50,0,0
86660,-100,4,1,1,50,0,0
86767,-100,4,2,1,50,0,0
87517,-100,4,1,1,50,0,0
87624,-100,4,2,1,50,0,0
88160,-100,4,1,1,50,0,0
88481,-100,4,2,1,50,0,0
89231,-100,4,1,1,50,0,0
89338,-100,4,2,1,50,0,0
90088,-100,4,1,1,50,0,0
91910,-100,4,2,1,50,0,0
92660,-100,4,1,1,50,0,0
92767,-100,4,2,1,50,0,0
93517,-100,4,1,1,50,0,0
93624,-100,4,2,1,50,0,0
94374,-100,4,1,1,50,0,0
94481,-100,4,2,1,50,0,0
95017,-100,4,1,1,50,0,0
95338,-100,4,2,1,50,0,0
96088,-100,4,1,1,50,0,0
96196,-100,4,2,1,50,0,0
96946,-100,4,1,1,50,0,0
98767,-100,4,2,1,50,0,0
100374,-100,4,1,1,50,0,0
100481,-100,4,2,1,50,0,0
101874,-100,4,1,1,50,0,0
102196,-100,4,2,1,50,0,0
102946,-100,4,1,1,50,0,0
103053,-100,4,2,1,50,0,0
103803,-100,4,1,1,50,0,0
103910,-100,4,2,1,50,0,0
104660,-100,4,1,1,50,0,0
104767,-100,4,2,1,50,0,0
105196,-100,4,1,1,50,0,0
105624,-100,4,1,1,40,0,0
107231,-100,4,1,1,45,0,0
108088,-100,4,1,1,50,0,0
108946,-100,4,1,1,50,0,0
109803,-100,4,1,1,55,0,0
110231,-100,4,1,1,60,0,0
110660,-100,4,1,1,70,0,0
110767,-100,4,1,1,50,0,0
112374,-100,4,1,1,50,0,1
138946,-100,4,1,1,40,0,1
139803,-133.333333333333,4,1,0,50,0,0
153517,-133.333333333333,4,2,0,60,0,0
153624,-133.333333333333,4,2,0,40,0,0
167339,-133.333333333333,4,2,0,35,0,0
174196,-133.333333333333,4,2,0,25,0,0
180946,-100,4,1,1,50,0,0
194767,-100,4,1,1,5,0,0
195088,-100,4,1,1,10,0,0
195517,-100,4,1,1,15,0,0
195946,-100,4,1,1,40,0,0
196374,-100,4,1,1,50,0,1
218660,-100,4,1,1,40,0,1
219088,-100,4,1,1,45,0,1
219517,-100,4,1,1,50,0,1
219946,-100,4,1,1,55,0,1
220374,-100,4,1,1,60,0,0
220481,-100,4,2,1,40,0,0
222088,-100,4,1,1,5,0,0
222517,-100,4,1,1,10,0,0
222946,-100,4,1,1,15,0,0
223374,-100,4,1,1,20,0,0
223802,-100,4,1,1,50,0,0
247802,-100,4,1,1,40,0,0
248659,-100,4,1,1,45,0,0
249517,-100,4,1,1,50,0,0
251124,-100,4,2,0,50,0,0
251231,-100,4,1,1,60,0,1
251338,-100,4,2,1,50,0,0

[Colours]
Combo1 : 232,121,0
Combo2 : 68,158,29
Combo3 : 4,67,198
Combo4 : 181,30,60

[HitObjects]
68,52,946,21,0,0:0:0:0:
132,116,1160,2,0,B|260:108,3,105.000004005432,2|2|2|2,0:0|0:0|0:0|0:0,0:0:0:0:
316,72,2660,1,0,0:0:0:0:
388,128,2874,2,0,B|376:256,3,105.000004005432,2|2|2|2,0:0|0:0|0:0|0:0,0:0:0:0:
320,300,4374,5,0,0:0:0:0:
324,304,4588,2,0,B|260:300|196:296,1,105.000004005432,2|2,0:0|0:0,0:0:0:0:
172,168,5446,2,0,B|228:172|300:176,1,105.000004005432,2|2,0:0|0:0,0:0:0:0:
356,208,6088,1,0,1:0:0:0:
440,184,6303,2,0,B|456:128|444:56,1,105.000004005432,0|0,1:0|1:0,0:0:0:0:
356,208,7160,2,0,B|340:264|352:336,1,105.000004005432,0|0,1:0|1:0,0:0:0:0:
252,332,7803,37,0,1:0:0:0:
192,252,8017,1,2,0:0:0:0:
260,184,8231,1,0,0:0:0:0:
192,252,8446,2,0,B|144:268|88:256,1,105.000004005432,2|2,0:0|0:0,0:0:0:0:
148,76,9303,1,2,0:0:0:0:
232,104,9517,2,0,B|264:96|296:104,1,52.5000020027161,0|2,0:0|0:0,0:0:0:0:
372,76,9946,1,0,0:0:0:0:
452,128,10160,2,0,B|468:184|452:248,2,105.000004005432,2|2|2,0:0|0:0|0:0,0:0:0:0:
372,76,11231,5,0,0:0:0:0:
368,168,11446,1,2,0:0:0:0:
452,128,11660,1,0,0:0:0:0:
372,76,11874,1,2,0:0:0:0:
140,76,12303,1,2,0:0:0:0:
372,76,12731,1,2,0:0:0:0:
368,168,12946,2,0,B|376:200|368:236,1,52.5000020027161,0|2,0:0|0:0,0:0:0:0:
280,264,13374,2,0,B|272:232|280:196,1,52.5000020027161,0|2,0:0|0:0,0:0:0:0:
292,112,13803,2,0,B|196:120,2,78.7500030040742,0|0|0,1:0|1:0|1:0,0:0:0:0:
372,76,14660,37,0,1:0:0:0:
440,140,14874,1,2,0:0:0:0:
400,220,15088,1,0,0:0:0:0:
308,200,15303,1,2,0:0:0:0:
312,204,15731,1,2,0:0:0:0:
316,208,16160,1,0,0:0:0:0:
264,288,16374,1,0,0:0:0:0:
328,352,16588,1,2,0:0:0:0:
412,320,16803,1,0,0:0:0:0:
408,228,17017,1,2,0:0:0:0:
412,232,17446,1,2,0:0:0:0:
416,236,17874,1,2,0:0:0:0:
380,136,18088,6,0,B|396:76,2,52.5000020027161,0|2|0,0:0|0:0|0:0,0:0:0:0:
292,128,18731,2,0,B|232:116|176:120,1,105.000004005432,2|2,0:0|0:0,0:0:0:0:
188,336,19588,1,0,0:0:0:0:
136,268,19803,2,0,B|120:208,2,52.5000020027161,0|2|0,0:0|0:0|0:0,0:0:0:0:
224,260,20446,2,0,B|284:248|340:252,1,105.000004005432,0|0,1:0|1:0,0:0:0:0:
456,84,21303,1,2,0:0:0:0:
364,56,21517,38,0,B|300:60,1,52.5000020027161,0|2,0:0|0:0,0:0:0:0:
220,80,21946,1,0,0:0:0:0:
120,48,22160,2,0,B|116:104|124:160,1,105.000004005432,2|2,0:0|0:0,0:0:0:0:
96,332,23017,1,0,0:0:0:0:
188,304,23231,2,0,B|252:308,1,52.5000020027161,0|2,0:0|0:0,0:0:0:0:
332,328,23660,1,0,0:0:0:0:
424,304,23874,2,0,B|428:248|420:192,1,105.000004005432,2|2,0:0|0:0,0:0:0:0:
460,32,24731,1,2,0:0:0:0:
376,48,24946,6,0,B|308:40,1,52.5000020027161,0|2,0:0|0:0,0:0:0:0:
256,140,25374,2,0,B|324:132,1,52.5000020027161,0|2,0:0|0:0,0:0:0:0:
220,48,25803,2,0,B|152:40,1,52.5000020027161
100,144,26231,2,0,B|168:136,1,52.5000020027161,0|0,0:0|1:0,0:0:0:0:
204,216,26660,2,0,B|216:264|200:316,2,78.7500030040742,0|0|0,1:0|1:0|1:0,0:0:0:0:
152,140,27517,2,0,B|140:92|156:40,2,78.7500030040742,0|0|0,1:0|1:0|1:0,0:0:0:0:
240,136,28374,37,4,1:0:0:0:
256,192,28481,12,4,30088,0:0:0:0:
64,96,30517,21,2,0:0:0:0:
144,136,30731,2,0,B|216:128|292:124,1,140,0|2,0:0|0:0,0:0:0:0:
368,92,31374,2,0,B|376:56|380:24,1,70,0|2,0:0|0:0,0:0:0:0:
444,144,31803,2,0,B|420:212|456:280,1,140,0|2,0:0|0:0,0:0:0:0:
380,336,32446,2,0,B|308:332|236:332,1,140,0|2,0:0|0:0,0:0:0:0:
148,328,33088,1,2,0:0:0:0:
56,324,33303,1,0,0:0:0:0:
108,248,33517,6,0,B|152:196|116:116,1,140,0|2,0:0|0:0,0:0:0:0:
48,80,34160,2,0,B|117:88|188:96,1,140,0|2,0:0|0:0,0:0:0:0:
280,128,34803,2,0,B|348:116,1,70,0|2,0:0|0:0,0:0:0:0:
432,156,35231,2,0,B|436:224|428:296,1,140,0|2,0:0|0:0,0:0:0:0:
324,356,35874,2,0,B|320:288|328:216,1,140,0|2,0:0|0:0,0:0:0:0:
280,128,36517,1,0,0:0:0:0:
280,128,36624,1,0,0:0:0:0:
344,52,36838,1,0,0:0:0:0:
344,52,36946,37,0,0:0:0:0:
100,164,37374,2,0,B|68:156|32:152,2,70,2|0|0,0:0|0:0|0:0,0:0:0:0:
176,212,38017,2,0,B|136:276|176:344,1,140,2|2,0:0|0:0,0:0:0:0:
264,332,38660,2,0,B|328:296|403:324,1,140
484,352,39303,1,2,0:0:0:0:
468,264,39517,2,0,B|480:196,1,70,0|2,0:0|0:0,0:0:0:0:
384,80,39946,2,0,B|396:148,1,70,2|0,0:0|0:0,0:0:0:0:
316,200,40374,5,0,0:0:0:0:
56,248,40803,1,2,0:0:0:0:
144,276,41017,1,0,0:0:0:0:
76,336,41231,1,0,0:0:0:0:
56,248,41446,2,0,B|52:172|48:108,1,140,2|2,0:0|0:0,0:0:0:0:
160,60,42088,2,0,B|232:44|232:76|300:60,1,140,0|0,0:0|0:0,0:0:0:0:
384,28,42731,1,2,0:0:0:0:
464,80,42946,2,0,B|464:112|456:152,1,70,0|2,0:0|0:0,0:0:0:0:
420,244,43374,1,0,0:0:0:0:
420,244,43481,1,0,0:0:0:0:
440,348,43696,1,0,0:0:0:0:
440,348,43803,38,0,B|376:308|304:344,1,140,4|2,0:0|0:0,0:0:0:0:
208,320,44446,2,0,B|138:354|74:314,1,140,0|2,0:0|0:0,0:0:0:0:
128,172,45088,2,0,B|140:208|128:240,1,70,0|2,0:0|0:0,0:0:0:0:
36,184,45517,2,0,B|8:116|36:48,1,140,4|0,0:0|0:0,0:0:0:0:
148,68,46160,2,0,B|292:72,1,140,2|2,0:0|0:0,0:0:0:0:
376,96,46803,5,0,0:0:0:0:
476,52,47017,1,0,0:0:0:0:
376,96,47231,1,4,0:0:0:0:
148,208,47660,37,0,0:0:0:0:
44,176,47874,1,0,0:0:0:0:
148,208,48088,1,4,0:0:0:0:
356,324,48517,5,0,0:0:0:0:
468,312,48731,1,0,0:0:0:0:
356,324,48945,1,4,0:0:0:0:
232,316,49160,38,0,B|196:312,2,35
300,216,49588,2,0,B|336:208,2,35
192,112,50017,2,0,B|156:104,6,35,0|0|0|0|0|0|4,0:0|0:0|0:0|0:0|0:0|0:0|0:0,0:0:0:0:
192,112,52160,5,0,0:0:0:0:
192,112,52374,1,4,0:0:0:0:
416,304,54088,37,4,0:0:0:0:
260,280,54731,1,0,0:0:0:0:
256,284,54946,1,4,0:0:0:0:
92,300,55588,1,0,0:0:0:0:
96,304,55803,1,4,0:0:0:0:
96,304,56660,6,0,B|88:269,1,35
152,164,56981,2,0,B|160:200,1,35,0|2,0:0|0:0,0:0:0:0:
176,204,57196,1,0,0:0:0:0:
192,208,57303,1,2,0:0:0:0:
208,212,57410,1,0,0:0:0:0:
224,216,57517,6,0,B|336:212,1,105,4|0,0:0|0:0,0:0:0:0:
352,232,57946,2,0,B|352:276|360:308,1,70,8|2,0:0|0:0,0:0:0:0:
436,192,58374,2,0,B|440:124|424:48,1,140,0|8,0:0|0:0,0:0:0:0:
340,16,59017,1,2,0:0:0:0:
260,60,59231,2,0,B|204:48|156:64,1,105
152,80,59660,1,8,0:0:0:0:
176,168,59874,1,2,0:0:0:0:
96,212,60088,2,0,B|68:292|112:360,1,140,0|8,0:0|0:0,0:0:0:0:
200,348,60731,1,0,0:0:0:0:
200,348,60946,6,0,B|348:340,1,140,0|8,0:0|0:0,0:0:0:0:
428,300,61588,1,2,0:0:0:0:
428,300,61803,2,0,B|436:224,1,70,0|2,0:0|0:0,0:0:0:0:
328,168,62231,2,0,B|336:244,1,70,8|2,0:0|0:0,0:0:0:0:
424,128,62660,1,0,0:0:0:0:
340,76,62874,1,2,0:0:0:0:
340,76,63303,1,2,0:0:0:0:
340,76,63731,1,2,0:0:0:0:
248,112,63946,1,2,0:0:0:0:
248,112,64053,1,0,0:0:0:0:
160,76,64267,1,0,0:0:0:0:
160,76,64374,38,0,B|116:68|72:80,1,70,4|2,0:0|0:0,0:0:0:0:
52,164,64803,2,0,B|96:172|140:160,1,70,8|2,0:0|0:0,0:0:0:0:
212,200,65231,2,0,B|192:280|236:356,1,140,0|8,0:0|0:0,0:0:0:0:
320,324,65874,1,2,0:0:0:0:
320,324,66088,2,0,B|388:320|468:316,1,140,0|8,0:0|0:0,0:0:0:0:
504,240,66731,1,2,0:0:0:0:
448,172,66946,2,0,B|380:176|300:180,1,140,0|8,0:0|0:0,0:0:0:0:
212,184,67588,1,0,0:0:0:0:
212,184,67803,6,0,B|196:132|208:56,1,105
232,80,68231,2,0,B|276:76|308:72,1,70,8|2,0:0|0:0,0:0:0:0:
120,36,68660,2,0,B|76:40|44:44,1,70,0|2,0:0|0:0,0:0:0:0:
40,136,69088,2,0,B|20:220|68:296,1,140,8|0,0:0|0:0,0:0:0:0:
152,296,69731,1,2,0:0:0:0:
152,296,70160,1,2,0:0:0:0:
152,296,70588,1,2,0:0:0:0:
248,280,70803,1,2,0:0:0:0:
248,280,70910,1,0,0:0:0:0:
340,292,71124,1,0,0:0:0:0:
340,292,71231,38,0,B|348:240|340:172,1,105,4|0,0:0|0:0,0:0:0:0:
368,184,71660,2,0,B|436:176,1,70,8|2,0:0|0:0,0:0:0:0:
296,96,72088,2,0,B|228:104,1,70,0|2,0:0|0:0,0:0:0:0:
132,120,72517,1,8,0:0:0:0:
136,124,72946,2,0,B|156:184|124:252,1,105,4|0,0:0|0:0,0:0:0:0:
144,248,73374,2,0,B|180:236|228:248,1,70,8|2,0:0|0:0,0:0:0:0:
184,336,73803,1,0,0:0:0:0:
184,336,73910,1,0,0:0:0:0:
184,336,74017,2,0,B|148:348|100:336,1,70,2|8,0:0|0:0,0:0:0:0:
48,268,74446,1,0,0:0:0:0:
48,268,74660,6,0,B|28:208|60:140,1,105,4|0,0:0|0:0,0:0:0:0:
64,172,75088,1,8,0:0:0:0:
68,84,75303,1,2,0:0:0:0:
156,72,75517,2,0,B|212:84|272:68,1,105,4|0,0:0|0:0,0:0:0:0:
260,70,75946,2,0,B|304:64|356:72,1,70,8|2,0:0|0:0,0:0:0:0:
416,36,76374,1,4,0:0:0:0:
480,108,76588,1,2,0:0:0:0:
480,108,77017,1,2,0:0:0:0:
480,108,77446,1,2,0:0:0:0:
428,180,77660,1,2,0:0:0:0:
428,180,77767,1,0,0:0:0:0:
340,152,77981,1,0,0:0:0:0:
340,152,78088,38,0,B|288:144|216:156,1,105,4|0,0:0|0:0,0:0:0:0:
236,152,78517,2,0,B|188:156|152:152,1,70,8|2,0:0|0:0,0:0:0:0:
72,144,78946,1,0,0:0:0:0:
72,144,79374,1,8,0:0:0:0:
88,228,79588,1,2,0:0:0:0:
104,312,79803,2,0,B|156:320|228:308,1,105,4|0,0:0|0:0,0:0:0:0:
208,312,80232,2,0,B|256:308|292:312,1,70,8|2,0:0|0:0,0:0:0:0:
272,216,80660,1,0,0:0:0:0:
272,216,80767,1,0,0:0:0:0:
272,216,80874,2,0,B|228:216|180:216,1,70,2|8,0:0|0:0,0:0:0:0:
188,120,81303,1,0,0:0:0:0:
188,120,81517,6,0,B|256:116|316:120,1,105,4|0,0:0|0:0,0:0:0:0:
308,128,81946,2,0,B|304:96|308:48,1,70,8|2,0:0|0:0,0:0:0:0:
408,140,82374,2,0,B|420:196|404:260,1,105,4|0,0:0|0:0,0:0:0:0:
416,268,82803,2,0,B|416:316|424:352,1,70,8|0,0:0|0:0,0:0:0:0:
332,364,83231,1,4,0:0:0:0:
240,336,83446,1,2,0:0:0:0:
240,336,83874,1,2,0:0:0:0:
240,336,84303,1,2,0:0:0:0:
252,244,84517,1,2,0:0:0:0:
252,244,84624,1,0,0:0:0:0:
264,152,84838,1,0,0:0:0:0:
264,152,84946,5,4,0:0:0:0:
132,32,85374,2,0,B|97:33|60:36,1,70,8|2,0:0|0:0,0:0:0:0:
208,76,85803,2,0,B|276:72|352:64,1,140,0|8,0:0|0:0,0:0:0:0:
428,24,86446,1,2,0:0:0:0:
468,108,86660,2,0,B|464:176,1,70,0|2,0:0|0:0,0:0:0:0:
372,232,87088,2,0,B|376:152,1,70,8|2,0:0|0:0,0:0:0:0:
276,216,87517,2,0,B|270:320,1,105
260,328,87946,2,0,B|180:320,1,70,8|0,0:0|0:0,0:0:0:0:
96,288,88374,6,0,B|60:224|92:152,1,140,0|8,0:0|0:0,0:0:0:0:
144,80,89017,1,2,0:0:0:0:
232,104,89231,2,0,B|301:99|376:100,1,140,0|8,0:0|0:0,0:0:0:0:
460,72,89874,1,2,0:0:0:0:
440,160,90088,1,0,0:0:0:0:
420,248,90303,1,2,0:0:0:0:
424,252,90731,1,2,0:0:0:0:
428,256,91160,1,10,0:0:0:0:
344,312,91374,1,10,0:0:0:0:
344,312,91481,1,0,0:0:0:0:
252,284,91696,1,0,0:0:0:0:
252,284,91803,38,0,B|200:284|148:288,1,105,4|0,0:0|0:0,0:0:0:0:
132,296,92231,2,0,B|96:288|64:288,1,70,8|2,0:0|0:0,0:0:0:0:
124,192,92660,2,0,B|140:136|120:88,1,105
132,76,93088,2,0,B|166:69|204:68,1,70,8|2,0:0|0:0,0:0:0:0:
304,44,93517,2,0,B|376:52|444:56,2,140,0|8|0,0:0|0:0|0:0,0:0:0:0:
202,68,94588,1,2,0:0:0:0:
144,156,94803,2,0,B|152:232,1,70,8|0,0:0|0:0,0:0:0:0:
148,316,95231,6,0,B|74:311|8:308,1,140,0|8,0:0|0:0,0:0:0:0:
100,216,95874,1,2,0:0:0:0:
100,216,96088,2,0,B|172:220|244:228,1,140,0|8,0:0|0:0,0:0:0:0:
308,288,96731,2,0,B|380:276,1,70,2|0,0:0|0:0,0:0:0:0:
464,256,97160,1,2,0:0:0:0:
468,260,97588,1,2,0:0:0:0:
472,264,98017,1,10,0:0:0:0:
448,168,98231,1,10,0:0:0:0:
448,168,98338,1,0,0:0:0:0:
424,72,98553,1,0,0:0:0:0:
424,72,98660,38,0,B|348:68|284:64,1,140,4|8,0:0|0:0,0:0:0:0:
200,100,99303,2,0,B|124:108|52:112,1,140,2|2,0:0|0:0,0:0:0:0:
29,211,99946,2,0,B|105:207,1,70,8|2,0:0|0:0,0:0:0:0:
99,208,100374,2,0,B|67:280|111:340,1,140,4|8,0:0|0:0,0:0:0:0:
208,316,101017,2,0,B|272:284|344:324,1,140,2|2,0:0|0:0,0:0:0:0:
432,328,101660,1,8,0:0:0:0:
476,248,101874,1,0,0:0:0:0:
420,176,102088,6,0,B|367:178|316:184,1,105,4|0,0:0|0:0,0:0:0:0:
304,192,102517,2,0,B|288:124,1,70,8|2,0:0|0:0,0:0:0:0:
180,64,102946,2,0,B|128:68|64:72,1,105
64,68,103374,2,0,B|52:140,1,70,8|2,0:0|0:0,0:0:0:0:
128,208,103803,2,0,B|168:268|136:344,2,140,0|8|0,0:0|0:0|0:0,0:0:0:0:
224,172,104874,1,8,0:0:0:0:
328,208,105088,2,0,B|364:216,1,35,8|0,0:0|0:0,0:0:0:0:
456,152,105410,2,0,B|416:140,1,35,0|4,0:0|0:0,0:0:0:0:
332,120,105731,37,0,0:0:0:0:
356,32,105946,1,8,0:0:0:0:
448,56,106160,1,0,0:0:0:0:
300,128,106374,5,0,0:0:0:0:
200,156,106588,1,0,0:0:0:0:
228,256,106803,1,8,0:0:0:0:
328,228,107017,1,0,0:0:0:0:
416,284,107231,38,0,B|484:292,1,70,4|0,0:0|0:0,0:0:0:0:
328,228,107660,2,0,B|258:221,1,70,8|0,0:0|0:0,0:0:0:0:
184,308,108088,2,0,B|253:314,1,70,0|0,0:0|0:0,0:0:0:0:
96,252,108517,2,0,B|26:243,1,70,8|0,0:0|0:0,0:0:0:0:
116,152,108946,6,0,B|150:155,7,35
272,104,109803,2,0,L|236:108,8,35,0|0|0|0|0|0|0|0|4,0:0|0:0|0:0|0:0|0:0|0:0|0:0|0:0|0:0,0:0:0:0:
256,192,110767,12,0,111946,0:0:0:0:
72,76,112374,6,0,B|72:132|84:208,1,105,6|0,0:0|0:0,0:0:0:0:
92,208,112803,2,0,B|184:204,1,70,2|0,0:0|0:0,0:0:0:0:
68,292,113231,2,2,B|132:288|228:284,1,140,2|0,0:0|0:0,0:0:0:0:
312,296,113874,1,2,0:0:0:0:
312,296,114088,2,0,B|308:340|316:368,1,70,0|2,0:0|0:0,0:0:0:0:
392,236,114517,2,2,B|400:164|384:80,1,140,0|2,0:0|0:0,0:0:0:0:
304,40,115160,1,0,0:0:0:0:
216,80,115374,1,2,0:0:0:0:
200,76,115481,1,0,0:0:0:0:
184,72,115588,1,0,0:0:0:0:
64,72,115803,6,0,B|76:156,1,70,6|2,0:0|0:0,0:0:0:0:
168,232,116231,2,0,B|180:148,1,70,0|2,0:0|0:0,0:0:0:0:
284,96,116660,2,0,B|296:180,1,70,2|0,0:0|0:0,0:0:0:0:
388,256,117088,2,0,B|400:172,1,70,2|0,0:0|0:0,0:0:0:0:
392,88,117517,1,2,0:0:0:0:
284,96,117731,2,0,B|140:88,2,140,2|2|2,0:0|0:0|0:0,0:0:0:0:
344,176,118803,1,2,0:0:0:0:
344,176,118910,1,0,0:0:0:0:
268,232,119124,1,0,0:0:0:0:
268,232,119231,38,0,B|292:296|248:364,1,105,6|0,0:0|0:0,0:0:0:0:
280,348,119660,2,0,B|316:340|360:340,1,70,2|0,0:0|0:0,0:0:0:0:
176,292,120088,2,2,B|112:316|32:304,1,140,2|0,0:0|0:0,0:0:0:0:
56,196,120731,1,2,0:0:0:0:
56,196,120946,2,0,B|48:120,1,70,0|2,0:0|0:0,0:0:0:0:
176,76,121374,2,0,B|168:152,1,70,0|2,0:0|0:0,0:0:0:0:
272,196,121803,2,2,B|352:192|428:192,1,140,2|2,0:0|0:0,0:0:0:0:
404,100,122446,1,0,0:0:0:0:
404,100,122660,6,0,B|412:20,1,70,6|2,0:0|0:0,0:0:0:0:
304,76,123088,1,0,0:0:0:0:
208,40,123303,1,2,0:0:0:0:
192,44,123410,1,0,0:0:0:0:
176,48,123517,1,4,0:0:0:0:
76,80,123731,1,2,0:0:0:0:
104,180,123946,2,2,B|88:256|120:344,1,140,2|6,0:0|0:0,0:0:0:0:
208,312,124588,1,2,0:0:0:0:
208,312,125017,1,2,0:0:0:0:
208,312,125446,1,2,0:0:0:0:
300,304,125660,1,2,0:0:0:0:
300,304,125767,1,0,0:0:0:0:
388,296,125981,1,0,0:0:0:0:
388,296,126088,37,6,0:0:0:0:
364,100,126410,1,0,0:0:0:0:
364,100,126517,2,0,B|400:92|452:96,1,70,2|0,0:0|0:0,0:0:0:0:
296,164,126946,2,2,B|232:180|156:168,1,140,2|2,0:0|0:0,0:0:0:0:
56,140,127588,1,2,0:0:0:0:
20,228,127803,2,0,B|24:272|32:308,1,70,2|0,0:0|0:0,0:0:0:0:
128,336,128231,2,2,B|196:332|272:332,1,140,2|2,0:0|0:0,0:0:0:0:
372,352,128874,1,0,0:0:0:0:
440,284,129088,1,2,0:0:0:0:
444,268,129196,1,0,0:0:0:0:
448,252,129303,1,0,0:0:0:0:
392,168,129517,6,0,B|400:132|396:92,1,70,6|2,0:0|0:0,0:0:0:0:
272,212,129946,2,0,B|264:248|268:288,1,70,0|2,0:0|0:0,0:0:0:0:
168,120,130374,2,0,B|176:84|172:44,1,70,0|2,0:0|0:0,0:0:0:0:
48,164,130803,2,0,B|40:200|44:240,1,70,2|0,0:0|0:0,0:0:0:0:
96,320,131231,1,2,0:0:0:0:
200,304,131446,2,0,B|280:280|344:332,2,140,2|2|2,0:0|0:0|0:0,0:0:0:0:
132,224,132517,1,2,0:0:0:0:
132,224,132624,1,0,0:0:0:0:
96,320,132838,1,0,0:0:0:0:
96,320,132946,37,6,0:0:0:0:
176,136,133267,1,0,0:0:0:0:
176,136,133374,2,0,B|168:104|168:64,1,70,2|0,0:0|0:0,0:0:0:0:
272,176,133803,2,2,B|292:248|292:324,1,140,2|2,0:0|0:0,0:0:0:0:
416,304,134446,1,2,0:0:0:0:
416,304,134660,2,0,B|424:236,1,70,0|2,0:0|0:0,0:0:0:0:
452,136,135088,2,0,B|444:64,1,70,0|2,0:0|0:0,0:0:0:0:
324,60,135517,2,2,B|260:64|176:72,1,140,2|2,0:0|0:0,0:0:0:0:
68,88,136160,1,0,0:0:0:0:
68,88,136374,6,0,B|56:56|60:16,1,70,6|2,0:0|0:0,0:0:0:0:
140,152,136803,2,0,B|152:184|148:224,1,70,0|2,0:0|0:0,0:0:0:0:
232,284,137231,1,4,0:0:0:0:
320,276,137446,1,2,0:0:0:0:
408,268,137660,1,2,0:0:0:0:
408,268,138088,1,6,0:0:0:0:
424,180,138303,2,0,B|432:144,2,35,0|0|2,0:0|0:0|0:0,0:0:0:0:
312,96,138731,2,0,B|320:132,2,35,0|0|2,0:0|0:0|0:0,0:0:0:0:
400,52,139160,2,0,B|408:16,6,35,0|0|2|0|2|0|4,0:0|0:0|0:0|0:0|0:0|0:0|0:0,0:0:0:0:
76,104,153517,5,4,0:0:0:0:
80,108,153946,1,8,0:0:0:0:
164,132,154160,1,2,0:0:0:0:
248,96,154374,2,0,B|296:92|356:92,1,105.000004005432,2|8,0:0|0:0,0:0:0:0:
436,124,155017,1,2,0:0:0:0:
436,124,155231,2,0,B|460:176|432:228,2,105.000004005432,0|8|2,0:0|0:0|0:0,0:0:0:0:
316,284,156517,2,0,B|368:292,1,52.5000020027161,8|2,0:0|0:0,0:0:0:0:
244,344,156946,6,0,B|140:324,1,105.000004005432,2|8,0:0|0:0,0:0:0:0:
52,336,157588,1,2,0:0:0:0:
52,336,157803,2,0,B|24:288|48:232,1,105.000004005432,0|8,0:0|0:0,0:0:0:0:
160,96,158660,2,0,B|208:96|272:100,1,105.000004005432,2|8,0:0|0:0,0:0:0:0:
328,192,159303,2,0,B|280:192|216:188,1,105.000004005432,2|8,0:0|0:0,0:0:0:0:
224,188,159946,1,8,0:0:0:0:
432,84,160374,37,2,0:0:0:0:
436,88,160803,1,8,0:0:0:0:
424,176,161017,1,2,0:0:0:0:
416,264,161231,2,0,B|364:244|316:272,1,105.000004005432,2|8,0:0|0:0,0:0:0:0:
232,308,161874,1,2,0:0:0:0:
152,268,162088,2,0,B|103:262|48:260,2,105.000004005432,0|8|2,0:0|0:0|0:0,0:0:0:0:
232,308,163160,1,0,0:0:0:0:
292,244,163374,2,0,B|288:192,1,52.5000020027161,8|2,0:0|0:0,0:0:0:0:
216,92,163803,6,0,B|167:120|115:96,1,105.000004005432,2|8,0:0|0:0,0:0:0:0:
296,128,164660,2,0,B|344:99|396:123,1,105.000004005432,0|8,0:0|0:0,0:0:0:0:
392,220,165517,2,0,B|384:324,1,105.000004005432,2|8,0:0|0:0,0:0:0:0:
480,256,166160,2,0,B|488:152,1,105.000004005432,2|8,0:0|0:0,0:0:0:0:
440,76,166803,1,8,0:0:0:0:
248,88,167231,6,0,B|192:68|136:100,1,105.000004005432,4|8,0:0|0:0,0:0:0:0:
140,116,167874,2,0,B|168:180|132:236,1,105.000004005432,2|2,0:0|0:0,0:0:0:0:
80,272,168517,1,8,0:0:0:0:
260,332,168946,2,0,B|312:324|376:328,1,105.000004005432,0|8,0:0|0:0,0:0:0:0:
380,340,169588,2,0,B|388:288|376:216,1,105.000004005432,2|8,0:0|0:0,0:0:0:0:
428,164,170231,2,0,B|436:108,1,52.5000020027161,8|2,0:0|0:0,0:0:0:0:
380,40,170660,5,0,0:0:0:0:
292,56,170874,2,0,B|240:52|168:48,3,105.000004005432,2|2|2|2,0:0|0:0|0:0|0:0,0:0:0:0:
104,84,172374,1,0,0:0:0:0:
48,236,172803,1,0,0:0:0:0:
48,236,173017,2,0,B|44:288|64:360,1,105.000004005432,2|2,0:0|0:0,0:0:0:0:
144,344,173660,1,0,0:0:0:0:
328,316,174088,37,2,0:0:0:0:
328,316,174517,2,0,B|324:240|356:248|352:160,1,157.500006008148
360,80,175374,1,2,0:0:0:0:
184,68,175803,1,2,0:0:0:0:
184,68,176232,2,0,B|188:144|156:136|160:224,1,157.500006008148
152,304,177089,1,2,0:0:0:0:
152,304,177303,1,0,0:0:0:0:
152,304,177517,5,2,0:0:0:0:
256,192,177624,12,4,180946,0:0:0:0:
256,192,194660,5,4,0:0:0:0:
256,192,194767,12,4,195946,0:0:0:0:
428,104,196374,6,2,B|360:100|288:100,1,140,6|8,0:0|0:0,0:0:0:0:
184,80,197017,1,2,0:0:0:0:
92,128,197231,2,2,B|72:184|96:236,1,105,2|0,0:0|0:0,0:0:0:0:
108,240,197660,2,0,B|144:237|176:236,1,70,8|2,0:0|0:0,0:0:0:0:
296,336,198088,2,0,B|264:332|224:332,1,70,0|2,0:0|0:0,0:0:0:0:
356,252,198517,2,0,B|392:248|428:244,1,70,8|2,0:0|0:0,0:0:0:0:
356,160,198946,2,2,B|360:88|360:16,1,140,2|8,0:0|0:0,0:0:0:0:
256,44,199588,1,0,0:0:0:0:
152,64,199803,38,0,B|84:56,1,70,2|0,0:0|0:0,0:0:0:0:
188,172,200231,2,0,B|108:164,1,70,8|2,0:0|0:0,0:0:0:0:
136,272,200660,2,0,B|66:264,1,70,0|2,0:0|0:0,0:0:0:0:
216,340,201088,2,2,B|284:308|352:336,1,140,8|2,0:0|0:0,0:0:0:0:
436,276,201731,2,0,B|444:204|448:136,2,140,2|2|10,0:0|0:0|0:0,0:0:0:0:
352,336,202803,1,10,0:0:0:0:
352,336,202910,1,0,0:0:0:0:
256,296,203124,1,0,0:0:0:0:
256,296,203231,6,2,B|182:300|112:304,1,140,6|10,0:0|0:0,0:0:0:0:
24,308,203874,1,2,0:0:0:0:
24,308,204088,2,2,B|8:256|20:204,1,105,0|2,0:0|0:0,0:0:0:0:
24,208,204517,2,0,B|32:172|24:132,1,70,8|2,0:0|0:0,0:0:0:0:
120,96,204946,2,2,B|224:88,1,105,0|2,0:0|0:0,0:0:0:0:
236,96,205374,2,0,B|240:56|240:24,1,70,8|2,0:0|0:0,0:0:0:0:
332,112,205803,2,2,B|300:180|340:248,1,140,2|8,0:0|0:0,0:0:0:0:
400,320,206446,1,0,0:0:0:0:
400,320,206660,38,0,B|472:308,1,70,2|2,0:0|0:0,0:0:0:0:
304,336,207088,1,8,0:0:0:0:
304,336,207303,2,2,B|232:324,1,70,2|0,0:0|0:0,0:0:0:0:
144,344,207731,1,2,0:0:0:0:
56,312,207946,2,2,B|20:248|52:176,1,140,8|2,0:0|0:0,0:0:0:0:
168,224,208588,2,0,B|236:228|312:232,2,140,2|2|10,0:0|0:0|0:0,0:0:0:0:
64,216,209660,1,10,0:0:0:0:
64,216,209767,1,0,0:0:0:0:
124,128,209981,1,0,0:0:0:0:
124,128,210088,5,6,0:0:0:0:
348,64,210517,2,2,B|280:60,1,70,8|2,0:0|0:0,0:0:0:0:
356,160,210946,2,2,B|348:264,1,105,2|0,0:0|0:0,0:0:0:0:
360,276,211374,2,0,B|396:268|436:284,1,70,8|2,0:0|0:0,0:0:0:0:
280,344,211803,2,0,B|244:348|212:336,1,70,0|2,0:0|0:0,0:0:0:0:
96,300,212231,2,0,B|84:232,1,70,8|2,0:0|0:0,0:0:0:0:
156,152,212660,2,2,B|160:36,1,105,2|0,0:0|0:0,0:0:0:0:
160,48,213088,1,8,0:0:0:0:
264,32,213303,1,0,0:0:0:0:
360,76,213517,38,0,B|436:68,1,70,2|0,0:0|0:0,0:0:0:0:
324,184,213946,2,0,B|252:180,1,70,8|2,0:0|0:0,0:0:0:0:
392,272,214374,2,0,B|460:272,1,70,0|2,0:0|0:0,0:0:0:0:
288,292,214803,2,2,B|213:287|148:284,1,140,8|2,0:0|0:0,0:0:0:0:
60,320,215446,1,2,0:0:0:0:
64,324,215874,1,2,0:0:0:0:
68,328,216303,1,10,0:0:0:0:
80,224,216517,1,10,0:0:0:0:
80,224,216624,1,0,0:0:0:0:
92,120,216838,1,0,0:0:0:0:
92,120,216946,5,6,0:0:0:0:
184,112,217160,1,2,0:0:0:0:
276,104,217374,1,0,0:0:0:0:
368,100,217588,1,2,0:0:0:0:
480,144,217803,37,4,0:0:0:0:
448,244,218017,1,2,0:0:0:0:
348,212,218231,1,2,0:0:0:0:
380,112,218445,1,0,0:0:0:0:
216,224,218660,6,0,B|168:212,7,35,6|0|2|0|0|0|2|0,0:0|0:0|0:0|0:0|0:0|0:0|0:0|0:0,0:0:0:0:
296,272,219517,2,0,B|340:260,8,35,2|0|0|0|0|0|0|0|4,0:0|0:0|0:0|0:0|0:0|0:0|0:0|0:0|0:0,0:0:0:0:
292,276,221231,37,2,0:0:0:0:
84,260,221660,1,2,0:0:0:0:
184,312,221874,1,2,0:0:0:0:
256,192,222088,12,4,223803,0:0:0:0:
136,36,224231,21,2,0:0:0:0:
48,72,224446,2,0,B|24:148|60:228,1,140,0|2,0:0|0:0,0:0:0:0:
144,244,225088,2,0,B|216:236,1,70,0|2,0:0|0:0,0:0:0:0:
324,216,225517,2,0,B|348:288|324:368,1,140,2|2,0:0|0:0,0:0:0:0:
252,152,226160,2,0,B|228:80|252:0,1,140,0|2,0:0|0:0,0:0:0:0:
352,40,226803,1,2,0:0:0:0:
452,24,227017,1,0,0:0:0:0:
460,36,227124,1,0,0:0:0:0:
468,48,227231,6,0,B|468:100|460:132,1,70,2|0,0:0|0:0,0:0:0:0:
452,212,227660,1,2,0:0:0:0:
452,212,227874,2,0,B|384:196|388:224|304:208,1,140,0|2,0:0|0:0,0:0:0:0:
232,148,228517,2,0,B|240:80,1,70,0|2,0:0|0:0,0:0:0:0:
128,164,228946,2,0,B|136:232,1,70,2|0,0:0|0:0,0:0:0:0:
120,332,229374,1,2,0:0:0:0:
120,332,229588,2,0,B|192:328|264:324,1,140,0|2,0:0|0:0,0:0:0:0:
368,344,230231,1,2,0:0:0:0:
368,344,230338,1,0,0:0:0:0:
424,264,230553,1,0,0:0:0:0:
424,264,230660,38,0,B|424:220|416:188,1,70,6|0,0:0|0:0,0:0:0:0:
444,104,231088,1,0,0:0:0:0:
356,48,231303,2,0,B|280:28|216:60,1,140,2|2,0:0|0:0,0:0:0:0:
120,80,231946,2,0,B|108:44|112:8,1,70,0|2,0:0|0:0,0:0:0:0:
188,148,232374,2,0,B|200:184|196:220,1,70,2|0,0:0|0:0,0:0:0:0:
204,316,232803,1,0,0:0:0:0:
132,260,233017,2,0,B|200:212|272:256,1,140,2|2,0:0|0:0,0:0:0:0:
356,284,233660,1,2,0:0:0:0:
444,244,233874,1,0,0:0:0:0:
456,248,233981,1,0,0:0:0:0:
468,252,234088,6,0,B|476:176,1,70,6|0,0:0|0:0,0:0:0:0:
436,96,234517,1,0,0:0:0:0:
436,96,234731,2,0,B|360:96|280:100,1,140,2|2,0:0|0:0,0:0:0:0:
192,96,235375,2,0,B|200:20,1,70,0|2,0:0|0:0,0:0:0:0:
88,112,235803,2,0,B|96:188,1,70,2|0,0:0|0:0,0:0:0:0:
72,280,236231,1,0,0:0:0:0:
72,280,236446,2,0,B|144:264|140:292|216:276,1,140,2|2,0:0|0:0,0:0:0:0:
308,320,237088,1,2,0:0:0:0:
308,320,237196,1,0,0:0:0:0:
392,272,237410,1,0,0:0:0:0:
392,272,237517,38,0,B|400:216|384:152,1,105,6|0,0:0|0:0,0:0:0:0:
387,167,237946,2,0,B|380:132|384:92,1,70,2|0,0:0|0:0,0:0:0:0:
308,32,238374,1,0,0:0:0:0:
216,64,238588,2,0,B|144:56|64:52,1,140,2|2,0:0|0:0,0:0:0:0:
56,140,239231,1,2,0:0:0:0:
116,208,239446,1,0,0:0:0:0:
60,280,239660,1,2,0:0:0:0:
116,208,239874,2,0,B|168:192|248:208,1,105
236,224,240303,2,0,B|236:264|248:296,1,70,2|2,0:0|0:0,0:0:0:0:
360,220,240731,1,0,0:0:0:0:
348,208,240838,1,0,0:0:0:0:
336,196,240946,6,0,B|332:140|304:68,1,105,6|0,0:0|0:0,0:0:0:0:
292,104,241374,2,0,B|296:68|292:32,1,70,2|0,0:0|0:0,0:0:0:0:
200,8,241803,1,0,0:0:0:0:
108,40,242017,2,0,B|104:116|116:184,1,140,2|2,0:0|0:0,0:0:0:0:
96,280,242660,2,0,B|176:272,1,70,2|0,0:0|0:0,0:0:0:0:
264,288,243088,1,2,0:0:0:0:
360,260,243303,2,0,B|364:184|352:116,1,140,0|2,0:0|0:0,0:0:0:0:
308,32,243946,1,2,0:0:0:0:
308,32,244053,1,0,0:0:0:0:
212,64,244267,1,0,0:0:0:0:
212,64,244374,38,0,B|164:76|104:68,1,105,6|0,0:0|0:0,0:0:0:0:
96,88,244803,2,0,B|104:160,1,70,2|0,0:0|0:0,0:0:0:0:
68,244,245231,1,0,0:0:0:0:
140,308,245446,2,0,B|216:292|304:304,1,140,2|2,0:0|0:0,0:0:0:0:
372,324,246088,2,0,B|416:328|448:324,1,70,2|0,0:0|0:0,0:0:0:0:
464,228,246517,1,2,0:0:0:0:
464,228,246731,2,0,B|472:176|460:120,1,105,0|0,0:0|0:0,0:0:0:0:
460,123,247160,2,0,B|452:88|456:40,1,70,2|2,0:0|0:0,0:0:0:0:
360,20,247588,1,0,0:0:0:0:
344,24,247696,1,0,0:0:0:0:
328,28,247803,5,6,0:0:0:0:
272,112,248017,2,0,B|236:104,2,35,0|0|2,0:0|0:0|0:0,0:0:0:0:
312,212,248446,2,0,B|352:204,2,35
272,308,248874,2,0,B|232:304,6,35,2|0|0|0|2|0|2,0:0|0:0|0:0|0:0|0:0|0:0|0:0,0:0:0:0:
140,280,249731,1,0,0:0:0:0:
148,264,249838,1,0,0:0:0:0:
156,248,249946,1,2,0:0:0:0:
112,156,250160,1,0,0:0:0:0:
104,140,250267,1,0,0:0:0:0:
96,124,250375,1,0,0:0:0:0:
172,48,250588,1,2,0:0:0:0:
268,84,250803,1,2,0:0:0:0:
268,84,250910,1,0,0:0:0:0:
252,180,251124,1,0,0:0:0:0:
252,180,251231,37,4,0:0:0:0:
