osu file format v13

[General]
AudioFilename: Space Time (Amane Hardcore Remix).mp3
AudioLeadIn: 0
PreviewTime: 172835
Countdown: 0
SampleSet: Soft
StackLeniency: 0.7
Mode: 3
LetterboxInBreaks: 0
SpecialStyle: 0
WidescreenStoryboard: 1

[Editor]
DistanceSpacing: 0.6
BeatDivisor: 4
GridSize: 8
TimelineZoom: 1.7

[Metadata]
Title:Space Time (Amane Hardcore Remix)
TitleUnicode:Space Time (Amane Hardcore Remix)
Artist:Amane
ArtistUnicode:Amane
Creator:Lieselotte
Version:Spy's 4K Extra
Source:
Tags:Spy 天音
BeatmapID:464291
BeatmapSetID:194921

[Difficulty]
HPDrainRate:8
CircleSize:4
OverallDifficulty:9
ApproachRate:5
SliderMultiplier:1.4
SliderTickRate:1

[Events]
//Background and Video events
0,0,"BG.jpg",0,0
//Break Periods
//Storyboard Layer 0 (Background)
//Storyboard Layer 1 (Fail)
//Storyboard Layer 2 (Pass)
//Storyboard Layer 3 (Foreground)
//Storyboard Sound Samples

[TimingPoints]
35,342.857142857143,4,2,0,30,1,0

[Colours]
Combo1 : 5,5,240
Combo2 : 5,240,5

[HitObjects]
320,192,35,5,0,0:0:0:30:snare.wav
192,192,206,1,0,0:0:0:0:
448,192,292,1,0,0:0:0:0:
64,192,377,1,0,0:0:0:30:snare.wav
320,192,377,1,0,0:0:0:0:
320,192,549,1,0,0:0:0:0:
192,192,635,1,0,0:0:0:0:
320,192,720,1,0,0:0:0:30:snare.wav
448,192,720,1,0,0:0:0:0:
192,192,892,1,0,0:0:0:0:
448,192,977,1,0,0:0:0:0:
192,192,1063,1,0,0:0:0:30:snare.wav
64,192,1063,1,0,0:0:0:0:
320,192,1149,1,0,0:0:0:0:
448,192,1235,1,0,0:0:0:0:
64,192,1406,1,0,0:0:0:30:snare.wav
448,192,1406,128,0,1749:0:0:0:0:
192,192,1577,1,0,0:0:0:0:
320,192,1663,1,0,0:0:0:0:
64,192,1749,1,0,0:0:0:30:snare.wav
448,192,1920,128,0,2263:0:0:0:0:
192,192,1920,1,0,0:0:0:0:
64,192,2092,1,0,0:0:0:30:snare.wav
320,192,2177,1,0,0:0:0:0:
192,192,2263,1,0,0:0:0:0:
320,192,2349,1,0,0:0:0:0:
64,192,2435,1,0,0:0:0:30:snare.wav
192,192,2520,1,0,0:0:0:0:
448,192,2606,1,0,0:0:0:0:
64,192,2777,1,0,0:0:0:30:snare.wav
320,192,2949,1,0,0:0:0:0:
448,192,3035,1,0,0:0:0:0:
64,192,3120,1,0,0:0:0:30:snare.wav
448,192,3292,1,0,0:0:0:0:
64,192,3463,1,0,0:0:0:30:snare.wav
192,192,3635,1,0,0:0:0:0:
448,192,3720,1,0,0:0:0:0:
64,192,3806,1,0,0:0:0:30:snare.wav
320,192,3806,1,0,0:0:0:0:
192,192,3892,1,0,0:0:0:0:
320,192,3977,1,0,0:0:0:0:
64,192,4149,1,0,0:0:0:30:snare.wav
448,192,4149,128,0,4492:0:0:0:0:
192,192,4320,1,0,0:0:0:0:
320,192,4406,1,0,0:0:0:0:
64,192,4492,1,0,0:0:0:30:snare.wav
448,192,4663,128,0,5006:0:0:0:0:
192,192,4663,1,0,0:0:0:0:
64,192,4835,1,0,0:0:0:30:snare.wav
192,192,5006,1,0,0:0:0:0:
320,192,5092,1,0,0:0:0:0:
64,192,5177,1,0,0:0:0:30:snare.wav
448,192,5263,1,0,0:0:0:0:
192,192,5349,1,0,0:0:0:0:
64,192,5520,1,0,0:0:0:30:snare.wav
320,192,5692,1,0,0:0:0:0:
448,192,5777,1,0,0:0:0:0:
64,192,5863,1,0,0:0:0:30:snare.wav
192,192,6035,1,0,0:0:0:0:
64,192,6206,1,0,0:0:0:30:snare.wav
192,192,6377,1,0,0:0:0:0:
320,192,6463,1,0,0:0:0:0:
64,192,6549,1,0,0:0:0:30:snare.wav
448,192,6635,1,0,0:0:0:0:
192,192,6720,1,0,0:0:0:0:
64,192,6892,1,0,0:0:0:30:snare.wav
448,192,6892,128,0,7235:0:0:0:0:
192,192,7063,1,0,0:0:0:0:
320,192,7149,1,0,0:0:0:0:
64,192,7235,1,0,0:0:0:30:snare.wav
448,192,7406,128,0,7749:0:0:0:0:
192,192,7406,1,0,0:0:0:0:
64,192,7577,1,0,0:0:0:30:snare.wav
192,192,7749,1,0,0:0:0:0:
320,192,7835,1,0,0:0:0:0:
64,192,7920,1,0,0:0:0:30:snare.wav
192,192,8006,1,0,0:0:0:0:
320,192,8092,1,0,0:0:0:30:snare.wav
320,192,8177,1,0,0:0:0:30:snare.wav
64,192,8263,1,0,0:0:0:40:snare.wav
448,192,8263,1,0,0:0:0:0:
192,192,8435,1,0,0:0:0:0:
64,192,8520,1,0,0:0:0:0:
448,192,8606,1,0,0:0:0:40:snare.wav
320,192,8777,1,0,0:0:0:0:
192,192,8863,1,0,0:0:0:0:
448,192,8949,1,0,0:0:0:40:snare.wav
320,192,9120,1,0,0:0:0:0:
192,192,9206,1,0,0:0:0:0:
448,192,9292,1,0,0:0:0:40:snare.wav
64,192,9377,1,0,0:0:0:0:
320,192,9463,1,0,0:0:0:0:
448,192,9635,1,0,0:0:0:40:snare.wav
64,192,9635,128,0,9977:0:0:0:0:
320,192,9806,1,0,0:0:0:0:
192,192,9892,1,0,0:0:0:0:
448,192,9977,1,0,0:0:0:40:snare.wav
64,192,10149,128,0,10492:0:0:0:0:
320,192,10149,1,0,0:0:0:0:
448,192,10320,1,0,0:0:0:40:snare.wav
320,192,10492,1,0,0:0:0:0:
192,192,10577,1,0,0:0:0:0:
448,192,10663,1,0,0:0:0:40:snare.wav
64,192,10749,1,0,0:0:0:0:
320,192,10835,1,0,0:0:0:0:
448,192,11006,1,0,0:0:0:40:snare.wav
192,192,11177,1,0,0:0:0:0:
64,192,11263,1,0,0:0:0:0:
448,192,11349,1,0,0:0:0:40:snare.wav
320,192,11520,1,0,0:0:0:0:
448,192,11692,1,0,0:0:0:40:snare.wav
320,192,11863,1,0,0:0:0:0:
192,192,11949,1,0,0:0:0:0:
448,192,12035,1,0,0:0:0:40:snare.wav
64,192,12120,1,0,0:0:0:0:
320,192,12206,1,0,0:0:0:0:
64,192,12377,128,0,12720:0:0:0:40:snare.wav
448,192,12377,1,0,0:0:0:0:
320,192,12549,1,0,0:0:0:0:
192,192,12635,1,0,0:0:0:0:
448,192,12720,1,0,0:0:0:40:snare.wav
64,192,12892,128,0,13235:0:0:0:0:
320,192,12892,1,0,0:0:0:0:
448,192,13063,1,0,0:0:0:40:snare.wav
320,192,13235,1,0,0:0:0:0:
192,192,13320,1,0,0:0:0:0:
448,192,13406,1,0,0:0:0:40:snare.wav
64,192,13492,1,0,0:0:0:0:
320,192,13577,1,0,0:0:0:0:
448,192,13749,1,0,0:0:0:40:snare.wav
320,192,13749,1,0,0:0:0:0:
448,192,13920,1,0,0:0:0:40:snare.wav
64,192,13920,1,0,0:0:0:0:
192,192,14092,1,0,0:0:0:40:snare.wav
320,192,14092,1,0,0:0:0:0:
320,192,14263,1,0,0:0:0:40:snare.wav
64,192,14263,1,0,0:0:0:0:
448,192,14435,1,0,0:0:0:40:snare.wav
192,192,14435,1,0,0:0:0:0:
64,192,14606,1,0,0:0:0:40:snare.wav
448,192,14606,1,0,0:0:0:0:
320,192,14777,1,0,0:0:0:40:snare.wav
192,192,14777,1,0,0:0:0:0:
320,192,14949,1,0,0:0:0:40:snare.wav
448,192,14949,1,0,0:0:0:0:
192,192,15120,1,0,0:0:0:40:snare.wav
448,192,15120,1,0,0:0:0:0:
448,192,15292,1,0,0:0:0:40:snare.wav
64,192,15292,1,0,0:0:0:0:
320,192,15463,1,0,0:0:0:40:snare.wav
192,192,15463,1,0,0:0:0:0:
320,192,15635,1,0,0:0:0:40:snare.wav
64,192,15635,1,0,0:0:0:0:
320,192,15806,1,0,0:0:0:40:snare.wav
448,192,15806,1,0,0:0:0:0:
320,192,15977,1,0,0:0:0:40:snare.wav
64,192,15977,1,0,0:0:0:0:
64,192,16149,1,0,0:0:0:40:snare.wav
448,192,16149,1,0,0:0:0:0:
320,192,16320,1,0,0:0:0:40:snare.wav
192,192,16320,1,0,0:0:0:0:
448,192,16492,1,0,0:0:0:45:snare.wav
192,192,16492,1,0,0:0:0:0:
64,192,16577,1,0,0:0:0:45:snare.wav
320,192,16577,1,0,0:0:0:0:
448,192,16663,1,0,0:0:0:45:snare.wav
192,192,16663,1,0,0:0:0:0:
320,192,16749,1,0,0:0:0:45:snare.wav
192,192,16749,1,0,0:0:0:0:
448,192,16835,1,0,0:0:0:45:snare.wav
64,192,16835,1,0,0:0:0:0:
192,192,16920,1,0,0:0:0:45:snare.wav
320,192,16920,1,0,0:0:0:0:
320,192,17006,1,0,0:0:0:45:snare.wav
64,192,17006,1,0,0:0:0:0:
448,192,17092,1,0,0:0:0:45:snare.wav
192,192,17092,1,0,0:0:0:0:
64,192,17177,1,0,0:0:0:45:snare.wav
320,192,17177,1,0,0:0:0:0:
64,192,17263,1,0,0:0:0:45:snare.wav
448,192,17263,1,0,0:0:0:0:
320,192,17349,1,0,0:0:0:45:snare.wav
192,192,17349,1,0,0:0:0:0:
64,192,17435,1,0,0:0:0:45:snare.wav
448,192,17435,1,0,0:0:0:0:
448,192,17520,1,0,0:0:0:45:snare.wav
192,192,17520,1,0,0:0:0:0:
320,192,17606,1,0,0:0:0:45:snare.wav
64,192,17606,1,0,0:0:0:0:
448,192,17692,1,0,0:0:0:45:snare.wav
192,192,17692,1,0,0:0:0:0:
64,192,17777,1,0,0:0:0:45:snare.wav
320,192,17777,1,0,0:0:0:0:
448,192,17863,128,0,18206:0:0:0:0:
192,192,17863,1,0,0:0:0:45:snare.wav
64,192,18035,1,0,0:0:0:0:
320,192,18206,1,0,0:0:0:0:
448,192,18377,128,0,18720:0:0:0:0:
64,192,18377,1,0,0:0:0:0:
320,192,18463,1,0,0:0:0:0:
64,192,18549,1,0,0:0:0:0:
192,192,18635,1,0,0:0:0:0:
320,192,18720,1,0,0:0:0:0:
64,192,18806,1,0,0:0:0:0:
320,192,18892,1,0,0:0:0:0:
320,192,19063,1,0,0:0:0:0:
64,192,19149,1,0,0:0:0:0:
192,192,19235,1,0,0:0:0:40:crash.wav
448,192,19235,1,0,0:0:0:50:kick.wav
64,192,19406,1,0,0:0:0:0:
192,192,19492,1,0,0:0:0:0:
320,192,19577,1,0,0:0:0:50:kick.wav
448,192,19577,1,0,0:0:0:0:
320,192,19749,1,0,0:0:0:0:
448,192,19920,1,0,0:0:0:50:kick.wav
192,192,19920,1,0,0:0:0:0:
192,192,20092,1,0,0:0:0:0:
64,192,20177,1,0,0:0:0:0:
320,192,20263,1,0,0:0:0:50:kick.wav
448,192,20263,1,0,0:0:0:0:
192,192,20349,1,0,0:0:0:0:
320,192,20435,1,0,0:0:0:0:
192,192,20606,1,0,0:0:0:50:kick.wav
448,192,20606,1,0,0:0:0:0:
64,192,20777,1,0,0:0:0:0:
192,192,20863,1,0,0:0:0:0:
448,192,20949,1,0,0:0:0:50:kick.wav
320,192,20949,1,0,0:0:0:0:
320,192,21120,1,0,0:0:0:0:
448,192,21292,1,0,0:0:0:50:kick.wav
192,192,21292,1,0,0:0:0:0:
64,192,21463,1,0,0:0:0:0:
448,192,21549,1,0,0:0:0:0:
192,192,21635,1,0,0:0:0:50:kick.wav
64,192,21635,1,0,0:0:0:0:
320,192,21720,1,0,0:0:0:0:
448,192,21806,1,0,0:0:0:0:
192,192,21892,1,0,0:0:0:0:
320,192,21977,1,0,0:0:0:50:kick.wav
64,192,21977,1,0,0:0:0:0:
448,192,22149,1,0,0:0:0:0:
320,192,22235,1,0,0:0:0:0:
64,192,22320,1,0,0:0:0:50:kick.wav
192,192,22320,1,0,0:0:0:0:
192,192,22492,1,0,0:0:0:0:
64,192,22663,1,0,0:0:0:50:kick.wav
320,192,22663,1,0,0:0:0:0:
448,192,22835,1,0,0:0:0:0:
320,192,22920,1,0,0:0:0:0:
192,192,23006,1,0,0:0:0:50:kick.wav
64,192,23006,1,0,0:0:0:0:
448,192,23092,1,0,0:0:0:0:
192,192,23177,1,0,0:0:0:0:
320,192,23349,1,0,0:0:0:50:kick.wav
64,192,23349,1,0,0:0:0:0:
448,192,23520,1,0,0:0:0:0:
64,192,23692,1,0,0:0:0:50:kick.wav
192,192,23692,1,0,0:0:0:0:
192,192,23863,1,0,0:0:0:0:
448,192,23949,1,0,0:0:0:0:
320,192,24035,1,0,0:0:0:50:kick.wav
64,192,24035,1,0,0:0:0:0:
448,192,24206,1,0,0:0:0:0:
320,192,24292,1,0,0:0:0:0:
192,192,24377,1,0,0:0:0:50:kick.wav
64,192,24377,1,0,0:0:0:0:
320,192,24463,1,0,0:0:0:0:
448,192,24549,1,0,0:0:0:0:
320,192,24635,1,0,0:0:0:0:
192,192,24720,1,0,0:0:0:50:kick.wav
448,192,24720,1,0,0:0:0:0:
64,192,24892,1,0,0:0:0:0:
192,192,24977,1,0,0:0:0:0:
320,192,25063,1,0,0:0:0:50:kick.wav
448,192,25063,1,0,0:0:0:0:
320,192,25235,1,0,0:0:0:0:
64,192,25320,1,0,0:0:0:0:
448,192,25406,1,0,0:0:0:50:kick.wav
192,192,25406,1,0,0:0:0:0:
64,192,25577,1,0,0:0:0:0:
192,192,25663,1,0,0:0:0:0:
448,192,25749,1,0,0:0:0:50:kick.wav
320,192,25749,1,0,0:0:0:0:
64,192,25835,1,0,0:0:0:0:
320,192,25920,1,0,0:0:0:0:
448,192,26092,1,0,0:0:0:50:kick.wav
192,192,26092,1,0,0:0:0:0:
64,192,26263,1,0,0:0:0:0:
448,192,26435,1,0,0:0:0:50:kick.wav
320,192,26435,1,0,0:0:0:0:
320,192,26606,1,0,0:0:0:0:
64,192,26692,1,0,0:0:0:0:
192,192,26777,1,0,0:0:0:50:kick.wav
448,192,26777,1,0,0:0:0:0:
64,192,26949,1,0,0:0:0:0:
192,192,27035,1,0,0:0:0:0:
320,192,27120,1,0,0:0:0:50:kick.wav
448,192,27120,1,0,0:0:0:0:
64,192,27206,1,0,0:0:0:0:
192,192,27292,1,0,0:0:0:0:
64,192,27377,1,0,0:0:0:0:
320,192,27463,1,0,0:0:0:50:kick.wav
448,192,27463,1,0,0:0:0:0:
192,192,27549,1,0,0:0:0:0:
64,192,27635,1,0,0:0:0:0:
320,192,27720,1,0,0:0:0:0:
192,192,27806,1,0,0:0:0:50:kick.wav
448,192,27806,1,0,0:0:0:0:
320,192,27977,1,0,0:0:0:0:
64,192,28063,1,0,0:0:0:0:
320,192,28149,1,0,0:0:0:50:kick.wav
448,192,28149,1,0,0:0:0:0:
64,192,28320,1,0,0:0:0:0:
320,192,28406,1,0,0:0:0:0:
192,192,28492,1,0,0:0:0:50:kick.wav
448,192,28492,1,0,0:0:0:0:
64,192,28577,1,0,0:0:0:0:
320,192,28663,1,0,0:0:0:0:
192,192,28749,1,0,0:0:0:0:
448,192,28835,1,0,0:0:0:50:kick.wav
320,192,28835,1,0,0:0:0:0:
192,192,28920,1,0,0:0:0:0:
64,192,29006,1,0,0:0:0:0:
192,192,29092,1,0,0:0:0:0:
320,192,29177,1,0,0:0:0:50:kick.wav
448,192,29177,1,0,0:0:0:0:
448,192,29349,1,0,0:0:0:0:
192,192,29435,1,0,0:0:0:0:
64,192,29520,1,0,0:0:0:50:kick.wav
320,192,29520,1,0,0:0:0:0:
448,192,29606,1,0,0:0:0:0:
192,192,29692,1,0,0:0:0:0:
64,192,29777,1,0,0:0:0:0:
320,192,29863,1,0,0:0:0:50:kick.wav
448,192,29863,1,0,0:0:0:0:
192,192,29949,1,0,0:0:0:0:
64,192,30035,1,0,0:0:0:50:kick.wav
320,192,30035,1,0,0:0:0:0:
64,192,30120,1,0,0:0:0:0:
320,192,30120,1,0,0:0:0:0:
448,192,30206,1,0,0:0:0:50:snare.wav
320,192,30292,1,0,0:0:0:0:
64,192,30377,1,0,0:0:0:0:
192,192,30463,1,0,0:0:0:0:
448,192,30549,1,0,0:0:0:50:snare.wav
320,192,30720,1,0,0:0:0:0:
448,192,30892,1,0,0:0:0:50:snare.wav
320,192,31063,1,0,0:0:0:0:
192,192,31149,1,0,0:0:0:0:
448,192,31235,1,0,0:0:0:50:snare.wav
320,192,31320,1,0,0:0:0:0:
192,192,31406,1,0,0:0:0:0:
448,192,31577,1,0,0:0:0:50:snare.wav
64,192,31577,128,0,31920:0:0:0:0:
192,192,31749,1,0,0:0:0:0:
320,192,31835,1,0,0:0:0:0:
448,192,31920,1,0,0:0:0:50:snare.wav
64,192,32092,128,0,32435:0:0:0:0:
320,192,32092,1,0,0:0:0:0:
448,192,32263,1,0,0:0:0:50:snare.wav
320,192,32435,1,0,0:0:0:0:
192,192,32520,1,0,0:0:0:0:
448,192,32606,1,0,0:0:0:50:snare.wav
64,192,32692,1,0,0:0:0:0:
320,192,32777,1,0,0:0:0:0:
448,192,32949,1,0,0:0:0:50:snare.wav
320,192,33120,1,0,0:0:0:0:
192,192,33206,1,0,0:0:0:0:
448,192,33292,1,0,0:0:0:50:snare.wav
320,192,33463,1,0,0:0:0:0:
448,192,33635,1,0,0:0:0:50:snare.wav
320,192,33806,1,0,0:0:0:0:
192,192,33892,1,0,0:0:0:0:
448,192,33977,1,0,0:0:0:50:snare.wav
64,192,34063,1,0,0:0:0:0:
320,192,34149,1,0,0:0:0:0:
448,192,34320,1,0,0:0:0:50:snare.wav
64,192,34320,128,0,34663:0:0:0:0:
192,192,34492,1,0,0:0:0:0:
320,192,34577,1,0,0:0:0:0:
448,192,34663,1,0,0:0:0:50:snare.wav
64,192,34835,128,0,35177:0:0:0:0:
320,192,34835,1,0,0:0:0:0:
448,192,35006,1,0,0:0:0:50:snare.wav
320,192,35177,1,0,0:0:0:0:
192,192,35263,1,0,0:0:0:0:
448,192,35349,1,0,0:0:0:50:snare.wav
64,192,35435,1,0,0:0:0:0:
320,192,35520,1,0,0:0:0:0:
448,192,35692,1,0,0:0:0:50:kick.wav
192,192,35692,1,0,0:0:0:0:
320,192,35863,1,0,0:0:0:50:kick.wav
64,192,35863,1,0,0:0:0:0:
192,192,36035,1,0,0:0:0:50:kick.wav
320,192,36035,1,0,0:0:0:0:
448,192,36206,1,0,0:0:0:50:kick.wav
64,192,36206,1,0,0:0:0:0:
320,192,36377,1,0,0:0:0:50:kick.wav
448,192,36377,1,0,0:0:0:0:
320,192,36549,1,0,0:0:0:50:kick.wav
64,192,36549,1,0,0:0:0:0:
192,192,36720,1,0,0:0:0:50:kick.wav
448,192,36720,1,0,0:0:0:0:
192,192,36892,1,0,0:0:0:50:kick.wav
64,192,36892,1,0,0:0:0:0:
64,192,37063,1,0,0:0:0:50:kick.wav
448,192,37063,1,0,0:0:0:0:
448,192,37235,1,0,0:0:0:50:kick.wav
192,192,37235,1,0,0:0:0:0:
320,192,37406,1,0,0:0:0:50:kick.wav
448,192,37406,1,0,0:0:0:0:
320,192,37577,1,0,0:0:0:50:kick.wav
64,192,37577,1,0,0:0:0:0:
64,192,37749,1,0,0:0:0:50:kick.wav
448,192,37749,1,0,0:0:0:0:
192,192,37920,1,0,0:0:0:50:kick.wav
320,192,37920,1,0,0:0:0:0:
192,192,38092,1,0,0:0:0:50:kick.wav
448,192,38092,1,0,0:0:0:0:
320,192,38263,1,0,0:0:0:50:kick.wav
64,192,38263,1,0,0:0:0:0:
192,192,38435,1,0,0:0:0:50:kick.wav
448,192,38435,1,0,0:0:0:0:
64,192,38520,1,0,0:0:0:50:kick.wav
320,192,38520,1,0,0:0:0:0:
448,192,38606,1,0,0:0:0:50:kick.wav
192,192,38606,1,0,0:0:0:0:
448,192,38692,1,0,0:0:0:50:kick.wav
320,192,38692,1,0,0:0:0:0:
64,192,38777,1,0,0:0:0:50:kick.wav
192,192,38777,1,0,0:0:0:0:
448,192,38863,1,0,0:0:0:50:kick.wav
320,192,38863,1,0,0:0:0:0:
64,192,38949,1,0,0:0:0:50:kick.wav
448,192,38949,1,0,0:0:0:0:
192,192,39035,1,0,0:0:0:50:kick.wav
320,192,39035,1,0,0:0:0:0:
64,192,39120,1,0,0:0:0:50:kick.wav
448,192,39120,1,0,0:0:0:0:
320,192,39206,1,0,0:0:0:50:kick.wav
64,192,39206,1,0,0:0:0:0:
448,192,39292,1,0,0:0:0:50:kick.wav
192,192,39292,1,0,0:0:0:0:
64,192,39377,1,0,0:0:0:50:kick.wav
320,192,39377,1,0,0:0:0:0:
448,192,39463,1,0,0:0:0:50:kick.wav
320,192,39463,1,0,0:0:0:0:
64,192,39549,1,0,0:0:0:50:kick.wav
192,192,39549,1,0,0:0:0:0:
320,192,39635,1,0,0:0:0:50:kick.wav
448,192,39635,1,0,0:0:0:0:
192,192,39720,1,0,0:0:0:50:kick.wav
64,192,39720,1,0,0:0:0:0:
448,192,39806,1,0,0:0:0:50:kick.wav
320,192,39849,1,0,0:0:0:0:
192,192,39892,1,0,0:0:0:0:
448,192,39935,1,0,0:0:0:0:
320,192,39977,1,0,0:0:0:0:
192,192,40020,1,0,0:0:0:0:
64,192,40063,1,0,0:0:0:0:
448,192,40106,1,0,0:0:0:0:
320,192,40149,1,0,0:0:0:0:
192,192,40192,1,0,0:0:0:0:
64,192,40235,1,0,0:0:0:0:
192,192,40277,1,0,0:0:0:0:
320,192,40320,1,0,0:0:0:0:
448,192,40363,1,0,0:0:0:0:
320,192,40406,1,0,0:0:0:0:
192,192,40449,1,0,0:0:0:0:
64,192,40492,1,0,0:0:0:0:
448,192,40535,1,0,0:0:0:0:
320,192,40577,1,0,0:0:0:0:
192,192,40620,1,0,0:0:0:0:
64,192,40663,1,0,0:0:0:0:
192,192,40706,1,0,0:0:0:0:
320,192,40749,1,0,0:0:0:0:
448,192,40792,1,0,0:0:0:0:
320,192,40835,1,0,0:0:0:0:
192,192,40877,1,0,0:0:0:0:
64,192,40920,1,0,0:0:0:0:
448,192,40963,1,0,0:0:0:0:
320,192,41006,1,0,0:0:0:0:
192,192,41049,1,0,0:0:0:0:
64,192,41092,1,0,0:0:0:0:
192,192,41135,1,0,0:0:0:0:
320,192,41177,1,0,0:0:0:40:crash.wav
448,192,41177,1,0,0:0:0:50:kick.wav
192,192,41263,1,0,0:0:0:0:
64,192,41349,1,0,0:0:0:0:
192,192,41435,1,0,0:0:0:0:
320,192,41520,1,0,0:0:0:50:kick.wav
448,192,41520,1,0,0:0:0:0:
192,192,41692,1,0,0:0:0:0:
448,192,41863,1,0,0:0:0:50:kick.wav
64,192,42035,1,0,0:0:0:0:
192,192,42120,1,0,0:0:0:0:
320,192,42206,1,0,0:0:0:50:kick.wav
448,192,42206,1,0,0:0:0:0:
64,192,42292,1,0,0:0:0:0:
192,192,42377,1,0,0:0:0:0:
320,192,42463,1,0,0:0:0:0:
192,192,42549,1,0,0:0:0:50:kick.wav
64,192,42549,1,0,0:0:0:0:
320,192,42635,1,0,0:0:0:0:
448,192,42720,1,0,0:0:0:0:
320,192,42806,1,0,0:0:0:0:
192,192,42892,1,0,0:0:0:50:kick.wav
64,192,42892,1,0,0:0:0:0:
320,192,43063,1,0,0:0:0:0:
64,192,43149,1,0,0:0:0:0:
448,192,43235,1,0,0:0:0:0:
320,192,43235,1,0,0:0:0:0:
192,192,43320,1,0,0:0:0:0:
64,192,43406,1,0,0:0:0:0:
192,192,43577,1,0,0:0:0:50:kick.wav
448,192,43577,1,0,0:0:0:0:
64,192,43663,1,0,0:0:0:0:
320,192,43749,1,0,0:0:0:0:
64,192,43835,1,0,0:0:0:0:
448,192,43920,1,0,0:0:0:50:kick.wav
320,192,43920,1,0,0:0:0:0:
64,192,44006,1,0,0:0:0:0:
192,192,44092,1,0,0:0:0:0:
320,192,44177,1,0,0:0:0:0:
192,192,44263,1,0,0:0:0:50:kick.wav
64,192,44263,1,0,0:0:0:0:
448,192,44435,1,0,0:0:0:0:
64,192,44606,1,0,0:0:0:50:kick.wav
192,192,44777,1,0,0:0:0:0:
64,192,44863,1,0,0:0:0:0:
320,192,44949,1,0,0:0:0:50:kick.wav
448,192,44949,1,0,0:0:0:0:
192,192,45035,1,0,0:0:0:0:
64,192,45120,1,0,0:0:0:0:
192,192,45206,1,0,0:0:0:0:
320,192,45292,1,0,0:0:0:0:
448,192,45292,1,0,0:0:0:50:kick.wav
192,192,45377,1,0,0:0:0:0:
320,192,45463,1,0,0:0:0:0:
448,192,45549,1,0,0:0:0:0:
320,192,45635,1,0,0:0:0:50:kick.wav
64,192,45635,1,0,0:0:0:0:
192,192,45806,1,0,0:0:0:0:
320,192,45892,1,0,0:0:0:0:
448,192,45977,1,0,0:0:0:50:kick.wav
192,192,45977,1,0,0:0:0:0:
64,192,46063,1,0,0:0:0:0:
192,192,46149,1,0,0:0:0:0:
320,192,46235,1,0,0:0:0:0:
192,192,46320,1,0,0:0:0:50:kick.wav
64,192,46320,1,0,0:0:0:0:
448,192,46406,1,0,0:0:0:0:
192,192,46492,1,0,0:0:0:0:
320,192,46577,1,0,0:0:0:0:
192,192,46663,1,0,0:0:0:0:
64,192,46663,1,0,0:0:0:50:kick.wav
448,192,46749,1,0,0:0:0:0:
320,192,46835,1,0,0:0:0:0:
448,192,46920,1,0,0:0:0:0:
64,192,47006,1,0,0:0:0:50:kick.wav
320,192,47006,1,0,0:0:0:0:
192,192,47177,1,0,0:0:0:0:
448,192,47349,1,0,0:0:0:50:kick.wav
64,192,47520,1,0,0:0:0:0:
192,192,47606,1,0,0:0:0:0:
320,192,47692,1,0,0:0:0:50:kick.wav
448,192,47692,1,0,0:0:0:0:
64,192,47777,1,0,0:0:0:0:
448,192,47863,1,0,0:0:0:0:
192,192,47863,1,0,0:0:0:0:
320,192,47949,1,0,0:0:0:0:
192,192,48035,1,0,0:0:0:0:
64,192,48035,1,0,0:0:0:50:kick.wav
320,192,48120,1,0,0:0:0:0:
192,192,48206,1,0,0:0:0:0:
64,192,48292,1,0,0:0:0:0:
192,192,48377,1,0,0:0:0:50:kick.wav
448,192,48377,1,0,0:0:0:0:
64,192,48549,1,0,0:0:0:0:
192,192,48635,1,0,0:0:0:0:
320,192,48720,1,0,0:0:0:0:
448,192,48720,1,0,0:0:0:50:kick.wav
192,192,48806,1,0,0:0:0:0:
448,192,48892,1,0,0:0:0:0:
320,192,48977,1,0,0:0:0:0:
192,192,49063,1,0,0:0:0:50:kick.wav
64,192,49063,1,0,0:0:0:0:
320,192,49149,1,0,0:0:0:0:
64,192,49235,1,0,0:0:0:0:
192,192,49320,1,0,0:0:0:0:
320,192,49406,1,0,0:0:0:0:
448,192,49406,1,0,0:0:0:50:kick.wav
64,192,49492,1,0,0:0:0:0:
448,192,49577,1,0,0:0:0:0:
64,192,49663,1,0,0:0:0:0:
320,192,49749,1,0,0:0:0:50:kick.wav
192,192,49749,1,0,0:0:0:0:
192,192,49920,1,0,0:0:0:0:
320,192,50006,1,0,0:0:0:0:
448,192,50092,1,0,0:0:0:50:kick.wav
192,192,50092,1,0,0:0:0:0:
320,192,50177,1,0,0:0:0:0:
192,192,50263,1,0,0:0:0:0:
320,192,50349,1,0,0:0:0:0:
64,192,50435,1,0,0:0:0:50:kick.wav
192,192,50435,1,0,0:0:0:0:
320,192,50606,1,0,0:0:0:0:
192,192,50692,1,0,0:0:0:0:
64,192,50777,1,0,0:0:0:0:
320,192,50777,1,0,0:0:0:50:kick.wav
192,192,50863,1,0,0:0:0:0:
320,192,50949,1,0,0:0:0:0:
192,192,51035,1,0,0:0:0:0:
320,192,51120,1,0,0:0:0:50:kick.wav
448,192,51120,1,0,0:0:0:0:
64,192,51292,1,0,0:0:0:0:
192,192,51377,1,0,0:0:0:0:
320,192,51463,1,0,0:0:0:0:
448,192,51463,1,0,0:0:0:50:kick.wav
192,192,51549,1,0,0:0:0:0:
64,192,51635,1,0,0:0:0:0:
192,192,51720,1,0,0:0:0:0:
320,192,51806,1,0,0:0:0:50:kick.wav
64,192,51806,1,0,0:0:0:0:
448,192,51892,1,0,0:0:0:0:
320,192,51977,1,0,0:0:0:0:
64,192,51977,1,0,0:0:0:50:kick.wav
192,192,52063,1,0,0:0:0:50:kick.wav
448,192,52063,1,0,0:0:0:0:
64,192,52149,1,0,0:0:0:50:kick.wav
320,192,52149,1,0,0:0:0:0:
192,192,52235,1,0,0:0:0:0:
448,192,52320,1,0,0:0:0:0:
320,192,52406,1,0,0:0:0:0:
64,192,52492,1,0,0:0:0:50:kick.wav
192,192,52492,1,0,0:0:0:0:
448,192,52663,1,0,0:0:0:0:
64,192,52835,1,0,0:0:0:50:kick.wav
320,192,52835,1,0,0:0:0:0:
192,192,53006,1,0,0:0:0:0:
448,192,53092,1,0,0:0:0:0:
64,192,53177,1,0,0:0:0:50:kick.wav
320,192,53177,1,0,0:0:0:0:
192,192,53263,1,0,0:0:0:0:
448,192,53349,1,0,0:0:0:0:
320,192,53435,1,0,0:0:0:0:
64,192,53520,1,0,0:0:0:50:kick.wav
192,192,53520,1,0,0:0:0:0:
448,192,53606,1,0,0:0:0:0:
320,192,53692,1,0,0:0:0:0:
192,192,53777,1,0,0:0:0:0:
64,192,53863,1,0,0:0:0:50:kick.wav
320,192,53863,1,0,0:0:0:0:
192,192,54035,1,0,0:0:0:0:
320,192,54120,1,0,0:0:0:0:
64,192,54206,1,0,0:0:0:50:kick.wav
192,192,54206,1,0,0:0:0:0:
448,192,54292,1,0,0:0:0:0:
320,192,54377,1,0,0:0:0:0:
448,192,54463,1,0,0:0:0:0:
64,192,54549,1,0,0:0:0:50:kick.wav
320,192,54549,1,0,0:0:0:0:
192,192,54635,1,0,0:0:0:0:
448,192,54720,1,0,0:0:0:0:
320,192,54806,1,0,0:0:0:0:
64,192,54892,1,0,0:0:0:50:kick.wav
192,192,54892,1,0,0:0:0:0:
320,192,54977,1,0,0:0:0:0:
192,192,55063,1,0,0:0:0:0:
320,192,55149,1,0,0:0:0:0:
64,192,55235,1,0,0:0:0:50:kick.wav
448,192,55235,1,0,0:0:0:0:
192,192,55406,1,0,0:0:0:0:
64,192,55577,1,0,0:0:0:50:kick.wav
192,192,55749,1,0,0:0:0:0:
320,192,55835,1,0,0:0:0:0:
64,192,55920,1,0,0:0:0:50:kick.wav
192,192,55920,1,0,0:0:0:0:
320,192,56006,1,0,0:0:0:0:
448,192,56092,1,0,0:0:0:0:
320,192,56177,1,0,0:0:0:0:
64,192,56263,1,0,0:0:0:50:kick.wav
192,192,56263,1,0,0:0:0:0:
448,192,56349,1,0,0:0:0:0:
192,192,56435,1,0,0:0:0:0:
320,192,56520,1,0,0:0:0:0:
64,192,56606,1,0,0:0:0:50:kick.wav
448,192,56606,1,0,0:0:0:0:
192,192,56777,1,0,0:0:0:0:
320,192,56863,1,0,0:0:0:0:
64,192,56949,1,0,0:0:0:50:kick.wav
448,192,56949,1,0,0:0:0:0:
320,192,57035,1,0,0:0:0:0:
192,192,57120,1,0,0:0:0:0:
448,192,57206,1,0,0:0:0:0:
64,192,57292,1,0,0:0:0:50:kick.wav
320,192,57292,1,0,0:0:0:0:
192,192,57377,1,0,0:0:0:0:
448,192,57463,1,0,0:0:0:0:
320,192,57549,1,0,0:0:0:0:
64,192,57635,1,0,0:0:0:50:kick.wav
192,192,57635,1,0,0:0:0:0:
448,192,57635,1,0,0:0:0:0:
320,192,57806,1,0,0:0:0:50:kick.wav
64,192,57806,1,0,0:0:0:0:
192,192,57806,1,0,0:0:0:0:
192,192,57977,1,0,0:0:0:50:kick.wav
448,192,57977,1,0,0:0:0:0:
64,192,57977,1,0,0:0:0:0:
192,192,58149,1,0,0:0:0:50:kick.wav
448,192,58149,1,0,0:0:0:0:
320,192,58149,1,0,0:0:0:0:
64,192,58320,1,0,0:0:0:50:kick.wav
320,192,58320,1,0,0:0:0:0:
192,192,58320,1,0,0:0:0:0:
448,192,58492,1,0,0:0:0:50:kick.wav
320,192,58492,1,0,0:0:0:0:
64,192,58492,1,0,0:0:0:0:
64,192,58663,1,0,0:0:0:50:kick.wav
192,192,58663,1,0,0:0:0:0:
448,192,58663,1,0,0:0:0:0:
192,192,58835,1,0,0:0:0:50:kick.wav
320,192,58835,1,0,0:0:0:0:
448,192,58835,1,0,0:0:0:0:
64,192,59006,1,0,0:0:0:50:kick.wav
192,192,59006,1,0,0:0:0:0:
320,192,59006,1,0,0:0:0:0:
448,192,59177,1,0,0:0:0:50:kick.wav
192,192,59177,1,0,0:0:0:0:
320,192,59177,1,0,0:0:0:0:
64,192,59349,1,0,0:0:0:50:kick.wav
192,192,59349,1,0,0:0:0:0:
448,192,59349,1,0,0:0:0:0:
320,192,59520,1,0,0:0:0:50:kick.wav
192,192,59520,1,0,0:0:0:0:
448,192,59520,1,0,0:0:0:0:
64,192,59692,1,0,0:0:0:50:kick.wav
320,192,59692,1,0,0:0:0:0:
192,192,59692,1,0,0:0:0:0:
64,192,59863,1,0,0:0:0:50:kick.wav
192,192,59863,1,0,0:0:0:0:
448,192,59863,1,0,0:0:0:0:
320,192,60035,1,0,0:0:0:50:kick.wav
448,192,60035,1,0,0:0:0:0:
192,192,60035,1,0,0:0:0:0:
64,192,60206,1,0,0:0:0:50:kick.wav
320,192,60206,1,0,0:0:0:0:
448,192,60206,1,0,0:0:0:0:
192,192,60377,1,0,0:0:0:50:kick.wav
64,192,60377,1,0,0:0:0:0:
448,192,60463,1,0,0:0:0:50:kick.wav
320,192,60463,1,0,0:0:0:0:
64,192,60549,1,0,0:0:0:50:kick.wav
448,192,60549,1,0,0:0:0:0:
192,192,60635,1,0,0:0:0:50:kick.wav
320,192,60635,1,0,0:0:0:0:
448,192,60720,1,0,0:0:0:50:kick.wav
192,192,60720,1,0,0:0:0:0:
320,192,60806,1,0,0:0:0:50:kick.wav
64,192,60806,1,0,0:0:0:0:
192,192,60892,1,0,0:0:0:50:kick.wav
448,192,60892,1,0,0:0:0:0:
192,192,60977,1,0,0:0:0:50:kick.wav
64,192,60977,1,0,0:0:0:0:
448,192,61063,1,0,0:0:0:50:kick.wav
320,192,61063,1,0,0:0:0:0:
448,192,61149,1,0,0:0:0:50:kick.wav
64,192,61149,1,0,0:0:0:0:
192,192,61235,1,0,0:0:0:50:kick.wav
320,192,61235,1,0,0:0:0:0:
64,192,61320,1,0,0:0:0:50:kick.wav
192,192,61320,1,0,0:0:0:0:
448,192,61406,1,0,0:0:0:50:kick.wav
320,192,61406,1,0,0:0:0:0:
192,192,61492,1,0,0:0:0:50:kick.wav
64,192,61492,1,0,0:0:0:0:
448,192,61577,1,0,0:0:0:50:kick.wav
192,192,61577,1,0,0:0:0:0:
64,192,61663,1,0,0:0:0:50:kick.wav
320,192,61663,1,0,0:0:0:0:
448,192,61749,1,0,0:0:0:50:kick.wav
320,192,61792,1,0,0:0:0:0:
192,192,61835,1,0,0:0:0:0:
64,192,61877,1,0,0:0:0:0:
192,192,61920,1,0,0:0:0:0:
320,192,61963,1,0,0:0:0:0:
448,192,62006,1,0,0:0:0:0:
64,192,62049,1,0,0:0:0:0:
192,192,62092,1,0,0:0:0:0:
320,192,62135,1,0,0:0:0:0:
448,192,62177,1,0,0:0:0:0:
320,192,62220,1,0,0:0:0:0:
192,192,62263,1,0,0:0:0:0:
64,192,62306,1,0,0:0:0:0:
448,192,62349,1,0,0:0:0:0:
320,192,62392,1,0,0:0:0:0:
192,192,62435,1,0,0:0:0:0:
64,192,62477,1,0,0:0:0:0:
192,192,62520,1,0,0:0:0:0:
320,192,62563,1,0,0:0:0:0:
448,192,62606,1,0,0:0:0:0:
64,192,62649,1,0,0:0:0:0:
192,192,62692,1,0,0:0:0:0:
320,192,62735,1,0,0:0:0:0:
448,192,62777,1,0,0:0:0:0:
320,192,62820,1,0,0:0:0:0:
192,192,62863,1,0,0:0:0:0:
64,192,62906,1,0,0:0:0:0:
448,192,62949,1,0,0:0:0:0:
320,192,62992,1,0,0:0:0:0:
192,192,63035,1,0,0:0:0:0:
64,192,63077,1,0,0:0:0:0:
320,192,63120,5,0,0:0:0:40:crash.wav
448,192,63120,1,0,0:0:0:50:kick.wav
64,192,63206,1,0,0:0:0:0:
448,192,63292,128,0,63463:0:0:0:0:
320,192,63292,1,0,0:0:0:0:
192,192,63377,1,0,0:0:0:0:
64,192,63463,1,0,0:0:0:0:
448,192,63635,128,0,63806:0:0:0:0:
448,192,63977,128,0,64149:0:0:0:0:
448,192,64320,128,0,64492:0:0:0:0:
64,192,64492,128,0,64835:0:0:0:0:
448,192,64663,128,0,64835:0:0:0:0:
64,192,65006,128,0,65349:0:0:0:0:
448,192,65006,128,0,65177:0:0:0:0:
448,192,65349,128,0,65520:0:0:0:0:
448,192,65692,128,0,65863:0:0:0:0:
320,192,65692,1,0,0:0:0:0:
64,192,65777,1,0,0:0:0:0:
192,192,65949,1,0,0:0:0:0:
448,192,66035,128,0,66206:0:0:0:0:
320,192,66035,1,0,0:0:0:0:
192,192,66120,1,0,0:0:0:0:
64,192,66206,1,0,0:0:0:0:
448,192,66377,128,0,66549:0:0:0:0:
448,192,66720,128,0,66892:0:0:0:0:
448,192,67063,128,0,67235:0:0:0:0:
64,192,67235,128,0,67577:0:0:0:0:
448,192,67406,128,0,67577:0:0:0:0:
448,192,67749,128,0,67920:0:0:0:0:
64,192,67749,128,0,68092:0:0:0:0:
448,192,68092,128,0,68263:0:0:0:0:
448,192,68435,128,0,68606:0:0:0:0:
192,192,68435,1,0,0:0:0:0:
64,192,68520,1,0,0:0:0:0:
192,192,68692,1,0,0:0:0:0:
320,192,68777,1,0,0:0:0:0:
64,192,68777,128,0,68949:0:0:0:0:
192,192,68863,1,0,0:0:0:0:
448,192,68949,1,0,0:0:0:0:
64,192,69120,128,0,69292:0:0:0:0:
64,192,69463,128,0,69635:0:0:0:0:
64,192,69806,128,0,69977:0:0:0:0:
448,192,69977,128,0,70320:0:0:0:0:
64,192,70149,128,0,70320:0:0:0:0:
64,192,70492,128,0,70663:0:0:0:0:
448,192,70492,128,0,70835:0:0:0:0:
64,192,70835,128,0,71006:0:0:0:0:
64,192,71177,128,0,71349:0:0:0:0:
320,192,71177,1,0,0:0:0:0:
192,192,71263,1,0,0:0:0:0:
448,192,71349,1,0,0:0:0:0:
320,192,71435,1,0,0:0:0:0:
64,192,71520,128,0,71692:0:0:0:0:
192,192,71520,1,0,0:0:0:0:
320,192,71606,1,0,0:0:0:0:
448,192,71692,1,0,0:0:0:0:
64,192,71863,128,0,72035:0:0:0:0:
64,192,72206,128,0,72377:0:0:0:0:
64,192,72549,128,0,72720:0:0:0:0:
320,192,72549,1,0,0:0:0:0:
192,192,72635,1,0,0:0:0:0:
448,192,72720,1,0,0:0:0:0:
192,192,72806,1,0,0:0:0:0:
448,192,72892,128,0,73063:0:0:0:0:
64,192,72892,1,0,0:0:0:0:
192,192,72977,1,0,0:0:0:0:
320,192,73063,1,0,0:0:0:0:
448,192,73235,128,0,73406:0:0:0:0:
192,192,73235,1,0,0:0:0:0:
64,192,73320,1,0,0:0:0:0:
320,192,73492,1,0,0:0:0:0:
448,192,73577,128,0,73749:0:0:0:0:
192,192,73577,1,0,0:0:0:0:
64,192,73749,1,0,0:0:0:0:
192,192,73835,1,0,0:0:0:0:
448,192,73920,128,0,74092:0:0:0:0:
320,192,73920,1,0,0:0:0:0:
64,192,74006,1,0,0:0:0:0:
320,192,74092,1,0,0:0:0:0:
192,192,74177,1,0,0:0:0:0:
448,192,74263,128,0,74435:0:0:0:0:
320,192,74263,1,0,0:0:0:0:
192,192,74349,1,0,0:0:0:0:
64,192,74435,1,0,0:0:0:0:
448,192,74606,128,0,74777:0:0:0:0:
448,192,74949,128,0,75120:0:0:0:0:
448,192,75292,128,0,75463:0:0:0:0:
64,192,75463,128,0,75806:0:0:0:0:
448,192,75635,128,0,75806:0:0:0:0:
64,192,75977,128,0,76320:0:0:0:0:
448,192,75977,128,0,76149:0:0:0:0:
448,192,76320,128,0,76492:0:0:0:0:
448,192,76663,128,0,76835:0:0:0:0:
320,192,76663,1,0,0:0:0:0:
64,192,76749,1,0,0:0:0:0:
320,192,76835,1,0,0:0:0:0:
64,192,76920,1,0,0:0:0:0:
448,192,77006,128,0,77177:0:0:0:0:
192,192,77006,1,0,0:0:0:0:
64,192,77092,1,0,0:0:0:0:
320,192,77177,1,0,0:0:0:0:
448,192,77349,128,0,77520:0:0:0:0:
448,192,77692,128,0,77863:0:0:0:0:
448,192,78035,128,0,78206:0:0:0:0:
64,192,78206,128,0,78549:0:0:0:0:
448,192,78377,128,0,78549:0:0:0:0:
448,192,78720,128,0,78892:0:0:0:0:
64,192,78720,128,0,79063:0:0:0:0:
448,192,79063,128,0,79235:0:0:0:0:
448,192,79406,128,0,79577:0:0:0:0:
64,192,79406,1,0,0:0:0:0:
320,192,79492,1,0,0:0:0:0:
64,192,79577,1,0,0:0:0:0:
320,192,79663,1,0,0:0:0:0:
448,192,79749,128,0,79920:0:0:0:0:
192,192,79749,1,0,0:0:0:0:
64,192,79835,1,0,0:0:0:0:
320,192,79920,1,0,0:0:0:0:
448,192,80092,128,0,80263:0:0:0:0:
448,192,80435,128,0,80606:0:0:0:0:
448,192,80777,128,0,80949:0:0:0:0:
64,192,80949,128,0,81292:0:0:0:0:
448,192,81120,128,0,81292:0:0:0:0:
448,192,81463,128,0,81635:0:0:0:0:
64,192,81463,128,0,81806:0:0:0:0:
448,192,81806,128,0,81977:0:0:0:0:
448,192,82149,128,0,82320:0:0:0:0:
64,192,82149,1,0,0:0:0:0:
320,192,82235,1,0,0:0:0:0:
192,192,82320,1,0,0:0:0:0:
320,192,82406,1,0,0:0:0:0:
448,192,82492,128,0,82663:0:0:0:0:
64,192,82492,1,0,0:0:0:0:
192,192,82577,1,0,0:0:0:0:
320,192,82663,1,0,0:0:0:0:
448,192,82835,128,0,83006:0:0:0:0:
448,192,83177,128,0,83349:0:0:0:0:
192,192,83520,1,0,0:0:0:0:
448,192,83606,1,0,0:0:0:0:
64,192,83692,5,0,0:0:0:0:
320,192,83692,1,0,0:0:0:0:
192,192,83777,1,0,0:0:0:0:
448,192,83863,1,0,0:0:0:0:
320,192,83949,1,0,0:0:0:0:
64,192,84035,5,0,0:0:0:0:
192,192,84035,1,0,0:0:0:20:snare.wav
192,192,84206,1,0,0:0:0:0:
320,192,84292,1,0,0:0:0:0:
448,192,84377,1,0,0:0:0:0:
64,192,84463,1,0,0:0:0:0:
320,192,84549,1,0,0:0:0:0:
192,192,84592,1,0,0:0:0:0:
64,192,84635,1,0,0:0:0:0:
448,192,84720,1,0,0:0:0:0:
320,192,84806,1,0,0:0:0:0:
64,192,84892,1,0,0:0:0:0:
192,192,84977,1,0,0:0:0:0:
320,192,85063,1,0,0:0:0:40:crash.wav
64,192,85063,128,0,86520:0:0:0:50:kick.wav
192,192,86520,128,0,87892:0:0:0:0:
320,192,87892,128,0,90635:0:0:0:0:
448,192,90635,128,0,92006:0:0:0:0:
320,192,92006,128,0,93377:0:0:0:0:
192,192,93377,128,0,96120:0:0:0:0:
448,192,96120,128,0,97492:0:0:0:0:
320,192,97492,128,0,98863:0:0:0:0:
192,192,98863,128,0,101606:0:0:0:0:
448,192,101606,128,0,102977:0:0:0:0:
320,192,102977,128,0,104349:0:0:0:0:
192,192,104349,128,0,107092:0:0:0:0:
448,192,106320,1,0,0:0:0:0:
320,192,106492,1,0,0:0:0:0:
64,192,106663,1,0,0:0:0:0:
320,192,106835,1,0,0:0:0:0:
64,192,107006,1,0,0:0:0:20:crash.wav
320,192,107092,128,0,108463:0:0:0:0:
448,192,107177,1,0,0:0:0:0:
192,192,107349,1,0,0:0:0:0:
64,192,107520,1,0,0:0:0:0:
192,192,108463,128,0,109835:0:0:0:0:
320,192,109749,1,0,0:0:0:0:
64,192,109835,128,0,112577:0:0:0:0:
448,192,109920,1,0,0:0:0:0:
192,192,110263,1,0,0:0:0:0:
448,192,112577,128,0,113949:0:0:0:0:
192,192,112663,1,0,0:0:0:0:
320,192,112835,1,0,0:0:0:0:
64,192,113006,1,0,0:0:0:0:
320,192,113949,128,0,115320:0:0:0:0:
448,192,115235,1,0,0:0:0:0:
192,192,115320,128,0,118063:0:0:0:0:
64,192,115406,1,0,0:0:0:0:
64,192,115749,1,0,0:0:0:0:
320,192,116092,1,0,0:0:0:0:
448,192,116435,1,0,0:0:0:0:
320,192,116777,1,0,0:0:0:0:
64,192,117120,1,0,0:0:0:0:
448,192,117463,1,0,0:0:0:0:
448,192,118063,128,0,119435:0:0:0:0:
320,192,118149,1,0,0:0:0:0:
64,192,118320,1,0,0:0:0:0:
192,192,118492,1,0,0:0:0:0:
320,192,119435,128,0,120806:0:0:0:0:
64,192,119520,1,0,0:0:0:0:
448,192,119692,1,0,0:0:0:0:
192,192,119863,1,0,0:0:0:0:
64,192,120377,1,0,0:0:0:0:
448,192,120720,1,0,0:0:0:0:
192,192,120806,128,0,123549:0:0:0:0:
64,192,120892,1,0,0:0:0:0:
320,192,121235,1,0,0:0:0:0:
64,192,122435,1,0,0:0:0:0:
64,192,122949,1,0,0:0:0:0:
320,192,123292,1,0,0:0:0:0:
448,192,123549,128,0,124920:0:0:0:0:
64,192,123635,1,0,0:0:0:0:
320,192,123806,1,0,0:0:0:0:
192,192,123977,1,0,0:0:0:0:
320,192,124920,128,0,126292:0:0:0:0:
64,192,125006,1,0,0:0:0:0:
448,192,125177,1,0,0:0:0:0:
192,192,125349,1,0,0:0:0:0:
64,192,125863,1,0,0:0:0:0:
448,192,126206,1,0,0:0:0:0:
192,192,126292,128,0,127577:0:0:0:0:
320,192,126377,1,0,0:0:0:0:
64,192,126720,1,0,0:0:0:0:
320,192,127063,1,0,0:0:0:0:
448,192,127406,1,0,0:0:0:0:
64,192,127577,1,0,0:0:0:0:
320,192,127577,1,0,0:0:0:0:
448,192,127749,1,0,0:0:0:0:
192,192,127749,1,0,0:0:0:0:
320,192,127920,1,0,0:0:0:0:
64,192,127920,1,0,0:0:0:0:
64,192,128092,1,0,0:0:0:0:
448,192,128092,1,0,0:0:0:0:
192,192,128177,1,0,0:0:0:0:
64,192,128263,1,0,0:0:0:0:
192,192,128349,1,0,0:0:0:0:
448,192,128435,1,0,0:0:0:0:
320,192,128477,1,0,0:0:0:0:
192,192,128520,1,0,0:0:0:0:
64,192,128606,1,0,0:0:0:0:
320,192,128777,1,0,0:0:0:0:
64,192,128863,1,0,0:0:0:0:
448,192,128949,1,0,0:0:0:20:crash.wav
320,192,128949,1,0,0:0:0:25:kick.wav
192,192,128949,1,0,0:0:0:0:
64,192,129035,1,0,0:0:0:0:
192,192,129120,1,0,0:0:0:0:
320,192,129206,1,0,0:0:0:0:
192,192,129292,1,0,0:0:0:0:
448,192,129377,1,0,0:0:0:0:
320,192,129463,1,0,0:0:0:0:
192,192,129549,1,0,0:0:0:0:
320,192,129635,1,0,0:0:0:0:
192,192,129720,1,0,0:0:0:0:
64,192,129806,1,0,0:0:0:0:
448,192,129892,1,0,0:0:0:0:
320,192,129977,1,0,0:0:0:0:
192,192,130063,1,0,0:0:0:0:
64,192,130149,1,0,0:0:0:0:
192,192,130235,1,0,0:0:0:0:
448,192,130320,1,0,0:0:0:0:
320,192,130406,1,0,0:0:0:0:
448,192,130492,1,0,0:0:0:0:
320,192,130577,1,0,0:0:0:0:
192,192,130663,1,0,0:0:0:0:
64,192,130749,1,0,0:0:0:0:
192,192,130835,1,0,0:0:0:0:
320,192,130920,1,0,0:0:0:0:
192,192,131006,1,0,0:0:0:0:
320,192,131092,1,0,0:0:0:0:
448,192,131177,1,0,0:0:0:0:
320,192,131263,1,0,0:0:0:0:
192,192,131349,1,0,0:0:0:0:
64,192,131435,1,0,0:0:0:0:
320,192,131520,1,0,0:0:0:0:
448,192,131606,1,0,0:0:0:0:
320,192,131692,1,0,0:0:0:0:
192,192,131777,1,0,0:0:0:0:
64,192,131863,1,0,0:0:0:0:
320,192,131949,1,0,0:0:0:0:
192,192,132035,1,0,0:0:0:0:
64,192,132120,1,0,0:0:0:0:
192,192,132206,1,0,0:0:0:0:
320,192,132292,1,0,0:0:0:0:
448,192,132377,1,0,0:0:0:0:
192,192,132463,1,0,0:0:0:0:
320,192,132549,1,0,0:0:0:0:
448,192,132635,1,0,0:0:0:0:
320,192,132720,1,0,0:0:0:0:
192,192,132806,1,0,0:0:0:0:
320,192,132892,1,0,0:0:0:0:
192,192,132977,1,0,0:0:0:0:
64,192,133063,1,0,0:0:0:0:
192,192,133149,1,0,0:0:0:0:
64,192,133235,1,0,0:0:0:0:
192,192,133320,1,0,0:0:0:0:
320,192,133406,1,0,0:0:0:0:
448,192,133492,1,0,0:0:0:0:
320,192,133577,1,0,0:0:0:0:
192,192,133663,1,0,0:0:0:0:
448,192,133749,1,0,0:0:0:0:
320,192,133835,1,0,0:0:0:0:
192,192,133920,1,0,0:0:0:0:
320,192,134006,1,0,0:0:0:0:
192,192,134092,1,0,0:0:0:0:
64,192,134177,1,0,0:0:0:0:
192,192,134263,1,0,0:0:0:0:
320,192,134349,1,0,0:0:0:0:
64,192,134435,1,0,0:0:0:0:
192,192,134520,1,0,0:0:0:0:
64,192,134606,1,0,0:0:0:0:
192,192,134692,1,0,0:0:0:0:
320,192,134777,1,0,0:0:0:0:
192,192,134863,1,0,0:0:0:0:
320,192,134949,1,0,0:0:0:0:
448,192,135035,1,0,0:0:0:0:
320,192,135120,1,0,0:0:0:0:
192,192,135206,1,0,0:0:0:0:
320,192,135292,1,0,0:0:0:0:
192,192,135377,1,0,0:0:0:0:
64,192,135463,1,0,0:0:0:0:
192,192,135549,1,0,0:0:0:0:
320,192,135635,1,0,0:0:0:0:
448,192,135720,1,0,0:0:0:0:
320,192,135806,1,0,0:0:0:0:
448,192,135892,1,0,0:0:0:0:
320,192,135977,1,0,0:0:0:0:
192,192,136063,1,0,0:0:0:0:
320,192,136149,1,0,0:0:0:0:
192,192,136235,1,0,0:0:0:0:
64,192,136320,1,0,0:0:0:0:
192,192,136406,1,0,0:0:0:0:
64,192,136492,1,0,0:0:0:0:
192,192,136577,1,0,0:0:0:0:
320,192,136663,1,0,0:0:0:0:
448,192,136749,1,0,0:0:0:0:
320,192,136835,1,0,0:0:0:0:
448,192,136920,1,0,0:0:0:0:
320,192,137006,1,0,0:0:0:0:
192,192,137092,1,0,0:0:0:0:
64,192,137177,1,0,0:0:0:0:
192,192,137263,1,0,0:0:0:0:
320,192,137349,1,0,0:0:0:0:
64,192,137435,1,0,0:0:0:0:
192,192,137520,1,0,0:0:0:0:
320,192,137606,1,0,0:0:0:0:
448,192,137692,1,0,0:0:0:0:
320,192,137777,1,0,0:0:0:0:
192,192,137863,1,0,0:0:0:0:
448,192,137949,1,0,0:0:0:0:
320,192,138035,1,0,0:0:0:0:
192,192,138120,1,0,0:0:0:0:
448,192,138206,1,0,0:0:0:0:
320,192,138292,1,0,0:0:0:0:
192,192,138377,1,0,0:0:0:0:
320,192,138463,1,0,0:0:0:0:
64,192,138549,1,0,0:0:0:0:
192,192,138635,1,0,0:0:0:0:
320,192,138720,1,0,0:0:0:0:
448,192,138806,1,0,0:0:0:0:
320,192,138892,1,0,0:0:0:0:
192,192,138977,1,0,0:0:0:0:
448,192,139063,1,0,0:0:0:0:
320,192,139149,1,0,0:0:0:0:
192,192,139235,1,0,0:0:0:0:
320,192,139320,1,0,0:0:0:0:
448,192,139406,1,0,0:0:0:0:
320,192,139492,1,0,0:0:0:0:
192,192,139577,1,0,0:0:0:0:
320,192,139663,1,0,0:0:0:0:
192,192,139749,1,0,0:0:0:0:
64,192,139835,1,0,0:0:0:0:
192,192,139920,1,0,0:0:0:0:
320,192,140006,1,0,0:0:0:0:
448,192,140092,1,0,0:0:0:0:
192,192,140177,1,0,0:0:0:0:
320,192,140263,1,0,0:0:0:0:
448,192,140349,1,0,0:0:0:0:
192,192,140435,1,0,0:0:0:0:
320,192,140520,1,0,0:0:0:0:
448,192,140606,1,0,0:0:0:0:
320,192,140692,1,0,0:0:0:0:
192,192,140777,1,0,0:0:0:0:
64,192,140863,1,0,0:0:0:0:
320,192,140949,1,0,0:0:0:0:
192,192,141035,1,0,0:0:0:0:
64,192,141120,1,0,0:0:0:0:
192,192,141206,1,0,0:0:0:0:
448,192,141292,1,0,0:0:0:0:
320,192,141377,1,0,0:0:0:0:
192,192,141463,1,0,0:0:0:0:
448,192,141549,1,0,0:0:0:0:
320,192,141635,1,0,0:0:0:0:
192,192,141720,1,0,0:0:0:0:
64,192,141806,1,0,0:0:0:0:
192,192,141892,1,0,0:0:0:0:
320,192,141977,1,0,0:0:0:0:
64,192,142063,1,0,0:0:0:0:
192,192,142149,1,0,0:0:0:0:
320,192,142235,1,0,0:0:0:0:
192,192,142320,1,0,0:0:0:0:
320,192,142406,1,0,0:0:0:0:
448,192,142492,1,0,0:0:0:0:
192,192,142577,1,0,0:0:0:0:
320,192,142663,1,0,0:0:0:0:
448,192,142749,1,0,0:0:0:0:
320,192,142835,1,0,0:0:0:0:
192,192,142920,1,0,0:0:0:0:
64,192,143006,1,0,0:0:0:0:
320,192,143092,1,0,0:0:0:0:
192,192,143177,1,0,0:0:0:0:
64,192,143263,1,0,0:0:0:0:
320,192,143349,1,0,0:0:0:0:
192,192,143435,1,0,0:0:0:0:
64,192,143520,1,0,0:0:0:0:
192,192,143606,1,0,0:0:0:0:
320,192,143692,1,0,0:0:0:0:
448,192,143777,1,0,0:0:0:0:
192,192,143863,1,0,0:0:0:0:
320,192,143949,1,0,0:0:0:0:
448,192,144035,1,0,0:0:0:0:
320,192,144120,1,0,0:0:0:0:
64,192,144206,1,0,0:0:0:0:
192,192,144292,1,0,0:0:0:0:
320,192,144377,1,0,0:0:0:0:
448,192,144463,1,0,0:0:0:0:
320,192,144549,1,0,0:0:0:0:
192,192,144635,1,0,0:0:0:0:
320,192,144720,1,0,0:0:0:0:
448,192,144806,1,0,0:0:0:0:
64,192,144892,1,0,0:0:0:0:
192,192,144977,1,0,0:0:0:0:
448,192,145063,1,0,0:0:0:0:
320,192,145149,1,0,0:0:0:0:
64,192,145235,1,0,0:0:0:0:
192,192,145320,1,0,0:0:0:0:
448,192,145406,1,0,0:0:0:0:
320,192,145492,1,0,0:0:0:0:
192,192,145577,1,0,0:0:0:0:
448,192,145663,1,0,0:0:0:0:
320,192,145749,1,0,0:0:0:0:
192,192,145835,1,0,0:0:0:0:
448,192,145920,1,0,0:0:0:0:
320,192,146006,1,0,0:0:0:0:
192,192,146092,1,0,0:0:0:0:
64,192,146177,1,0,0:0:0:0:
192,192,146263,1,0,0:0:0:0:
320,192,146349,1,0,0:0:0:0:
64,192,146435,1,0,0:0:0:0:
192,192,146520,1,0,0:0:0:0:
320,192,146606,1,0,0:0:0:0:
448,192,146692,1,0,0:0:0:0:
192,192,146777,1,0,0:0:0:0:
320,192,146863,1,0,0:0:0:0:
448,192,146949,1,0,0:0:0:0:
192,192,147035,1,0,0:0:0:0:
320,192,147120,1,0,0:0:0:0:
448,192,147206,1,0,0:0:0:0:
320,192,147292,1,0,0:0:0:0:
192,192,147377,1,0,0:0:0:0:
64,192,147463,1,0,0:0:0:0:
320,192,147549,1,0,0:0:0:0:
192,192,147635,1,0,0:0:0:0:
64,192,147720,1,0,0:0:0:0:
192,192,147806,1,0,0:0:0:0:
320,192,147892,1,0,0:0:0:0:
448,192,147977,1,0,0:0:0:0:
320,192,148063,1,0,0:0:0:0:
448,192,148149,1,0,0:0:0:0:
320,192,148235,1,0,0:0:0:0:
192,192,148320,1,0,0:0:0:0:
448,192,148406,1,0,0:0:0:0:
320,192,148492,1,0,0:0:0:0:
192,192,148577,1,0,0:0:0:0:
448,192,148663,1,0,0:0:0:0:
320,192,148749,1,0,0:0:0:0:
192,192,148835,1,0,0:0:0:0:
64,192,148920,1,0,0:0:0:0:
192,192,149006,1,0,0:0:0:0:
320,192,149092,1,0,0:0:0:0:
64,192,149177,1,0,0:0:0:0:
192,192,149263,1,0,0:0:0:0:
320,192,149349,1,0,0:0:0:0:
448,192,149435,1,0,0:0:0:0:
320,192,149520,1,0,0:0:0:0:
192,192,149606,1,0,0:0:0:0:
448,192,149692,5,0,0:0:0:0:
64,192,149777,5,0,0:0:0:0:
192,192,149863,1,0,0:0:0:0:
320,192,149949,1,0,0:0:0:0:
448,192,150035,1,0,0:0:0:0:
64,192,150120,1,0,0:0:0:0:
320,192,150206,1,0,0:0:0:0:
192,192,150292,1,0,0:0:0:0:
448,192,150377,1,0,0:0:0:0:
320,192,150463,1,0,0:0:0:0:
192,192,150549,1,0,0:0:0:0:
64,192,150635,1,0,0:0:0:0:
64,192,150892,1,0,0:0:0:30:snare.wav
320,192,150892,1,0,0:0:0:40:crash.wav
192,192,151063,1,0,0:0:0:0:
64,192,151235,1,0,0:0:0:30:snare.wav
448,192,151235,1,0,0:0:0:0:
320,192,151406,1,0,0:0:0:0:
64,192,151577,1,0,0:0:0:30:snare.wav
64,192,151920,1,0,0:0:0:30:snare.wav
64,192,152263,1,0,0:0:0:30:snare.wav
64,192,152606,1,0,0:0:0:30:snare.wav
64,192,152949,1,0,0:0:0:30:snare.wav
64,192,153292,1,0,0:0:0:30:snare.wav
64,192,153635,1,0,0:0:0:30:snare.wav
192,192,153635,1,0,0:0:0:0:
448,192,153806,1,0,0:0:0:0:
64,192,153977,1,0,0:0:0:30:snare.wav
320,192,154149,1,0,0:0:0:0:
64,192,154320,1,0,0:0:0:30:snare.wav
64,192,154663,1,0,0:0:0:30:snare.wav
64,192,155006,1,0,0:0:0:30:snare.wav
64,192,155349,1,0,0:0:0:30:snare.wav
64,192,155692,1,0,0:0:0:30:snare.wav
64,192,156035,1,0,0:0:0:30:snare.wav
64,192,156377,1,0,0:0:0:30:snare.wav
320,192,156549,1,0,0:0:0:0:
64,192,156720,1,0,0:0:0:30:snare.wav
448,192,156720,1,0,0:0:0:0:
192,192,156892,1,0,0:0:0:0:
64,192,157063,1,0,0:0:0:30:snare.wav
64,192,157406,1,0,0:0:0:30:snare.wav
64,192,157749,1,0,0:0:0:30:snare.wav
64,192,158092,1,0,0:0:0:30:snare.wav
64,192,158435,1,0,0:0:0:30:snare.wav
64,192,158777,1,0,0:0:0:30:snare.wav
64,192,159120,1,0,0:0:0:30:snare.wav
448,192,159120,1,0,0:0:0:0:
320,192,159292,1,0,0:0:0:0:
64,192,159463,1,0,0:0:0:30:snare.wav
192,192,159635,1,0,0:0:0:0:
64,192,159806,1,0,0:0:0:30:snare.wav
320,192,159977,1,0,0:0:0:0:
64,192,160149,1,0,0:0:0:30:snare.wav
448,192,160320,1,0,0:0:0:0:
64,192,160492,1,0,0:0:0:30:snare.wav
320,192,160663,1,0,0:0:0:0:
64,192,160835,1,0,0:0:0:30:snare.wav
192,192,161006,1,0,0:0:0:0:
64,192,161177,1,0,0:0:0:30:snare.wav
448,192,161349,1,0,0:0:0:0:
64,192,161520,1,0,0:0:0:30:snare.wav
64,192,161863,1,0,0:0:0:40:snare.wav
448,192,161863,1,0,0:0:0:0:
320,192,161949,1,0,0:0:0:0:
192,192,162035,1,0,0:0:0:0:
448,192,162120,1,0,0:0:0:0:
64,192,162206,1,0,0:0:0:40:snare.wav
192,192,162206,1,0,0:0:0:0:
320,192,162292,1,0,0:0:0:0:
192,192,162377,1,0,0:0:0:0:
320,192,162463,1,0,0:0:0:0:
64,192,162549,1,0,0:0:0:40:snare.wav
448,192,162549,1,0,0:0:0:0:
192,192,162635,1,0,0:0:0:0:
448,192,162720,1,0,0:0:0:0:
320,192,162806,1,0,0:0:0:0:
64,192,162892,1,0,0:0:0:40:snare.wav
192,192,162892,1,0,0:0:0:0:
448,192,162977,1,0,0:0:0:0:
192,192,163063,1,0,0:0:0:0:
320,192,163149,1,0,0:0:0:0:
64,192,163235,1,0,0:0:0:40:snare.wav
448,192,163235,1,0,0:0:0:0:
192,192,163320,1,0,0:0:0:0:
448,192,163406,1,0,0:0:0:0:
192,192,163492,1,0,0:0:0:0:
64,192,163577,1,0,0:0:0:40:snare.wav
320,192,163577,1,0,0:0:0:0:
448,192,163663,1,0,0:0:0:0:
192,192,163749,1,0,0:0:0:0:
448,192,163835,1,0,0:0:0:0:
64,192,163920,1,0,0:0:0:40:snare.wav
320,192,163920,1,0,0:0:0:0:
448,192,164006,1,0,0:0:0:0:
192,192,164092,1,0,0:0:0:0:
320,192,164177,1,0,0:0:0:0:
64,192,164263,1,0,0:0:0:40:snare.wav
192,192,164263,1,0,0:0:0:0:
448,192,164349,1,0,0:0:0:0:
320,192,164435,1,0,0:0:0:0:
192,192,164520,1,0,0:0:0:0:
64,192,164606,1,0,0:0:0:40:snare.wav
320,192,164606,1,0,0:0:0:0:
448,192,164692,1,0,0:0:0:0:
192,192,164777,1,0,0:0:0:0:
320,192,164863,1,0,0:0:0:0:
64,192,164949,1,0,0:0:0:40:snare.wav
192,192,164949,1,0,0:0:0:0:
448,192,165035,1,0,0:0:0:0:
320,192,165120,1,0,0:0:0:0:
448,192,165206,1,0,0:0:0:0:
64,192,165292,1,0,0:0:0:40:snare.wav
320,192,165292,1,0,0:0:0:0:
192,192,165377,1,0,0:0:0:0:
320,192,165463,1,0,0:0:0:0:
192,192,165549,1,0,0:0:0:0:
64,192,165635,1,0,0:0:0:40:snare.wav
320,192,165635,1,0,0:0:0:0:
448,192,165720,1,0,0:0:0:0:
192,192,165806,1,0,0:0:0:0:
448,192,165892,1,0,0:0:0:0:
64,192,165977,1,0,0:0:0:40:snare.wav
320,192,165977,1,0,0:0:0:0:
192,192,166063,1,0,0:0:0:0:
320,192,166149,1,0,0:0:0:0:
448,192,166235,1,0,0:0:0:0:
64,192,166320,1,0,0:0:0:40:snare.wav
320,192,166320,1,0,0:0:0:0:
192,192,166406,1,0,0:0:0:0:
448,192,166492,1,0,0:0:0:0:
320,192,166577,1,0,0:0:0:0:
64,192,166663,1,0,0:0:0:40:snare.wav
192,192,166663,1,0,0:0:0:0:
448,192,166749,1,0,0:0:0:0:
192,192,166835,1,0,0:0:0:0:
320,192,166920,1,0,0:0:0:0:
64,192,167006,1,0,0:0:0:40:snare.wav
192,192,167006,1,0,0:0:0:0:
448,192,167092,1,0,0:0:0:0:
320,192,167177,1,0,0:0:0:0:
192,192,167263,1,0,0:0:0:0:
448,192,167349,1,0,0:0:0:40:snare.wav
64,192,167349,1,0,0:0:0:0:
320,192,167435,1,0,0:0:0:0:
448,192,167520,1,0,0:0:0:40:snare.wav
192,192,167520,1,0,0:0:0:0:
64,192,167606,1,0,0:0:0:0:
448,192,167692,1,0,0:0:0:40:snare.wav
320,192,167692,1,0,0:0:0:0:
64,192,167777,1,0,0:0:0:0:
448,192,167863,1,0,0:0:0:40:snare.wav
192,192,167863,1,0,0:0:0:0:
320,192,167949,1,0,0:0:0:0:
448,192,168035,1,0,0:0:0:40:snare.wav
64,192,168035,1,0,0:0:0:0:
192,192,168120,1,0,0:0:0:0:
448,192,168206,1,0,0:0:0:40:snare.wav
320,192,168206,1,0,0:0:0:0:
64,192,168292,1,0,0:0:0:0:
448,192,168377,1,0,0:0:0:40:snare.wav
192,192,168377,1,0,0:0:0:0:
320,192,168463,1,0,0:0:0:0:
448,192,168549,1,0,0:0:0:40:snare.wav
64,192,168549,1,0,0:0:0:0:
192,192,168635,1,0,0:0:0:0:
448,192,168720,1,0,0:0:0:40:snare.wav
64,192,168720,1,0,0:0:0:0:
320,192,168806,1,0,0:0:0:0:
64,192,168892,1,0,0:0:0:40:snare.wav
192,192,168892,1,0,0:0:0:0:
448,192,168977,1,0,0:0:0:0:
64,192,169063,1,0,0:0:0:40:snare.wav
320,192,169063,1,0,0:0:0:0:
192,192,169149,1,0,0:0:0:0:
64,192,169235,1,0,0:0:0:40:snare.wav
448,192,169235,1,0,0:0:0:0:
320,192,169320,1,0,0:0:0:0:
64,192,169406,1,0,0:0:0:40:snare.wav
448,192,169406,1,0,0:0:0:0:
192,192,169492,1,0,0:0:0:0:
64,192,169577,1,0,0:0:0:40:snare.wav
320,192,169577,1,0,0:0:0:0:
192,192,169663,1,0,0:0:0:0:
64,192,169749,1,0,0:0:0:40:snare.wav
448,192,169749,1,0,0:0:0:0:
320,192,169835,1,0,0:0:0:0:
64,192,169920,1,0,0:0:0:40:snare.wav
192,192,169920,1,0,0:0:0:0:
448,192,170006,1,0,0:0:0:0:
64,192,170092,1,0,0:0:0:50:snare.wav
192,192,170092,1,0,0:0:0:0:
448,192,170177,1,0,0:0:0:50:snare.wav
320,192,170177,1,0,0:0:0:0:
64,192,170263,1,0,0:0:0:50:snare.wav
192,192,170263,1,0,0:0:0:0:
320,192,170349,1,0,0:0:0:50:snare.wav
448,192,170349,1,0,0:0:0:0:
448,192,170435,1,0,0:0:0:50:snare.wav
64,192,170435,1,0,0:0:0:0:
320,192,170520,1,0,0:0:0:50:snare.wav
192,192,170520,1,0,0:0:0:0:
448,192,170606,1,0,0:0:0:50:snare.wav
64,192,170606,1,0,0:0:0:0:
192,192,170692,1,0,0:0:0:50:snare.wav
320,192,170692,1,0,0:0:0:0:
192,192,170777,1,0,0:0:0:0:
448,192,170777,1,0,0:0:0:50:snare.wav
320,192,170863,1,0,0:0:0:50:snare.wav
64,192,170863,1,0,0:0:0:0:
192,192,170949,1,0,0:0:0:50:snare.wav
448,192,170949,1,0,0:0:0:0:
64,192,171035,1,0,0:0:0:50:snare.wav
320,192,171035,1,0,0:0:0:0:
320,192,171120,1,0,0:0:0:0:
448,192,171120,1,0,0:0:0:50:snare.wav
64,192,171206,1,0,0:0:0:50:snare.wav
192,192,171206,1,0,0:0:0:0:
320,192,171292,1,0,0:0:0:0:
448,192,171292,1,0,0:0:0:50:snare.wav
192,192,171377,1,0,0:0:0:0:
64,192,171377,1,0,0:0:0:50:snare.wav
320,192,171463,1,0,0:0:0:50:snare.wav
448,192,171463,128,0,171806:0:0:0:0:
64,192,171635,1,0,0:0:0:0:
320,192,171806,1,0,0:0:0:0:
64,192,171977,1,0,0:0:0:0:
320,192,172063,1,0,0:0:0:0:
448,192,172149,128,0,172835:0:0:0:0:
64,192,172149,1,0,0:0:0:0:
192,192,172235,1,0,0:0:0:0:
320,192,172320,1,0,0:0:0:0:
192,192,172363,1,0,0:0:0:0:
64,192,172406,1,0,0:0:0:0:
192,192,172492,1,0,0:0:0:0:
320,192,172663,1,0,0:0:0:0:
64,192,172749,1,0,0:0:0:0:
192,192,172835,1,0,0:0:0:30:crash.wav
320,192,172835,1,0,0:0:0:50:kick.wav
64,192,172920,1,0,0:0:0:0:
320,192,173006,1,0,0:0:0:0:
192,192,173092,1,0,0:0:0:0:
448,192,173177,1,0,0:0:0:50:kick.wav
64,192,173177,1,0,0:0:0:0:
320,192,173263,1,0,0:0:0:0:
192,192,173349,1,0,0:0:0:0:
64,192,173435,1,0,0:0:0:0:
192,192,173520,1,0,0:0:0:50:kick.wav
320,192,173520,1,0,0:0:0:0:
448,192,173606,1,0,0:0:0:0:
192,192,173692,1,0,0:0:0:0:
448,192,173777,1,0,0:0:0:0:
64,192,173863,1,0,0:0:0:50:kick.wav
320,192,173863,1,0,0:0:0:0:
192,192,173949,1,0,0:0:0:0:
448,192,174035,1,0,0:0:0:0:
320,192,174120,1,0,0:0:0:0:
192,192,174206,1,0,0:0:0:50:kick.wav
64,192,174206,1,0,0:0:0:0:
448,192,174292,1,0,0:0:0:0:
320,192,174377,1,0,0:0:0:0:
64,192,174549,1,0,0:0:0:50:kick.wav
448,192,174549,1,0,0:0:0:0:
320,192,174635,1,0,0:0:0:0:
192,192,174720,1,0,0:0:0:0:
192,192,174892,1,0,0:0:0:50:kick.wav
448,192,174892,1,0,0:0:0:0:
320,192,174977,1,0,0:0:0:0:
192,192,175063,1,0,0:0:0:0:
64,192,175149,1,0,0:0:0:0:
192,192,175235,1,0,0:0:0:50:kick.wav
320,192,175235,1,0,0:0:0:0:
64,192,175406,1,0,0:0:0:0:
192,192,175492,1,0,0:0:0:0:
320,192,175577,1,0,0:0:0:50:kick.wav
448,192,175577,1,0,0:0:0:0:
192,192,175663,1,0,0:0:0:0:
448,192,175749,1,0,0:0:0:0:
192,192,175835,1,0,0:0:0:0:
320,192,175920,1,0,0:0:0:50:kick.wav
64,192,175920,1,0,0:0:0:0:
192,192,176006,1,0,0:0:0:0:
448,192,176092,1,0,0:0:0:0:
320,192,176177,1,0,0:0:0:0:
192,192,176263,1,0,0:0:0:50:kick.wav
64,192,176263,1,0,0:0:0:0:
320,192,176349,1,0,0:0:0:0:
192,192,176435,1,0,0:0:0:0:
448,192,176520,1,0,0:0:0:0:
64,192,176606,1,0,0:0:0:50:kick.wav
320,192,176606,1,0,0:0:0:0:
192,192,176777,1,0,0:0:0:0:
64,192,176863,1,0,0:0:0:0:
192,192,176949,1,0,0:0:0:50:kick.wav
448,192,176949,1,0,0:0:0:0:
64,192,177035,1,0,0:0:0:0:
320,192,177120,1,0,0:0:0:0:
64,192,177292,1,0,0:0:0:50:kick.wav
320,192,177292,1,0,0:0:0:0:
448,192,177377,1,0,0:0:0:0:
192,192,177463,1,0,0:0:0:0:
320,192,177549,1,0,0:0:0:0:
192,192,177635,1,0,0:0:0:50:kick.wav
448,192,177635,1,0,0:0:0:0:
320,192,177720,1,0,0:0:0:0:
448,192,177806,1,0,0:0:0:0:
320,192,177892,1,0,0:0:0:0:
64,192,177977,1,0,0:0:0:50:kick.wav
192,192,177977,1,0,0:0:0:0:
192,192,178149,1,0,0:0:0:0:
320,192,178235,1,0,0:0:0:0:
448,192,178320,1,0,0:0:0:50:kick.wav
192,192,178320,1,0,0:0:0:0:
64,192,178406,1,0,0:0:0:0:
192,192,178492,1,0,0:0:0:0:
320,192,178577,1,0,0:0:0:0:
192,192,178663,1,0,0:0:0:50:kick.wav
64,192,178663,1,0,0:0:0:0:
320,192,178749,1,0,0:0:0:0:
192,192,178835,1,0,0:0:0:0:
64,192,178920,1,0,0:0:0:0:
320,192,179006,1,0,0:0:0:50:kick.wav
448,192,179006,1,0,0:0:0:0:
192,192,179092,1,0,0:0:0:0:
448,192,179177,1,0,0:0:0:0:
64,192,179263,1,0,0:0:0:0:
192,192,179349,1,0,0:0:0:50:kick.wav
320,192,179349,1,0,0:0:0:0:
448,192,179435,1,0,0:0:0:0:
192,192,179520,1,0,0:0:0:0:
320,192,179606,1,0,0:0:0:0:
192,192,179692,1,0,0:0:0:50:kick.wav
64,192,179692,1,0,0:0:0:0:
448,192,179777,1,0,0:0:0:0:
320,192,179863,1,0,0:0:0:0:
192,192,180035,1,0,0:0:0:50:kick.wav
448,192,180035,1,0,0:0:0:0:
64,192,180120,1,0,0:0:0:0:
320,192,180206,1,0,0:0:0:0:
192,192,180292,1,0,0:0:0:0:
64,192,180377,1,0,0:0:0:50:kick.wav
448,192,180377,1,0,0:0:0:0:
320,192,180463,1,0,0:0:0:0:
64,192,180549,1,0,0:0:0:0:
192,192,180635,1,0,0:0:0:0:
448,192,180720,1,0,0:0:0:50:kick.wav
320,192,180720,1,0,0:0:0:0:
192,192,180892,1,0,0:0:0:0:
320,192,180977,1,0,0:0:0:0:
192,192,181063,1,0,0:0:0:50:kick.wav
64,192,181063,1,0,0:0:0:0:
448,192,181149,1,0,0:0:0:0:
192,192,181235,1,0,0:0:0:0:
448,192,181320,1,0,0:0:0:0:
320,192,181406,1,0,0:0:0:50:kick.wav
64,192,181406,1,0,0:0:0:0:
448,192,181492,1,0,0:0:0:0:
192,192,181577,1,0,0:0:0:0:
320,192,181663,1,0,0:0:0:0:
192,192,181749,1,0,0:0:0:50:kick.wav
448,192,181749,1,0,0:0:0:0:
64,192,181835,1,0,0:0:0:0:
320,192,181920,1,0,0:0:0:0:
192,192,182006,1,0,0:0:0:0:
320,192,182092,1,0,0:0:0:50:kick.wav
64,192,182092,1,0,0:0:0:0:
192,192,182177,1,0,0:0:0:0:
448,192,182263,1,0,0:0:0:0:
320,192,182349,1,0,0:0:0:0:
192,192,182435,1,0,0:0:0:50:kick.wav
64,192,182435,1,0,0:0:0:0:
448,192,182520,1,0,0:0:0:0:
192,192,182606,1,0,0:0:0:0:
64,192,182692,1,0,0:0:0:0:
448,192,182777,1,0,0:0:0:50:kick.wav
192,192,182777,1,0,0:0:0:0:
320,192,182863,1,0,0:0:0:0:
64,192,182949,1,0,0:0:0:0:
192,192,183035,1,0,0:0:0:0:
320,192,183120,1,0,0:0:0:50:kick.wav
448,192,183120,1,0,0:0:0:0:
64,192,183206,1,0,0:0:0:0:
320,192,183292,1,0,0:0:0:0:
192,192,183377,1,0,0:0:0:0:
320,192,183463,1,0,0:0:0:50:kick.wav
64,192,183463,1,0,0:0:0:0:
192,192,183635,1,0,0:0:0:50:kick.wav
448,192,183635,1,0,0:0:0:0:
448,192,183720,1,0,0:0:0:50:kick.wav
192,192,183720,1,0,0:0:0:0:
64,192,183806,5,0,0:0:0:50:kick.wav
320,192,183806,1,0,0:0:0:0:
448,192,183892,1,0,0:0:0:0:
192,192,183977,1,0,0:0:0:0:
320,192,184063,1,0,0:0:0:0:
64,192,184149,1,0,0:0:0:50:kick.wav
192,192,184149,1,0,0:0:0:0:
448,192,184235,1,0,0:0:0:0:
320,192,184320,1,0,0:0:0:0:
192,192,184406,1,0,0:0:0:0:
64,192,184492,1,0,0:0:0:50:kick.wav
320,192,184492,1,0,0:0:0:0:
192,192,184577,1,0,0:0:0:0:
448,192,184663,1,0,0:0:0:0:
320,192,184749,1,0,0:0:0:0:
64,192,184835,1,0,0:0:0:50:kick.wav
448,192,184835,1,0,0:0:0:0:
320,192,184920,1,0,0:0:0:0:
448,192,185006,1,0,0:0:0:0:
192,192,185092,1,0,0:0:0:0:
64,192,185177,1,0,0:0:0:50:kick.wav
320,192,185177,1,0,0:0:0:0:
448,192,185263,1,0,0:0:0:0:
192,192,185349,1,0,0:0:0:0:
64,192,185520,1,0,0:0:0:50:kick.wav
320,192,185520,1,0,0:0:0:0:
192,192,185606,1,0,0:0:0:0:
448,192,185692,1,0,0:0:0:0:
320,192,185777,1,0,0:0:0:0:
64,192,185863,1,0,0:0:0:50:kick.wav
192,192,185863,1,0,0:0:0:0:
448,192,185949,1,0,0:0:0:0:
192,192,186035,1,0,0:0:0:0:
320,192,186120,1,0,0:0:0:0:
64,192,186206,1,0,0:0:0:50:kick.wav
192,192,186206,1,0,0:0:0:0:
448,192,186377,1,0,0:0:0:0:
192,192,186463,1,0,0:0:0:0:
64,192,186549,1,0,0:0:0:50:kick.wav
320,192,186549,1,0,0:0:0:0:
192,192,186635,1,0,0:0:0:0:
320,192,186720,1,0,0:0:0:0:
448,192,186806,1,0,0:0:0:0:
64,192,186892,1,0,0:0:0:50:kick.wav
320,192,186892,1,0,0:0:0:0:
192,192,186977,1,0,0:0:0:0:
448,192,187063,1,0,0:0:0:0:
320,192,187149,1,0,0:0:0:0:
64,192,187235,1,0,0:0:0:50:kick.wav
192,192,187235,1,0,0:0:0:0:
320,192,187320,1,0,0:0:0:0:
192,192,187406,1,0,0:0:0:0:
448,192,187492,1,0,0:0:0:0:
64,192,187577,1,0,0:0:0:50:kick.wav
320,192,187577,1,0,0:0:0:0:
448,192,187663,1,0,0:0:0:0:
192,192,187749,1,0,0:0:0:0:
320,192,187835,1,0,0:0:0:0:
64,192,187920,1,0,0:0:0:50:kick.wav
448,192,187920,1,0,0:0:0:0:
320,192,188006,1,0,0:0:0:0:
192,192,188092,1,0,0:0:0:0:
448,192,188177,1,0,0:0:0:0:
64,192,188263,1,0,0:0:0:50:kick.wav
320,192,188263,1,0,0:0:0:0:
192,192,188349,1,0,0:0:0:0:
448,192,188435,1,0,0:0:0:0:
320,192,188520,1,0,0:0:0:0:
64,192,188606,1,0,0:0:0:50:kick.wav
192,192,188606,1,0,0:0:0:0:
320,192,188692,1,0,0:0:0:0:
448,192,188777,1,0,0:0:0:0:
192,192,188863,1,0,0:0:0:0:
64,192,188949,1,0,0:0:0:50:kick.wav
448,192,188949,1,0,0:0:0:0:
192,192,189035,1,0,0:0:0:0:
448,192,189120,1,0,0:0:0:0:
320,192,189206,1,0,0:0:0:0:
192,192,189292,1,0,0:0:0:50:kick.wav
64,192,189292,1,0,0:0:0:0:
448,192,189292,1,0,0:0:0:0:
192,192,189463,1,0,0:0:0:50:kick.wav
64,192,189463,1,0,0:0:0:0:
320,192,189463,1,0,0:0:0:0:
64,192,189635,1,0,0:0:0:50:kick.wav
192,192,189635,1,0,0:0:0:0:
448,192,189635,1,0,0:0:0:0:
192,192,189806,1,0,0:0:0:50:kick.wav
448,192,189806,1,0,0:0:0:0:
320,192,189806,1,0,0:0:0:0:
64,192,189977,1,0,0:0:0:50:kick.wav
320,192,189977,1,0,0:0:0:0:
192,192,189977,1,0,0:0:0:0:
448,192,190149,1,0,0:0:0:50:kick.wav
320,192,190149,1,0,0:0:0:0:
64,192,190149,1,0,0:0:0:0:
64,192,190320,1,0,0:0:0:50:kick.wav
448,192,190320,1,0,0:0:0:0:
192,192,190320,1,0,0:0:0:0:
320,192,190492,1,0,0:0:0:50:kick.wav
448,192,190492,1,0,0:0:0:0:
192,192,190492,1,0,0:0:0:0:
320,192,190663,1,0,0:0:0:50:kick.wav
64,192,190663,1,0,0:0:0:0:
192,192,190663,1,0,0:0:0:0:
320,192,190835,1,0,0:0:0:50:kick.wav
448,192,190835,1,0,0:0:0:0:
192,192,190835,1,0,0:0:0:0:
192,192,191006,1,0,0:0:0:50:kick.wav
448,192,191006,1,0,0:0:0:0:
64,192,191006,1,0,0:0:0:0:
192,192,191177,1,0,0:0:0:50:kick.wav
320,192,191177,1,0,0:0:0:0:
448,192,191177,1,0,0:0:0:0:
192,192,191349,1,0,0:0:0:50:kick.wav
64,192,191349,1,0,0:0:0:0:
320,192,191349,1,0,0:0:0:0:
448,192,191520,1,0,0:0:0:50:kick.wav
192,192,191520,1,0,0:0:0:0:
64,192,191520,1,0,0:0:0:0:
448,192,191692,1,0,0:0:0:50:kick.wav
192,192,191692,1,0,0:0:0:0:
320,192,191692,1,0,0:0:0:0:
320,192,191863,1,0,0:0:0:50:kick.wav
64,192,191863,1,0,0:0:0:0:
448,192,191863,1,0,0:0:0:0:
448,192,192035,1,0,0:0:0:50:kick.wav
64,192,192035,1,0,0:0:0:0:
192,192,192120,1,0,0:0:0:50:kick.wav
320,192,192120,1,0,0:0:0:0:
448,192,192206,1,0,0:0:0:50:kick.wav
64,192,192206,1,0,0:0:0:0:
320,192,192292,1,0,0:0:0:50:kick.wav
192,192,192292,1,0,0:0:0:0:
192,192,192377,1,0,0:0:0:50:kick.wav
64,192,192377,1,0,0:0:0:0:
320,192,192463,1,0,0:0:0:50:kick.wav
448,192,192463,1,0,0:0:0:0:
192,192,192549,1,0,0:0:0:50:kick.wav
64,192,192549,1,0,0:0:0:0:
448,192,192635,1,0,0:0:0:50:kick.wav
320,192,192635,1,0,0:0:0:0:
64,192,192720,1,0,0:0:0:50:kick.wav
320,192,192720,1,0,0:0:0:0:
448,192,192806,1,0,0:0:0:0:
192,192,192806,1,0,0:0:0:50:kick.wav
320,192,192892,1,0,0:0:0:50:kick.wav
64,192,192892,1,0,0:0:0:0:
192,192,192977,1,0,0:0:0:0:
448,192,192977,1,0,0:0:0:50:kick.wav
64,192,193063,1,0,0:0:0:50:kick.wav
192,192,193063,1,0,0:0:0:0:
320,192,193149,1,0,0:0:0:50:kick.wav
448,192,193149,1,0,0:0:0:0:
192,192,193235,1,0,0:0:0:50:kick.wav
64,192,193235,1,0,0:0:0:0:
448,192,193320,1,0,0:0:0:50:kick.wav
320,192,193320,1,0,0:0:0:0:
64,192,193406,1,0,0:0:0:50:kick.wav
192,192,193449,1,0,0:0:0:0:
320,192,193492,1,0,0:0:0:0:
448,192,193535,1,0,0:0:0:0:
320,192,193577,1,0,0:0:0:0:
192,192,193620,1,0,0:0:0:0:
64,192,193663,1,0,0:0:0:0:
192,192,193706,1,0,0:0:0:0:
320,192,193749,1,0,0:0:0:0:
448,192,193792,1,0,0:0:0:0:
320,192,193835,1,0,0:0:0:0:
192,192,193877,1,0,0:0:0:0:
64,192,193920,1,0,0:0:0:0:
192,192,193963,1,0,0:0:0:0:
320,192,194006,1,0,0:0:0:0:
448,192,194049,1,0,0:0:0:0:
64,192,194092,1,0,0:0:0:0:
192,192,194135,1,0,0:0:0:0:
320,192,194177,1,0,0:0:0:0:
448,192,194220,1,0,0:0:0:0:
320,192,194263,1,0,0:0:0:0:
192,192,194306,1,0,0:0:0:0:
64,192,194349,1,0,0:0:0:0:
448,192,194392,1,0,0:0:0:0:
320,192,194435,1,0,0:0:0:0:
192,192,194477,1,0,0:0:0:0:
64,192,194520,1,0,0:0:0:0:
192,192,194563,1,0,0:0:0:0:
320,192,194606,1,0,0:0:0:0:
448,192,194649,1,0,0:0:0:0:
320,192,194692,1,0,0:0:0:0:
192,192,194735,1,0,0:0:0:0:
448,192,194777,1,0,0:0:0:20:crash.wav
64,192,194777,1,0,0:0:0:50:kick.wav
192,192,194863,1,0,0:0:0:0:
320,192,194949,1,0,0:0:0:0:
192,192,195035,1,0,0:0:0:0:
448,192,195120,1,0,0:0:0:50:kick.wav
64,192,195120,1,0,0:0:0:0:
320,192,195206,1,0,0:0:0:0:
192,192,195292,1,0,0:0:0:0:
448,192,195377,1,0,0:0:0:0:
192,192,195463,1,0,0:0:0:50:kick.wav
320,192,195463,1,0,0:0:0:0:
448,192,195549,1,0,0:0:0:0:
192,192,195635,1,0,0:0:0:0:
448,192,195720,1,0,0:0:0:0:
64,192,195806,1,0,0:0:0:50:kick.wav
320,192,195806,1,0,0:0:0:0:
192,192,195892,1,0,0:0:0:0:
448,192,195977,1,0,0:0:0:0:
320,192,196063,1,0,0:0:0:0:
192,192,196149,1,0,0:0:0:50:kick.wav
64,192,196149,1,0,0:0:0:0:
448,192,196235,1,0,0:0:0:0:
320,192,196320,1,0,0:0:0:0:
64,192,196492,1,0,0:0:0:50:kick.wav
448,192,196492,1,0,0:0:0:0:
320,192,196577,1,0,0:0:0:0:
192,192,196663,1,0,0:0:0:0:
192,192,196835,1,0,0:0:0:50:kick.wav
448,192,196835,1,0,0:0:0:0:
320,192,196920,1,0,0:0:0:0:
192,192,197006,1,0,0:0:0:0:
64,192,197092,1,0,0:0:0:0:
192,192,197177,1,0,0:0:0:50:kick.wav
320,192,197177,1,0,0:0:0:0:
64,192,197349,1,0,0:0:0:0:
192,192,197435,1,0,0:0:0:0:
320,192,197520,1,0,0:0:0:50:kick.wav
448,192,197520,1,0,0:0:0:0:
192,192,197606,1,0,0:0:0:0:
448,192,197692,1,0,0:0:0:0:
192,192,197777,1,0,0:0:0:0:
320,192,197863,1,0,0:0:0:50:kick.wav
64,192,197863,1,0,0:0:0:0:
192,192,197949,1,0,0:0:0:0:
448,192,198035,1,0,0:0:0:0:
320,192,198120,1,0,0:0:0:0:
192,192,198206,1,0,0:0:0:50:kick.wav
64,192,198206,1,0,0:0:0:0:
320,192,198292,1,0,0:0:0:0:
192,192,198377,1,0,0:0:0:0:
448,192,198463,1,0,0:0:0:0:
320,192,198549,1,0,0:0:0:50:kick.wav
64,192,198549,1,0,0:0:0:0:
192,192,198720,1,0,0:0:0:0:
64,192,198806,1,0,0:0:0:0:
192,192,198892,1,0,0:0:0:50:kick.wav
448,192,198892,1,0,0:0:0:0:
64,192,198977,1,0,0:0:0:0:
320,192,199063,1,0,0:0:0:0:
320,192,199235,1,0,0:0:0:50:kick.wav
64,192,199235,1,0,0:0:0:0:
448,192,199320,1,0,0:0:0:0:
192,192,199406,1,0,0:0:0:0:
320,192,199492,1,0,0:0:0:0:
192,192,199577,1,0,0:0:0:50:kick.wav
448,192,199577,1,0,0:0:0:0:
320,192,199663,1,0,0:0:0:0:
448,192,199749,1,0,0:0:0:0:
320,192,199835,1,0,0:0:0:0:
192,192,199920,1,0,0:0:0:50:kick.wav
64,192,199920,1,0,0:0:0:0:
192,192,200092,1,0,0:0:0:0:
320,192,200177,1,0,0:0:0:0:
192,192,200263,1,0,0:0:0:50:kick.wav
448,192,200263,1,0,0:0:0:0:
64,192,200349,1,0,0:0:0:0:
192,192,200435,1,0,0:0:0:0:
320,192,200520,1,0,0:0:0:0:
192,192,200606,1,0,0:0:0:50:kick.wav
64,192,200606,1,0,0:0:0:0:
320,192,200692,1,0,0:0:0:0:
192,192,200777,1,0,0:0:0:0:
64,192,200863,1,0,0:0:0:0:
320,192,200949,1,0,0:0:0:50:kick.wav
448,192,200949,1,0,0:0:0:0:
192,192,201035,1,0,0:0:0:0:
448,192,201120,1,0,0:0:0:0:
64,192,201206,1,0,0:0:0:0:
192,192,201292,1,0,0:0:0:50:kick.wav
320,192,201292,1,0,0:0:0:0:
448,192,201377,1,0,0:0:0:0:
192,192,201463,1,0,0:0:0:0:
320,192,201549,1,0,0:0:0:0:
192,192,201635,1,0,0:0:0:50:kick.wav
64,192,201635,1,0,0:0:0:0:
448,192,201720,1,0,0:0:0:0:
320,192,201806,1,0,0:0:0:0:
192,192,201977,1,0,0:0:0:50:kick.wav
448,192,201977,1,0,0:0:0:0:
64,192,202063,1,0,0:0:0:0:
320,192,202149,1,0,0:0:0:0:
192,192,202235,1,0,0:0:0:0:
64,192,202320,1,0,0:0:0:50:kick.wav
448,192,202320,1,0,0:0:0:0:
320,192,202406,1,0,0:0:0:0:
64,192,202492,1,0,0:0:0:0:
192,192,202577,1,0,0:0:0:0:
320,192,202663,1,0,0:0:0:50:kick.wav
448,192,202663,1,0,0:0:0:0:
192,192,202835,1,0,0:0:0:0:
320,192,202920,1,0,0:0:0:0:
64,192,203006,1,0,0:0:0:50:kick.wav
192,192,203006,1,0,0:0:0:0:
448,192,203092,1,0,0:0:0:0:
192,192,203177,1,0,0:0:0:0:
448,192,203263,1,0,0:0:0:0:
320,192,203349,1,0,0:0:0:50:kick.wav
64,192,203349,1,0,0:0:0:0:
448,192,203435,1,0,0:0:0:0:
192,192,203520,1,0,0:0:0:0:
320,192,203606,1,0,0:0:0:0:
448,192,203692,1,0,0:0:0:50:kick.wav
192,192,203692,1,0,0:0:0:0:
64,192,203777,1,0,0:0:0:0:
320,192,203863,1,0,0:0:0:0:
192,192,203949,1,0,0:0:0:0:
64,192,204035,1,0,0:0:0:50:kick.wav
320,192,204035,1,0,0:0:0:0:
192,192,204120,1,0,0:0:0:0:
448,192,204206,1,0,0:0:0:0:
320,192,204292,1,0,0:0:0:0:
64,192,204377,1,0,0:0:0:50:kick.wav
192,192,204377,1,0,0:0:0:0:
448,192,204463,1,0,0:0:0:0:
192,192,204549,1,0,0:0:0:0:
64,192,204635,1,0,0:0:0:0:
192,192,204720,1,0,0:0:0:50:kick.wav
448,192,204720,1,0,0:0:0:0:
320,192,204806,1,0,0:0:0:0:
64,192,204892,1,0,0:0:0:0:
192,192,204977,1,0,0:0:0:0:
320,192,205063,1,0,0:0:0:50:kick.wav
448,192,205063,1,0,0:0:0:0:
64,192,205149,1,0,0:0:0:0:
320,192,205235,1,0,0:0:0:0:
64,192,205320,1,0,0:0:0:0:
192,192,205406,1,0,0:0:0:50:kick.wav
448,192,205406,1,0,0:0:0:0:
64,192,205577,1,0,0:0:0:50:kick.wav
320,192,205577,1,0,0:0:0:0:
320,192,205663,1,0,0:0:0:0:
64,192,205663,1,0,0:0:0:50:kick.wav
192,192,205749,5,0,0:0:0:50:kick.wav
448,192,205749,1,0,0:0:0:0:
320,192,205835,1,0,0:0:0:0:
192,192,205920,1,0,0:0:0:0:
320,192,206006,1,0,0:0:0:0:
64,192,206092,1,0,0:0:0:50:kick.wav
192,192,206092,1,0,0:0:0:0:
448,192,206177,1,0,0:0:0:0:
320,192,206263,1,0,0:0:0:0:
192,192,206349,1,0,0:0:0:0:
64,192,206435,1,0,0:0:0:50:kick.wav
320,192,206435,1,0,0:0:0:0:
192,192,206520,1,0,0:0:0:0:
448,192,206606,1,0,0:0:0:0:
320,192,206692,1,0,0:0:0:0:
64,192,206777,1,0,0:0:0:50:kick.wav
448,192,206777,1,0,0:0:0:0:
320,192,206863,1,0,0:0:0:0:
448,192,206949,1,0,0:0:0:0:
192,192,207035,1,0,0:0:0:0:
64,192,207120,1,0,0:0:0:50:kick.wav
320,192,207120,1,0,0:0:0:0:
448,192,207206,1,0,0:0:0:0:
192,192,207292,1,0,0:0:0:0:
64,192,207463,1,0,0:0:0:50:kick.wav
320,192,207463,1,0,0:0:0:0:
192,192,207549,1,0,0:0:0:0:
448,192,207635,1,0,0:0:0:0:
320,192,207720,1,0,0:0:0:0:
64,192,207806,1,0,0:0:0:50:kick.wav
192,192,207806,1,0,0:0:0:0:
448,192,207892,1,0,0:0:0:0:
192,192,207977,1,0,0:0:0:0:
320,192,208063,1,0,0:0:0:0:
64,192,208149,1,0,0:0:0:50:kick.wav
192,192,208149,1,0,0:0:0:0:
448,192,208320,1,0,0:0:0:0:
192,192,208406,1,0,0:0:0:0:
64,192,208492,1,0,0:0:0:50:kick.wav
320,192,208492,1,0,0:0:0:0:
192,192,208577,1,0,0:0:0:0:
320,192,208663,1,0,0:0:0:0:
448,192,208749,1,0,0:0:0:0:
64,192,208835,1,0,0:0:0:50:kick.wav
320,192,208835,1,0,0:0:0:0:
192,192,208920,1,0,0:0:0:0:
448,192,209006,1,0,0:0:0:0:
320,192,209092,1,0,0:0:0:0:
64,192,209177,1,0,0:0:0:50:kick.wav
192,192,209177,1,0,0:0:0:0:
320,192,209263,1,0,0:0:0:0:
192,192,209349,1,0,0:0:0:0:
448,192,209435,1,0,0:0:0:0:
64,192,209520,1,0,0:0:0:50:kick.wav
320,192,209520,1,0,0:0:0:0:
448,192,209606,1,0,0:0:0:0:
192,192,209692,1,0,0:0:0:0:
320,192,209777,1,0,0:0:0:0:
448,192,209863,1,0,0:0:0:50:kick.wav
64,192,209863,1,0,0:0:0:0:
320,192,209949,1,0,0:0:0:0:
192,192,210035,1,0,0:0:0:0:
448,192,210120,5,0,0:0:0:0:
320,192,210206,1,0,0:0:0:50:kick.wav
64,192,210206,1,0,0:0:0:0:
192,192,210292,1,0,0:0:0:0:
448,192,210377,1,0,0:0:0:0:
320,192,210463,1,0,0:0:0:0:
192,192,210549,1,0,0:0:0:50:kick.wav
64,192,210549,1,0,0:0:0:0:
320,192,210635,1,0,0:0:0:0:
448,192,210720,1,0,0:0:0:0:
192,192,210806,1,0,0:0:0:0:
448,192,210892,1,0,0:0:0:50:kick.wav
64,192,210892,1,0,0:0:0:0:
192,192,210977,1,0,0:0:0:0:
448,192,211063,1,0,0:0:0:0:
320,192,211149,1,0,0:0:0:0:
448,192,211235,5,0,0:0:0:50:kick.wav
64,192,211235,1,0,0:0:0:0:
192,192,211235,1,0,0:0:0:0:
320,192,211406,1,0,0:0:0:50:kick.wav
64,192,211406,1,0,0:0:0:0:
192,192,211406,1,0,0:0:0:0:
448,192,211577,1,0,0:0:0:50:kick.wav
192,192,211577,1,0,0:0:0:0:
64,192,211577,1,0,0:0:0:0:
320,192,211749,1,0,0:0:0:50:kick.wav
192,192,211749,1,0,0:0:0:0:
64,192,211749,1,0,0:0:0:0:
192,192,211920,1,0,0:0:0:50:kick.wav
320,192,211920,1,0,0:0:0:0:
448,192,211920,1,0,0:0:0:0:
64,192,212092,1,0,0:0:0:50:kick.wav
320,192,212092,1,0,0:0:0:0:
448,192,212092,1,0,0:0:0:0:
192,192,212263,1,0,0:0:0:50:kick.wav
448,192,212263,1,0,0:0:0:0:
64,192,212263,1,0,0:0:0:0:
192,192,212435,1,0,0:0:0:50:kick.wav
448,192,212435,1,0,0:0:0:0:
320,192,212435,1,0,0:0:0:0:
192,192,212606,1,0,0:0:0:50:kick.wav
64,192,212606,1,0,0:0:0:0:
320,192,212606,1,0,0:0:0:0:
448,192,212777,1,0,0:0:0:50:kick.wav
192,192,212777,1,0,0:0:0:0:
320,192,212777,1,0,0:0:0:0:
64,192,212949,1,0,0:0:0:50:kick.wav
448,192,212949,1,0,0:0:0:0:
192,192,212949,1,0,0:0:0:0:
448,192,213120,1,0,0:0:0:50:kick.wav
320,192,213120,1,0,0:0:0:0:
192,192,213120,1,0,0:0:0:0:
320,192,213292,1,0,0:0:0:50:kick.wav
64,192,213292,1,0,0:0:0:0:
192,192,213292,1,0,0:0:0:0:
64,192,213463,1,0,0:0:0:50:kick.wav
192,192,213463,1,0,0:0:0:0:
448,192,213463,1,0,0:0:0:0:
320,192,213635,1,0,0:0:0:50:kick.wav
192,192,213635,1,0,0:0:0:0:
448,192,213635,1,0,0:0:0:0:
448,192,213806,1,0,0:0:0:50:kick.wav
64,192,213806,1,0,0:0:0:0:
320,192,213806,1,0,0:0:0:0:
320,192,213977,1,0,0:0:0:50:kick.wav
64,192,213977,1,0,0:0:0:0:
448,192,214063,1,0,0:0:0:50:kick.wav
192,192,214063,1,0,0:0:0:0:
192,192,214149,1,0,0:0:0:50:kick.wav
64,192,214149,1,0,0:0:0:0:
448,192,214235,1,0,0:0:0:50:kick.wav
320,192,214235,1,0,0:0:0:0:
64,192,214320,1,0,0:0:0:50:kick.wav
192,192,214320,1,0,0:0:0:0:
448,192,214406,1,0,0:0:0:50:kick.wav
192,192,214406,1,0,0:0:0:0:
64,192,214492,1,0,0:0:0:0:
320,192,214492,1,0,0:0:0:50:kick.wav
448,192,214577,1,0,0:0:0:50:kick.wav
192,192,214577,1,0,0:0:0:0:
64,192,214663,1,0,0:0:0:50:kick.wav
448,192,214663,1,0,0:0:0:0:
320,192,214749,1,0,0:0:0:50:kick.wav
192,192,214749,1,0,0:0:0:0:
64,192,214835,1,0,0:0:0:0:
448,192,214835,1,0,0:0:0:50:kick.wav
192,192,214920,1,0,0:0:0:50:kick.wav
320,192,214920,1,0,0:0:0:0:
192,192,215006,1,0,0:0:0:50:kick.wav
448,192,215006,1,0,0:0:0:0:
64,192,215092,1,0,0:0:0:0:
320,192,215092,1,0,0:0:0:50:kick.wav
192,192,215177,1,0,0:0:0:50:kick.wav
448,192,215177,1,0,0:0:0:0:
320,192,215263,1,0,0:0:0:50:kick.wav
64,192,215263,1,0,0:0:0:0:
448,192,215349,1,0,0:0:0:0:
320,192,215392,1,0,0:0:0:0:
192,192,215435,1,0,0:0:0:0:
64,192,215477,1,0,0:0:0:0:
448,192,215520,1,0,0:0:0:0:
320,192,215563,1,0,0:0:0:0:
192,192,215606,1,0,0:0:0:0:
64,192,215649,1,0,0:0:0:0:
192,192,215692,1,0,0:0:0:0:
320,192,215735,1,0,0:0:0:0:
448,192,215777,1,0,0:0:0:0:
64,192,215820,1,0,0:0:0:0:
192,192,215863,1,0,0:0:0:0:
320,192,215906,1,0,0:0:0:0:
448,192,215949,1,0,0:0:0:0:
320,192,215992,1,0,0:0:0:0:
192,192,216035,1,0,0:0:0:0:
64,192,216077,1,0,0:0:0:0:
448,192,216120,1,0,0:0:0:0:
320,192,216163,1,0,0:0:0:0:
192,192,216206,1,0,0:0:0:0:
64,192,216249,1,0,0:0:0:0:
448,192,216292,1,0,0:0:0:0:
320,192,216335,1,0,0:0:0:0:
192,192,216377,1,0,0:0:0:0:
64,192,216420,1,0,0:0:0:0:
448,192,216463,1,0,0:0:0:0:
320,192,216506,1,0,0:0:0:0:
192,192,216549,1,0,0:0:0:0:
64,192,216592,1,0,0:0:0:0:
192,192,216635,1,0,0:0:0:0:
320,192,216677,1,0,0:0:0:0:
448,192,216720,5,0,0:0:0:20:crash.wav
64,192,216720,1,0,0:0:0:50:kick.wav
320,192,216806,1,0,0:0:0:0:
192,192,216892,1,0,0:0:0:0:
320,192,217063,1,0,0:0:0:50:kick.wav
64,192,217063,1,0,0:0:0:0:
448,192,217235,1,0,0:0:0:0:
64,192,217320,1,0,0:0:0:0:
192,192,217406,1,0,0:0:0:50:kick.wav
448,192,217406,1,0,0:0:0:0:
320,192,217577,1,0,0:0:0:0:
192,192,217663,1,0,0:0:0:0:
320,192,217749,1,0,0:0:0:50:kick.wav
448,192,217749,1,0,0:0:0:0:
192,192,217835,1,0,0:0:0:0:
64,192,217920,1,0,0:0:0:0:
192,192,218006,1,0,0:0:0:0:
320,192,218092,1,0,0:0:0:50:kick.wav
64,192,218092,1,0,0:0:0:0:
448,192,218177,1,0,0:0:0:0:
192,192,218263,1,0,0:0:0:0:
192,192,218435,1,0,0:0:0:50:kick.wav
64,192,218435,1,0,0:0:0:0:
320,192,218606,1,0,0:0:0:0:
448,192,218692,1,0,0:0:0:0:
320,192,218777,1,0,0:0:0:50:kick.wav
64,192,218777,1,0,0:0:0:0:
192,192,218949,1,0,0:0:0:0:
64,192,219035,1,0,0:0:0:0:
320,192,219120,1,0,0:0:0:50:kick.wav
448,192,219120,1,0,0:0:0:0:
192,192,219206,1,0,0:0:0:0:
64,192,219292,1,0,0:0:0:0:
192,192,219377,1,0,0:0:0:0:
448,192,219463,1,0,0:0:0:50:kick.wav
64,192,219463,1,0,0:0:0:0:
320,192,219549,1,0,0:0:0:0:
192,192,219635,1,0,0:0:0:0:
320,192,219806,1,0,0:0:0:50:kick.wav
448,192,219806,1,0,0:0:0:0:
192,192,219977,1,0,0:0:0:0:
64,192,220063,1,0,0:0:0:0:
192,192,220149,1,0,0:0:0:50:kick.wav
448,192,220149,1,0,0:0:0:0:
64,192,220320,1,0,0:0:0:0:
192,192,220406,1,0,0:0:0:0:
320,192,220492,1,0,0:0:0:50:kick.wav
64,192,220492,1,0,0:0:0:0:
192,192,220577,1,0,0:0:0:0:
448,192,220663,1,0,0:0:0:0:
320,192,220749,1,0,0:0:0:0:
192,192,220835,1,0,0:0:0:50:kick.wav
64,192,220835,1,0,0:0:0:0:
320,192,220920,1,0,0:0:0:0:
448,192,221006,1,0,0:0:0:0:
192,192,221177,1,0,0:0:0:50:kick.wav
448,192,221177,1,0,0:0:0:0:
320,192,221263,1,0,0:0:0:0:
64,192,221349,1,0,0:0:0:0:
192,192,221435,1,0,0:0:0:0:
320,192,221520,1,0,0:0:0:50:kick.wav
448,192,221520,1,0,0:0:0:0:
192,192,221692,1,0,0:0:0:0:
64,192,221777,1,0,0:0:0:0:
192,192,221863,1,0,0:0:0:50:kick.wav
448,192,221863,1,0,0:0:0:0:
320,192,221949,1,0,0:0:0:0:
64,192,222035,1,0,0:0:0:0:
192,192,222120,1,0,0:0:0:0:
320,192,222206,1,0,0:0:0:50:kick.wav
448,192,222206,1,0,0:0:0:0:
192,192,222292,1,0,0:0:0:0:
64,192,222377,1,0,0:0:0:0:
320,192,222463,1,0,0:0:0:0:
192,192,222549,1,0,0:0:0:50:kick.wav
448,192,222549,1,0,0:0:0:0:
64,192,222635,1,0,0:0:0:0:
320,192,222720,1,0,0:0:0:0:
192,192,222806,1,0,0:0:0:0:
320,192,222892,1,0,0:0:0:50:kick.wav
448,192,222892,1,0,0:0:0:0:
320,192,223063,1,0,0:0:0:0:
448,192,223149,1,0,0:0:0:0:
320,192,223235,1,0,0:0:0:50:kick.wav
64,192,223235,1,0,0:0:0:0:
192,192,223320,1,0,0:0:0:0:
448,192,223406,1,0,0:0:0:0:
320,192,223492,1,0,0:0:0:0:
192,192,223577,1,0,0:0:0:50:kick.wav
64,192,223577,1,0,0:0:0:0:
448,192,223663,1,0,0:0:0:0:
192,192,223749,1,0,0:0:0:0:
320,192,223835,1,0,0:0:0:0:
192,192,223920,1,0,0:0:0:50:kick.wav
448,192,223920,1,0,0:0:0:0:
64,192,224092,1,0,0:0:0:0:
192,192,224177,1,0,0:0:0:0:
320,192,224263,1,0,0:0:0:50:kick.wav
64,192,224263,1,0,0:0:0:0:
448,192,224435,1,0,0:0:0:0:
320,192,224520,1,0,0:0:0:0:
192,192,224606,1,0,0:0:0:50:kick.wav
64,192,224606,1,0,0:0:0:0:
320,192,224692,1,0,0:0:0:0:
192,192,224777,1,0,0:0:0:0:
320,192,224863,1,0,0:0:0:0:
448,192,224949,1,0,0:0:0:50:kick.wav
64,192,224949,1,0,0:0:0:0:
192,192,225035,1,0,0:0:0:0:
448,192,225120,1,0,0:0:0:0:
192,192,225292,1,0,0:0:0:50:kick.wav
320,192,225292,1,0,0:0:0:0:
64,192,225377,1,0,0:0:0:0:
448,192,225463,1,0,0:0:0:0:
192,192,225549,1,0,0:0:0:0:
320,192,225635,1,0,0:0:0:50:kick.wav
64,192,225635,1,0,0:0:0:0:
192,192,225720,1,0,0:0:0:0:
448,192,225806,1,0,0:0:0:0:
320,192,225977,1,0,0:0:0:50:kick.wav
64,192,225977,1,0,0:0:0:0:
448,192,226063,1,0,0:0:0:0:
192,192,226149,1,0,0:0:0:0:
320,192,226235,1,0,0:0:0:0:
192,192,226320,1,0,0:0:0:50:kick.wav
64,192,226320,1,0,0:0:0:0:
448,192,226406,1,0,0:0:0:0:
64,192,226492,1,0,0:0:0:0:
320,192,226577,1,0,0:0:0:0:
192,192,226663,1,0,0:0:0:50:kick.wav
448,192,226663,1,0,0:0:0:0:
64,192,226835,1,0,0:0:0:0:
448,192,226920,1,0,0:0:0:0:
64,192,227006,1,0,0:0:0:50:kick.wav
320,192,227006,1,0,0:0:0:0:
448,192,227177,1,0,0:0:0:0:
320,192,227263,1,0,0:0:0:0:
192,192,227349,1,0,0:0:0:50:kick.wav
64,192,227349,1,0,0:0:0:0:
448,192,227435,1,0,0:0:0:0:
320,192,227520,1,0,0:0:0:50:kick.wav
192,192,227520,1,0,0:0:0:0:
320,192,227606,1,0,0:0:0:50:kick.wav
192,192,227606,1,0,0:0:0:0:
64,192,227692,5,0,0:0:0:50:kick.wav
448,192,227692,1,0,0:0:0:0:
320,192,227777,1,0,0:0:0:0:
192,192,227863,1,0,0:0:0:0:
64,192,228035,1,0,0:0:0:50:kick.wav
448,192,228035,1,0,0:0:0:0:
192,192,228206,1,0,0:0:0:0:
448,192,228292,1,0,0:0:0:0:
64,192,228377,1,0,0:0:0:50:kick.wav
320,192,228377,1,0,0:0:0:0:
448,192,228549,1,0,0:0:0:0:
320,192,228635,1,0,0:0:0:0:
64,192,228720,1,0,0:0:0:50:kick.wav
192,192,228720,1,0,0:0:0:0:
320,192,228806,1,0,0:0:0:0:
192,192,228892,1,0,0:0:0:0:
320,192,228977,1,0,0:0:0:0:
448,192,229063,1,0,0:0:0:50:kick.wav
64,192,229063,1,0,0:0:0:0:
192,192,229149,1,0,0:0:0:0:
320,192,229235,1,0,0:0:0:0:
448,192,229406,1,0,0:0:0:50:kick.wav
320,192,229406,1,0,0:0:0:0:
64,192,229577,1,0,0:0:0:0:
320,192,229663,1,0,0:0:0:0:
448,192,229749,1,0,0:0:0:50:kick.wav
192,192,229749,1,0,0:0:0:0:
320,192,229920,1,0,0:0:0:0:
64,192,230006,1,0,0:0:0:0:
448,192,230092,1,0,0:0:0:50:kick.wav
320,192,230092,1,0,0:0:0:0:
192,192,230177,1,0,0:0:0:0:
448,192,230263,1,0,0:0:0:0:
320,192,230349,1,0,0:0:0:0:
64,192,230435,1,0,0:0:0:50:kick.wav
192,192,230435,1,0,0:0:0:0:
320,192,230520,1,0,0:0:0:0:
448,192,230606,1,0,0:0:0:0:
192,192,230692,1,0,0:0:0:0:
64,192,230777,1,0,0:0:0:50:kick.wav
320,192,230777,1,0,0:0:0:0:
192,192,230949,1,0,0:0:0:0:
320,192,231035,1,0,0:0:0:0:
64,192,231120,1,0,0:0:0:50:kick.wav
192,192,231120,1,0,0:0:0:0:
448,192,231206,1,0,0:0:0:0:
320,192,231292,1,0,0:0:0:0:
192,192,231377,1,0,0:0:0:0:
64,192,231463,1,0,0:0:0:50:kick.wav
320,192,231463,1,0,0:0:0:0:
192,192,231549,1,0,0:0:0:0:
320,192,231635,1,0,0:0:0:0:
192,192,231720,1,0,0:0:0:0:
448,192,231806,1,0,0:0:0:50:kick.wav
320,192,231806,1,0,0:0:0:0:
64,192,231892,1,0,0:0:0:0:
320,192,231977,1,0,0:0:0:0:
192,192,232063,1,0,0:0:0:0:
448,192,232149,1,0,0:0:0:50:kick.wav
64,192,232149,1,0,0:0:0:0:
64,192,232320,1,0,0:0:0:0:
192,192,232406,1,0,0:0:0:0:
448,192,232492,1,0,0:0:0:50:kick.wav
320,192,232492,1,0,0:0:0:0:
320,192,232663,1,0,0:0:0:0:
64,192,232749,1,0,0:0:0:0:
448,192,232835,1,0,0:0:0:50:kick.wav
192,192,232835,1,0,0:0:0:0:
320,192,232920,1,0,0:0:0:0:
64,192,233006,1,0,0:0:0:0:
192,192,233092,1,0,0:0:0:0:
320,192,233177,1,0,0:0:0:50:kick.wav
448,192,233177,1,0,0:0:0:0:
64,192,233177,1,0,0:0:0:0:
64,192,233349,1,0,0:0:0:50:kick.wav
192,192,233349,1,0,0:0:0:0:
320,192,233349,1,0,0:0:0:0:
448,192,233520,1,0,0:0:0:50:kick.wav
192,192,233520,1,0,0:0:0:0:
320,192,233520,1,0,0:0:0:0:
64,192,233692,1,0,0:0:0:50:kick.wav
192,192,233692,1,0,0:0:0:0:
448,192,233692,1,0,0:0:0:0:
320,192,233863,1,0,0:0:0:50:kick.wav
192,192,233863,1,0,0:0:0:0:
64,192,233863,1,0,0:0:0:0:
448,192,234035,1,0,0:0:0:50:kick.wav
320,192,234035,1,0,0:0:0:0:
64,192,234035,1,0,0:0:0:0:
192,192,234206,1,0,0:0:0:50:kick.wav
320,192,234206,1,0,0:0:0:0:
448,192,234206,1,0,0:0:0:0:
64,192,234377,1,0,0:0:0:50:kick.wav
192,192,234377,1,0,0:0:0:0:
320,192,234377,1,0,0:0:0:0:
448,192,234549,1,0,0:0:0:50:kick.wav
192,192,234549,1,0,0:0:0:0:
64,192,234549,1,0,0:0:0:0:
320,192,234720,1,0,0:0:0:50:kick.wav
192,192,234720,1,0,0:0:0:0:
448,192,234720,1,0,0:0:0:0:
64,192,234892,1,0,0:0:0:50:kick.wav
320,192,234892,1,0,0:0:0:0:
448,192,234892,1,0,0:0:0:0:
192,192,235063,1,0,0:0:0:50:kick.wav
320,192,235063,1,0,0:0:0:0:
64,192,235063,1,0,0:0:0:0:
448,192,235235,1,0,0:0:0:50:kick.wav
64,192,235235,1,0,0:0:0:0:
320,192,235235,1,0,0:0:0:0:
64,192,235406,1,0,0:0:0:50:kick.wav
192,192,235406,1,0,0:0:0:0:
448,192,235406,1,0,0:0:0:0:
192,192,235577,1,0,0:0:0:50:kick.wav
320,192,235577,1,0,0:0:0:0:
64,192,235577,1,0,0:0:0:0:
192,192,235749,1,0,0:0:0:50:kick.wav
320,192,235749,1,0,0:0:0:0:
448,192,235749,1,0,0:0:0:0:
320,192,235920,1,0,0:0:0:50:kick.wav
64,192,235920,1,0,0:0:0:0:
192,192,236006,1,0,0:0:0:50:kick.wav
448,192,236006,1,0,0:0:0:0:
64,192,236092,1,0,0:0:0:50:kick.wav
192,192,236092,1,0,0:0:0:0:
448,192,236177,5,0,0:0:0:50:kick.wav
320,192,236177,1,0,0:0:0:0:
192,192,236263,1,0,0:0:0:50:kick.wav
320,192,236263,1,0,0:0:0:0:
64,192,236349,1,0,0:0:0:50:kick.wav
448,192,236349,1,0,0:0:0:0:
192,192,236435,1,0,0:0:0:50:kick.wav
320,192,236435,1,0,0:0:0:0:
448,192,236520,1,0,0:0:0:50:kick.wav
64,192,236520,1,0,0:0:0:0:
64,192,236606,1,0,0:0:0:50:kick.wav
320,192,236606,1,0,0:0:0:0:
448,192,236692,1,0,0:0:0:50:kick.wav
192,192,236692,1,0,0:0:0:0:
320,192,236777,1,0,0:0:0:50:kick.wav
64,192,236777,1,0,0:0:0:0:
64,192,236863,1,0,0:0:0:50:kick.wav
192,192,236863,1,0,0:0:0:0:
448,192,236949,1,0,0:0:0:50:kick.wav
320,192,236949,1,0,0:0:0:0:
192,192,237035,1,0,0:0:0:50:kick.wav
64,192,237035,1,0,0:0:0:0:
320,192,237120,1,0,0:0:0:50:kick.wav
448,192,237120,1,0,0:0:0:0:
192,192,237206,1,0,0:0:0:50:kick.wav
64,192,237206,1,0,0:0:0:0:
448,192,237292,5,0,0:0:0:50:kick.wav
320,192,237335,1,0,0:0:0:0:
192,192,237377,1,0,0:0:0:0:
64,192,237420,1,0,0:0:0:0:
448,192,237463,1,0,0:0:0:0:
320,192,237506,5,0,0:0:0:0:
192,192,237549,1,0,0:0:0:0:
64,192,237592,1,0,0:0:0:0:
448,192,237635,1,0,0:0:0:0:
320,192,237677,1,0,0:0:0:0:
192,192,237720,1,0,0:0:0:0:
64,192,237763,1,0,0:0:0:0:
448,192,237806,1,0,0:0:0:0:
320,192,237849,5,0,0:0:0:0:
192,192,237892,1,0,0:0:0:0:
64,192,237935,1,0,0:0:0:0:
448,192,237977,1,0,0:0:0:0:
320,192,238020,1,0,0:0:0:0:
192,192,238063,1,0,0:0:0:0:
64,192,238106,1,0,0:0:0:0:
448,192,238149,1,0,0:0:0:0:
320,192,238192,5,0,0:0:0:0:
192,192,238235,1,0,0:0:0:0:
64,192,238277,1,0,0:0:0:0:
448,192,238320,1,0,0:0:0:0:
320,192,238363,1,0,0:0:0:0:
192,192,238406,1,0,0:0:0:0:
64,192,238449,1,0,0:0:0:0:
448,192,238492,1,0,0:0:0:0:
320,192,238535,5,0,0:0:0:0:
192,192,238577,1,0,0:0:0:0:
64,192,238620,1,0,0:0:0:0:
320,192,238663,1,0,0:0:0:50:kick.wav
448,192,238663,1,0,0:0:0:20:crash.wav
64,192,238835,1,0,0:0:0:0:
320,192,239006,1,0,0:0:0:0:
448,192,239177,1,0,0:0:0:0:
64,192,241406,1,0,0:0:0:0:
448,192,241577,1,0,0:0:0:0:
320,192,241920,1,0,0:0:0:0:
64,192,244320,1,0,0:0:0:0:
320,192,244492,1,0,0:0:0:0:
192,192,244663,1,0,0:0:0:0:
448,192,246892,1,0,0:0:0:0:
192,192,247063,1,0,0:0:0:0:
64,192,247406,1,0,0:0:0:0:
320,192,247749,1,0,0:0:0:0:
192,192,248092,1,0,0:0:0:0:
64,192,248435,1,0,0:0:0:0:
192,192,248777,1,0,0:0:0:0:
320,192,249120,1,0,0:0:0:0:
64,192,249806,1,0,0:0:0:0:
320,192,249977,1,0,0:0:0:0:
192,192,250149,1,0,0:0:0:0:
64,192,251177,1,0,0:0:0:0:
448,192,251349,1,0,0:0:0:0:
192,192,251520,1,0,0:0:0:0:
320,192,252035,1,0,0:0:0:0:
64,192,252377,1,0,0:0:0:0:
448,192,252549,1,0,0:0:0:0:
320,192,252892,1,0,0:0:0:0:
64,192,254092,1,0,0:0:0:0:
64,192,254606,1,0,0:0:0:0:
320,192,254949,1,0,0:0:0:0:
64,192,255292,1,0,0:0:0:0:
320,192,255463,1,0,0:0:0:0:
192,192,255635,1,0,0:0:0:0:
64,192,256663,1,0,0:0:0:0:
448,192,256835,1,0,0:0:0:0:
192,192,257006,1,0,0:0:0:0:
64,192,257520,1,0,0:0:0:0:
192,192,257863,1,0,0:0:0:0:
448,192,258035,1,0,0:0:0:0:
320,192,258377,1,0,0:0:0:0:
64,192,258720,1,0,0:0:0:0:
448,192,259063,1,0,0:0:0:0:
320,192,259406,1,0,0:0:0:0:
64,192,259749,1,0,0:0:0:0:
192,192,260092,1,0,0:0:0:0:
64,192,260606,1,0,0:0:0:30:snare.wav
320,192,260606,1,0,0:0:0:20:crash.wav
448,192,260692,1,0,0:0:0:0:
192,192,260777,1,0,0:0:0:0:
320,192,260863,1,0,0:0:0:0:
64,192,260949,1,0,0:0:0:30:snare.wav
448,192,260949,1,0,0:0:0:0:
320,192,261035,1,0,0:0:0:0:
192,192,261120,1,0,0:0:0:0:
320,192,261206,1,0,0:0:0:0:
64,192,261292,1,0,0:0:0:30:snare.wav
192,192,261292,1,0,0:0:0:0:
320,192,261377,1,0,0:0:0:0:
448,192,261463,1,0,0:0:0:0:
320,192,261549,1,0,0:0:0:0:
64,192,261635,1,0,0:0:0:30:snare.wav
448,192,261635,1,0,0:0:0:0:
192,192,261720,1,0,0:0:0:0:
320,192,261806,1,0,0:0:0:0:
64,192,261977,1,0,0:0:0:30:snare.wav
448,192,261977,1,0,0:0:0:0:
320,192,262063,1,0,0:0:0:0:
192,192,262149,1,0,0:0:0:0:
448,192,262235,1,0,0:0:0:0:
64,192,262320,1,0,0:0:0:30:snare.wav
320,192,262320,1,0,0:0:0:0:
192,192,262406,1,0,0:0:0:0:
320,192,262492,1,0,0:0:0:0:
448,192,262577,1,0,0:0:0:0:
64,192,262663,1,0,0:0:0:30:snare.wav
192,192,262663,1,0,0:0:0:0:
320,192,262749,1,0,0:0:0:0:
448,192,262835,1,0,0:0:0:0:
192,192,262920,1,0,0:0:0:0:
64,192,263006,1,0,0:0:0:30:snare.wav
320,192,263006,1,0,0:0:0:0:
192,192,263092,1,0,0:0:0:0:
320,192,263177,1,0,0:0:0:0:
192,192,263263,1,0,0:0:0:0:
64,192,263349,1,0,0:0:0:0:
448,192,263349,1,0,0:0:0:30:snare.wav
192,192,263435,1,0,0:0:0:0:
320,192,263520,1,0,0:0:0:0:
448,192,263606,1,0,0:0:0:0:
64,192,263692,1,0,0:0:0:30:snare.wav
320,192,263692,1,0,0:0:0:0:
192,192,263777,1,0,0:0:0:0:
448,192,263863,1,0,0:0:0:0:
320,192,263949,1,0,0:0:0:0:
64,192,264035,1,0,0:0:0:30:snare.wav
192,192,264035,1,0,0:0:0:0:
448,192,264120,1,0,0:0:0:0:
192,192,264206,1,0,0:0:0:0:
320,192,264292,1,0,0:0:0:0:
64,192,264377,1,0,0:0:0:30:snare.wav
448,192,264377,1,0,0:0:0:0:
192,192,264463,1,0,0:0:0:0:
320,192,264549,1,0,0:0:0:0:
192,192,264635,1,0,0:0:0:0:
64,192,264720,1,0,0:0:0:30:snare.wav
320,192,264720,1,0,0:0:0:0:
448,192,264806,1,0,0:0:0:0:
320,192,264892,1,0,0:0:0:0:
192,192,264977,1,0,0:0:0:0:
64,192,265063,1,0,0:0:0:30:snare.wav
320,192,265063,1,0,0:0:0:0:
192,192,265149,1,0,0:0:0:0:
448,192,265235,1,0,0:0:0:0:
192,192,265320,1,0,0:0:0:0:
64,192,265406,1,0,0:0:0:30:snare.wav
320,192,265406,1,0,0:0:0:0:
448,192,265492,1,0,0:0:0:0:
192,192,265577,1,0,0:0:0:0:
320,192,265663,1,0,0:0:0:0:
64,192,265749,1,0,0:0:0:30:snare.wav
448,192,265749,1,0,0:0:0:0:
192,192,265835,1,0,0:0:0:0:
448,192,265920,1,0,0:0:0:0:
320,192,266006,1,0,0:0:0:0:
64,192,266092,1,0,0:0:0:30:snare.wav
192,192,266092,1,0,0:0:0:0:
448,192,266177,1,0,0:0:0:0:
320,192,266263,1,0,0:0:0:0:
192,192,266349,1,0,0:0:0:0:
64,192,266435,1,0,0:0:0:30:snare.wav
320,192,266435,1,0,0:0:0:0:
192,192,266520,1,0,0:0:0:0:
320,192,266606,1,0,0:0:0:0:
448,192,266692,1,0,0:0:0:0:
64,192,266777,1,0,0:0:0:30:snare.wav
192,192,266777,1,0,0:0:0:0:
320,192,266863,1,0,0:0:0:0:
448,192,266949,1,0,0:0:0:0:
192,192,267035,1,0,0:0:0:0:
64,192,267120,1,0,0:0:0:30:snare.wav
320,192,267120,1,0,0:0:0:0:
448,192,267206,1,0,0:0:0:0:
192,192,267292,1,0,0:0:0:0:
320,192,267377,1,0,0:0:0:0:
64,192,267463,1,0,0:0:0:0:
448,192,267463,1,0,0:0:0:30:snare.wav
192,192,267549,1,0,0:0:0:0:
320,192,267635,1,0,0:0:0:0:
192,192,267720,1,0,0:0:0:0:
64,192,267806,1,0,0:0:0:30:snare.wav
320,192,267806,1,0,0:0:0:0:
448,192,267892,1,0,0:0:0:0:
192,192,267977,1,0,0:0:0:0:
320,192,268063,1,0,0:0:0:0:
64,192,268149,1,0,0:0:0:30:snare.wav
448,192,268149,1,0,0:0:0:0:
192,192,268235,1,0,0:0:0:0:
320,192,268320,1,0,0:0:0:0:
192,192,268406,1,0,0:0:0:0:
64,192,268492,1,0,0:0:0:30:snare.wav
320,192,268492,1,0,0:0:0:0:
448,192,268577,1,0,0:0:0:0:
192,192,268663,1,0,0:0:0:0:
320,192,268749,1,0,0:0:0:0:
64,192,268835,1,0,0:0:0:0:
448,192,268835,1,0,0:0:0:30:snare.wav
192,192,268920,1,0,0:0:0:0:
448,192,269006,1,0,0:0:0:0:
320,192,269092,1,0,0:0:0:0:
64,192,269177,1,0,0:0:0:35:snare.wav
448,192,269177,1,0,0:0:0:0:
192,192,269263,1,0,0:0:0:0:
448,192,269349,1,0,0:0:0:0:
320,192,269435,1,0,0:0:0:0:
64,192,269520,1,0,0:0:0:35:snare.wav
192,192,269520,1,0,0:0:0:0:
448,192,269606,1,0,0:0:0:0:
320,192,269692,1,0,0:0:0:0:
192,192,269777,1,0,0:0:0:0:
64,192,269863,1,0,0:0:0:35:snare.wav
320,192,269863,1,0,0:0:0:0:
448,192,269949,1,0,0:0:0:0:
320,192,270035,1,0,0:0:0:0:
192,192,270120,1,0,0:0:0:0:
64,192,270206,1,0,0:0:0:35:snare.wav
320,192,270206,1,0,0:0:0:0:
448,192,270292,1,0,0:0:0:0:
320,192,270377,1,0,0:0:0:0:
448,192,270463,1,0,0:0:0:0:
64,192,270549,1,0,0:0:0:35:snare.wav
320,192,270549,1,0,0:0:0:0:
192,192,270635,1,0,0:0:0:0:
320,192,270720,1,0,0:0:0:0:
192,192,270806,1,0,0:0:0:0:
64,192,270892,1,0,0:0:0:35:snare.wav
320,192,270892,1,0,0:0:0:0:
192,192,270977,1,0,0:0:0:0:
448,192,271063,1,0,0:0:0:0:
320,192,271149,1,0,0:0:0:0:
64,192,271235,1,0,0:0:0:35:snare.wav
192,192,271235,1,0,0:0:0:0:
320,192,271320,1,0,0:0:0:0:
64,192,271577,1,0,0:0:0:40:snare.wav
448,192,271577,1,0,0:0:0:0:
320,192,271663,1,0,0:0:0:0:
192,192,271749,1,0,0:0:0:0:
448,192,271835,1,0,0:0:0:0:
192,192,271920,1,0,0:0:0:40:snare.wav
64,192,271920,1,0,0:0:0:0:
320,192,272006,1,0,0:0:0:0:
192,192,272092,1,0,0:0:0:0:
320,192,272177,1,0,0:0:0:0:
64,192,272263,1,0,0:0:0:40:snare.wav
448,192,272263,1,0,0:0:0:0:
192,192,272349,1,0,0:0:0:0:
448,192,272435,1,0,0:0:0:0:
320,192,272520,1,0,0:0:0:0:
192,192,272606,1,0,0:0:0:40:snare.wav
64,192,272606,1,0,0:0:0:0:
448,192,272692,1,0,0:0:0:0:
192,192,272777,1,0,0:0:0:0:
320,192,272863,1,0,0:0:0:0:
448,192,272949,1,0,0:0:0:40:snare.wav
64,192,272949,1,0,0:0:0:0:
192,192,273035,1,0,0:0:0:0:
448,192,273120,1,0,0:0:0:0:
192,192,273206,1,0,0:0:0:0:
320,192,273292,1,0,0:0:0:40:snare.wav
64,192,273292,1,0,0:0:0:0:
448,192,273377,1,0,0:0:0:0:
192,192,273463,1,0,0:0:0:0:
448,192,273549,1,0,0:0:0:0:
320,192,273635,1,0,0:0:0:40:snare.wav
64,192,273635,1,0,0:0:0:0:
448,192,273720,1,0,0:0:0:0:
192,192,273806,1,0,0:0:0:0:
320,192,273892,1,0,0:0:0:0:
192,192,273977,1,0,0:0:0:40:snare.wav
64,192,273977,1,0,0:0:0:0:
448,192,274063,1,0,0:0:0:0:
320,192,274149,1,0,0:0:0:0:
192,192,274235,1,0,0:0:0:0:
320,192,274320,1,0,0:0:0:40:snare.wav
64,192,274320,1,0,0:0:0:0:
448,192,274406,1,0,0:0:0:0:
192,192,274492,1,0,0:0:0:0:
320,192,274577,1,0,0:0:0:0:
192,192,274663,1,0,0:0:0:40:snare.wav
64,192,274663,1,0,0:0:0:0:
448,192,274749,1,0,0:0:0:0:
320,192,274835,1,0,0:0:0:0:
448,192,274920,1,0,0:0:0:0:
320,192,275006,1,0,0:0:0:40:snare.wav
64,192,275006,1,0,0:0:0:0:
192,192,275092,1,0,0:0:0:0:
320,192,275177,1,0,0:0:0:0:
192,192,275263,1,0,0:0:0:0:
64,192,275349,1,0,0:0:0:40:snare.wav
320,192,275349,1,0,0:0:0:0:
448,192,275435,1,0,0:0:0:0:
192,192,275520,1,0,0:0:0:0:
448,192,275606,1,0,0:0:0:0:
320,192,275692,1,0,0:0:0:40:snare.wav
64,192,275692,1,0,0:0:0:0:
192,192,275777,1,0,0:0:0:0:
320,192,275863,1,0,0:0:0:0:
448,192,275949,1,0,0:0:0:0:
320,192,276035,1,0,0:0:0:40:snare.wav
64,192,276035,1,0,0:0:0:0:
192,192,276120,1,0,0:0:0:0:
448,192,276206,1,0,0:0:0:0:
320,192,276292,1,0,0:0:0:0:
192,192,276377,1,0,0:0:0:40:snare.wav
64,192,276377,1,0,0:0:0:0:
448,192,276463,1,0,0:0:0:0:
192,192,276549,1,0,0:0:0:0:
320,192,276635,1,0,0:0:0:0:
192,192,276720,1,0,0:0:0:40:snare.wav
64,192,276720,1,0,0:0:0:0:
320,192,276806,1,0,0:0:0:0:
448,192,276892,1,0,0:0:0:0:
192,192,276977,1,0,0:0:0:0:
320,192,277063,1,0,0:0:0:40:snare.wav
64,192,277063,1,0,0:0:0:0:
192,192,277149,1,0,0:0:0:0:
64,192,277235,1,0,0:0:0:40:snare.wav
448,192,277235,1,0,0:0:0:0:
320,192,277320,1,0,0:0:0:0:
448,192,277406,1,0,0:0:0:40:snare.wav
192,192,277406,1,0,0:0:0:0:
64,192,277492,1,0,0:0:0:0:
448,192,277577,1,0,0:0:0:40:snare.wav
320,192,277577,1,0,0:0:0:0:
192,192,277663,1,0,0:0:0:0:
448,192,277749,1,0,0:0:0:40:snare.wav
64,192,277749,1,0,0:0:0:0:
192,192,277835,1,0,0:0:0:0:
320,192,277920,1,0,0:0:0:40:snare.wav
448,192,277920,1,0,0:0:0:0:
64,192,278006,1,0,0:0:0:0:
448,192,278092,1,0,0:0:0:40:snare.wav
192,192,278092,1,0,0:0:0:0:
320,192,278177,1,0,0:0:0:0:
448,192,278263,1,0,0:0:0:40:snare.wav
64,192,278263,1,0,0:0:0:0:
192,192,278349,1,0,0:0:0:0:
448,192,278435,1,0,0:0:0:40:snare.wav
64,192,278435,1,0,0:0:0:0:
320,192,278520,1,0,0:0:0:0:
192,192,278606,1,0,0:0:0:40:snare.wav
64,192,278606,1,0,0:0:0:0:
448,192,278692,1,0,0:0:0:0:
64,192,278777,1,0,0:0:0:40:snare.wav
320,192,278777,1,0,0:0:0:0:
192,192,278863,1,0,0:0:0:0:
64,192,278949,1,0,0:0:0:40:snare.wav
320,192,278949,1,0,0:0:0:0:
192,192,279035,1,0,0:0:0:0:
64,192,279120,1,0,0:0:0:40:snare.wav
448,192,279120,1,0,0:0:0:0:
192,192,279206,1,0,0:0:0:0:
320,192,279292,1,0,0:0:0:40:snare.wav
64,192,279292,1,0,0:0:0:0:
192,192,279377,1,0,0:0:0:0:
64,192,279463,1,0,0:0:0:40:snare.wav
448,192,279463,1,0,0:0:0:0:
320,192,279549,1,0,0:0:0:0:
64,192,279635,1,0,0:0:0:40:snare.wav
192,192,279635,1,0,0:0:0:0:
448,192,279720,1,0,0:0:0:0:
64,192,279806,1,0,0:0:0:40:snare.wav
320,192,279806,1,0,0:0:0:0:
192,192,279892,1,0,0:0:0:40:snare.wav
448,192,279892,1,0,0:0:0:0:
320,192,279977,1,0,0:0:0:40:snare.wav
64,192,279977,1,0,0:0:0:0:
448,192,280063,1,0,0:0:0:40:snare.wav
320,192,280063,1,0,0:0:0:0:
64,192,280149,1,0,0:0:0:40:snare.wav
192,192,280149,1,0,0:0:0:0:
320,192,280235,1,0,0:0:0:40:snare.wav
448,192,280235,1,0,0:0:0:0:
448,192,280320,1,0,0:0:0:40:snare.wav
64,192,280320,1,0,0:0:0:0:
320,192,280406,1,0,0:0:0:40:snare.wav
192,192,280406,1,0,0:0:0:0:
64,192,280492,1,0,0:0:0:40:snare.wav
448,192,280492,1,0,0:0:0:0:
192,192,280577,1,0,0:0:0:40:snare.wav
448,192,280577,1,0,0:0:0:0:
320,192,280663,1,0,0:0:0:40:snare.wav
64,192,280663,1,0,0:0:0:0:
192,192,280749,1,0,0:0:0:40:snare.wav
448,192,280749,1,0,0:0:0:0:
192,192,280835,1,0,0:0:0:40:snare.wav
64,192,280835,1,0,0:0:0:0:
448,192,280920,1,0,0:0:0:40:snare.wav
320,192,280920,1,0,0:0:0:0:
64,192,281006,1,0,0:0:0:40:snare.wav
192,192,281006,1,0,0:0:0:0:
320,192,281092,1,0,0:0:0:40:snare.wav
192,192,281092,1,0,0:0:0:0:
64,192,281177,1,0,0:0:0:40:snare.wav
448,192,281177,128,0,281520:0:0:0:0:
192,192,281349,1,0,0:0:0:0:
64,192,281435,1,0,0:0:0:0:
320,192,281520,1,0,0:0:0:0:
192,192,281606,1,0,0:0:0:0:
64,192,281692,1,0,0:0:0:0:
448,192,281692,128,0,282549:0:0:0:0:
320,192,281777,1,0,0:0:0:0:
64,192,281863,1,0,0:0:0:0:
192,192,281949,1,0,0:0:0:0:
320,192,282035,1,0,0:0:0:0:
192,192,282077,1,0,0:0:0:0:
64,192,282120,1,0,0:0:0:0:
192,192,282206,1,0,0:0:0:0:
320,192,282377,1,0,0:0:0:0:
64,192,282463,1,0,0:0:0:0:
320,192,282549,1,0,0:0:0:30:crash.wav
192,192,282549,1,0,0:0:0:50:kick.wav
64,192,282635,1,0,0:0:0:0:
320,192,282720,1,0,0:0:0:0:
448,192,282892,1,0,0:0:0:50:kick.wav
64,192,282892,1,0,0:0:0:0:
320,192,282977,1,0,0:0:0:0:
192,192,283063,1,0,0:0:0:0:
192,192,283235,1,0,0:0:0:50:kick.wav
320,192,283235,1,0,0:0:0:0:
448,192,283320,1,0,0:0:0:0:
192,192,283406,1,0,0:0:0:0:
448,192,283492,1,0,0:0:0:0:
64,192,283577,1,0,0:0:0:50:kick.wav
320,192,283577,1,0,0:0:0:0:
192,192,283663,1,0,0:0:0:0:
448,192,283749,1,0,0:0:0:0:
320,192,283835,1,0,0:0:0:0:
192,192,283920,1,0,0:0:0:50:kick.wav
64,192,283920,1,0,0:0:0:0:
448,192,284006,1,0,0:0:0:0:
320,192,284092,1,0,0:0:0:0:
64,192,284263,1,0,0:0:0:50:kick.wav
448,192,284263,1,0,0:0:0:0:
320,192,284349,1,0,0:0:0:0:
192,192,284435,1,0,0:0:0:0:
192,192,284606,1,0,0:0:0:50:kick.wav
448,192,284606,1,0,0:0:0:0:
320,192,284692,1,0,0:0:0:0:
64,192,284863,1,0,0:0:0:0:
192,192,284949,1,0,0:0:0:50:kick.wav
320,192,284949,1,0,0:0:0:0:
64,192,285120,1,0,0:0:0:0:
192,192,285206,1,0,0:0:0:0:
320,192,285292,1,0,0:0:0:50:kick.wav
448,192,285292,1,0,0:0:0:0:
192,192,285377,1,0,0:0:0:0:
448,192,285463,1,0,0:0:0:0:
320,192,285635,1,0,0:0:0:50:kick.wav
64,192,285635,1,0,0:0:0:0:
192,192,285720,1,0,0:0:0:0:
448,192,285806,1,0,0:0:0:0:
320,192,285892,1,0,0:0:0:0:
192,192,285977,1,0,0:0:0:50:kick.wav
64,192,285977,1,0,0:0:0:0:
192,192,286149,1,0,0:0:0:0:
448,192,286235,1,0,0:0:0:0:
64,192,286320,1,0,0:0:0:50:kick.wav
320,192,286320,1,0,0:0:0:0:
192,192,286492,1,0,0:0:0:0:
64,192,286577,1,0,0:0:0:0:
192,192,286663,1,0,0:0:0:50:kick.wav
448,192,286663,1,0,0:0:0:0:
64,192,286749,1,0,0:0:0:0:
320,192,286835,1,0,0:0:0:0:
64,192,287006,1,0,0:0:0:50:kick.wav
320,192,287006,1,0,0:0:0:0:
448,192,287092,1,0,0:0:0:0:
192,192,287177,1,0,0:0:0:0:
320,192,287263,1,0,0:0:0:0:
192,192,287349,1,0,0:0:0:50:kick.wav
448,192,287349,1,0,0:0:0:0:
320,192,287435,1,0,0:0:0:0:
448,192,287520,1,0,0:0:0:0:
320,192,287606,1,0,0:0:0:0:
64,192,287692,1,0,0:0:0:50:kick.wav
192,192,287692,1,0,0:0:0:0:
192,192,287863,1,0,0:0:0:0:
320,192,287949,1,0,0:0:0:0:
448,192,288035,1,0,0:0:0:50:kick.wav
192,192,288035,1,0,0:0:0:0:
64,192,288120,1,0,0:0:0:0:
192,192,288206,1,0,0:0:0:0:
320,192,288292,1,0,0:0:0:0:
192,192,288377,1,0,0:0:0:50:kick.wav
64,192,288377,1,0,0:0:0:0:
320,192,288463,1,0,0:0:0:0:
192,192,288549,1,0,0:0:0:0:
64,192,288635,1,0,0:0:0:0:
448,192,288720,1,0,0:0:0:50:kick.wav
320,192,288720,1,0,0:0:0:0:
192,192,288806,1,0,0:0:0:0:
448,192,288892,1,0,0:0:0:0:
64,192,288977,1,0,0:0:0:0:
320,192,289063,1,0,0:0:0:50:kick.wav
192,192,289063,1,0,0:0:0:0:
448,192,289149,1,0,0:0:0:0:
192,192,289235,1,0,0:0:0:0:
320,192,289320,1,0,0:0:0:0:
64,192,289406,1,0,0:0:0:50:kick.wav
192,192,289406,1,0,0:0:0:0:
448,192,289492,1,0,0:0:0:0:
320,192,289577,1,0,0:0:0:0:
448,192,289749,1,0,0:0:0:50:kick.wav
192,192,289749,1,0,0:0:0:0:
64,192,289835,1,0,0:0:0:0:
320,192,289920,1,0,0:0:0:0:
192,192,290006,1,0,0:0:0:0:
448,192,290092,1,0,0:0:0:50:kick.wav
64,192,290092,1,0,0:0:0:0:
320,192,290177,1,0,0:0:0:0:
64,192,290263,1,0,0:0:0:0:
192,192,290349,1,0,0:0:0:0:
448,192,290435,1,0,0:0:0:50:kick.wav
320,192,290435,1,0,0:0:0:0:
192,192,290606,1,0,0:0:0:0:
320,192,290692,1,0,0:0:0:0:
64,192,290777,1,0,0:0:0:50:kick.wav
192,192,290777,1,0,0:0:0:0:
448,192,290863,1,0,0:0:0:0:
192,192,290949,1,0,0:0:0:0:
320,192,291120,1,0,0:0:0:50:kick.wav
64,192,291120,1,0,0:0:0:0:
448,192,291206,1,0,0:0:0:0:
192,192,291292,1,0,0:0:0:0:
320,192,291377,1,0,0:0:0:0:
448,192,291463,1,0,0:0:0:50:kick.wav
192,192,291463,1,0,0:0:0:0:
64,192,291549,1,0,0:0:0:0:
320,192,291635,1,0,0:0:0:0:
192,192,291720,1,0,0:0:0:0:
320,192,291806,1,0,0:0:0:50:kick.wav
64,192,291806,1,0,0:0:0:0:
192,192,291892,1,0,0:0:0:0:
448,192,291977,1,0,0:0:0:0:
320,192,292063,1,0,0:0:0:0:
192,192,292149,1,0,0:0:0:50:kick.wav
64,192,292149,1,0,0:0:0:0:
448,192,292235,1,0,0:0:0:0:
192,192,292320,1,0,0:0:0:0:
64,192,292406,1,0,0:0:0:0:
192,192,292492,1,0,0:0:0:50:kick.wav
448,192,292492,1,0,0:0:0:0:
320,192,292577,1,0,0:0:0:0:
64,192,292663,1,0,0:0:0:0:
192,192,292749,1,0,0:0:0:0:
448,192,292835,1,0,0:0:0:50:kick.wav
320,192,292835,1,0,0:0:0:0:
64,192,292920,1,0,0:0:0:0:
320,192,293006,1,0,0:0:0:0:
192,192,293092,1,0,0:0:0:0:
64,192,293177,1,0,0:0:0:50:kick.wav
320,192,293177,1,0,0:0:0:0:
64,192,293349,1,0,0:0:0:50:kick.wav
448,192,293349,1,0,0:0:0:0:
64,192,293435,1,0,0:0:0:50:kick.wav
448,192,293435,1,0,0:0:0:0:
192,192,293520,5,0,0:0:0:50:kick.wav
320,192,293520,1,0,0:0:0:0:
192,192,293692,1,0,0:0:0:0:
320,192,293777,1,0,0:0:0:0:
192,192,293863,1,0,0:0:0:50:kick.wav
64,192,293863,1,0,0:0:0:0:
448,192,293949,1,0,0:0:0:0:
320,192,294035,1,0,0:0:0:0:
192,192,294120,1,0,0:0:0:0:
320,192,294206,1,0,0:0:0:50:kick.wav
64,192,294206,1,0,0:0:0:0:
192,192,294292,1,0,0:0:0:0:
448,192,294377,1,0,0:0:0:0:
320,192,294463,1,0,0:0:0:0:
64,192,294549,1,0,0:0:0:50:kick.wav
448,192,294549,1,0,0:0:0:0:
320,192,294635,1,0,0:0:0:0:
448,192,294720,1,0,0:0:0:0:
192,192,294806,1,0,0:0:0:0:
64,192,294892,1,0,0:0:0:50:kick.wav
320,192,294892,1,0,0:0:0:0:
448,192,294977,1,0,0:0:0:0:
192,192,295063,1,0,0:0:0:0:
64,192,295235,1,0,0:0:0:50:kick.wav
320,192,295235,1,0,0:0:0:0:
192,192,295320,1,0,0:0:0:0:
448,192,295406,1,0,0:0:0:0:
320,192,295492,1,0,0:0:0:0:
64,192,295577,1,0,0:0:0:50:kick.wav
192,192,295577,1,0,0:0:0:0:
448,192,295663,1,0,0:0:0:0:
192,192,295749,1,0,0:0:0:0:
320,192,295835,1,0,0:0:0:0:
64,192,295920,1,0,0:0:0:50:kick.wav
192,192,295920,1,0,0:0:0:0:
448,192,296092,1,0,0:0:0:0:
192,192,296177,1,0,0:0:0:0:
64,192,296263,1,0,0:0:0:50:kick.wav
320,192,296263,1,0,0:0:0:0:
192,192,296349,1,0,0:0:0:0:
320,192,296435,1,0,0:0:0:0:
448,192,296520,1,0,0:0:0:0:
64,192,296606,1,0,0:0:0:50:kick.wav
320,192,296606,1,0,0:0:0:0:
192,192,296692,1,0,0:0:0:0:
448,192,296777,1,0,0:0:0:0:
320,192,296863,1,0,0:0:0:0:
192,192,296949,1,0,0:0:0:50:kick.wav
64,192,296949,1,0,0:0:0:0:
320,192,297035,1,0,0:0:0:0:
192,192,297120,1,0,0:0:0:0:
448,192,297206,1,0,0:0:0:0:
320,192,297292,1,0,0:0:0:50:kick.wav
64,192,297292,1,0,0:0:0:0:
448,192,297377,1,0,0:0:0:0:
192,192,297463,1,0,0:0:0:0:
320,192,297549,1,0,0:0:0:0:
448,192,297635,1,0,0:0:0:50:kick.wav
64,192,297635,1,0,0:0:0:0:
320,192,297720,1,0,0:0:0:0:
192,192,297806,1,0,0:0:0:0:
448,192,297892,1,0,0:0:0:0:
64,192,297977,1,0,0:0:0:50:kick.wav
320,192,297977,1,0,0:0:0:0:
192,192,298063,1,0,0:0:0:0:
448,192,298149,1,0,0:0:0:0:
320,192,298235,1,0,0:0:0:0:
64,192,298320,1,0,0:0:0:50:kick.wav
192,192,298320,1,0,0:0:0:0:
320,192,298406,1,0,0:0:0:0:
448,192,298492,1,0,0:0:0:0:
192,192,298577,1,0,0:0:0:0:
448,192,298663,1,0,0:0:0:50:kick.wav
64,192,298663,1,0,0:0:0:0:
192,192,298749,1,0,0:0:0:0:
448,192,298835,1,0,0:0:0:0:
320,192,298920,1,0,0:0:0:0:
448,192,299006,5,0,0:0:0:50:kick.wav
64,192,299006,1,0,0:0:0:0:
192,192,299006,1,0,0:0:0:0:
320,192,299177,1,0,0:0:0:50:kick.wav
64,192,299177,1,0,0:0:0:0:
192,192,299177,1,0,0:0:0:0:
448,192,299349,1,0,0:0:0:50:kick.wav
320,192,299349,1,0,0:0:0:0:
64,192,299349,1,0,0:0:0:0:
320,192,299520,1,0,0:0:0:50:kick.wav
448,192,299520,1,0,0:0:0:0:
192,192,299520,1,0,0:0:0:0:
192,192,299692,1,0,0:0:0:50:kick.wav
320,192,299692,1,0,0:0:0:0:
64,192,299692,1,0,0:0:0:0:
64,192,299863,1,0,0:0:0:50:kick.wav
192,192,299863,1,0,0:0:0:0:
448,192,299863,1,0,0:0:0:0:
448,192,300035,1,0,0:0:0:50:kick.wav
64,192,300035,1,0,0:0:0:0:
320,192,300035,1,0,0:0:0:0:
192,192,300206,1,0,0:0:0:50:kick.wav
320,192,300206,1,0,0:0:0:0:
64,192,300206,1,0,0:0:0:0:
192,192,300377,1,0,0:0:0:50:kick.wav
448,192,300377,1,0,0:0:0:0:
320,192,300377,1,0,0:0:0:0:
192,192,300549,1,0,0:0:0:50:kick.wav
320,192,300549,1,0,0:0:0:0:
64,192,300549,1,0,0:0:0:0:
64,192,300720,1,0,0:0:0:50:kick.wav
448,192,300720,1,0,0:0:0:0:
192,192,300720,1,0,0:0:0:0:
448,192,300892,1,0,0:0:0:50:kick.wav
320,192,300892,1,0,0:0:0:0:
64,192,300892,1,0,0:0:0:0:
320,192,301063,1,0,0:0:0:50:kick.wav
448,192,301063,1,0,0:0:0:0:
192,192,301063,1,0,0:0:0:0:
64,192,301235,1,0,0:0:0:50:kick.wav
192,192,301235,1,0,0:0:0:0:
448,192,301235,1,0,0:0:0:0:
320,192,301406,1,0,0:0:0:50:kick.wav
192,192,301406,1,0,0:0:0:0:
448,192,301406,1,0,0:0:0:0:
448,192,301577,1,0,0:0:0:50:kick.wav
320,192,301577,1,0,0:0:0:0:
64,192,301577,1,0,0:0:0:0:
64,192,301749,1,0,0:0:0:50:kick.wav
192,192,301749,1,0,0:0:0:0:
448,192,301835,1,0,0:0:0:50:kick.wav
320,192,301835,1,0,0:0:0:0:
192,192,301920,1,0,0:0:0:50:kick.wav
64,192,301920,1,0,0:0:0:0:
320,192,302006,1,0,0:0:0:50:kick.wav
448,192,302006,1,0,0:0:0:0:
320,192,302092,1,0,0:0:0:50:kick.wav
64,192,302092,1,0,0:0:0:0:
448,192,302177,1,0,0:0:0:50:kick.wav
192,192,302177,1,0,0:0:0:0:
64,192,302263,1,0,0:0:0:50:kick.wav
320,192,302263,1,0,0:0:0:0:
192,192,302349,1,0,0:0:0:50:kick.wav
448,192,302349,1,0,0:0:0:0:
448,192,302435,1,0,0:0:0:50:kick.wav
64,192,302435,1,0,0:0:0:0:
192,192,302520,1,0,0:0:0:50:kick.wav
320,192,302520,1,0,0:0:0:0:
448,192,302606,1,0,0:0:0:50:kick.wav
64,192,302606,1,0,0:0:0:0:
320,192,302692,1,0,0:0:0:50:kick.wav
192,192,302692,1,0,0:0:0:0:
448,192,302777,1,0,0:0:0:50:kick.wav
192,192,302777,1,0,0:0:0:0:
64,192,302863,1,0,0:0:0:50:kick.wav
320,192,302863,1,0,0:0:0:0:
448,192,302949,1,0,0:0:0:50:kick.wav
192,192,302949,1,0,0:0:0:0:
320,192,303035,1,0,0:0:0:50:kick.wav
64,192,303035,1,0,0:0:0:0:
448,192,303120,1,0,0:0:0:50:kick.wav
320,192,303163,1,0,0:0:0:0:
192,192,303206,1,0,0:0:0:0:
64,192,303249,1,0,0:0:0:0:
448,192,303292,1,0,0:0:0:0:
320,192,303335,1,0,0:0:0:0:
192,192,303377,1,0,0:0:0:0:
64,192,303420,1,0,0:0:0:0:
448,192,303463,1,0,0:0:0:0:
320,192,303506,1,0,0:0:0:0:
192,192,303549,1,0,0:0:0:0:
64,192,303592,1,0,0:0:0:0:
448,192,303635,1,0,0:0:0:0:
320,192,303677,1,0,0:0:0:0:
192,192,303720,1,0,0:0:0:0:
64,192,303763,1,0,0:0:0:0:
448,192,303806,1,0,0:0:0:0:
320,192,303849,1,0,0:0:0:0:
192,192,303892,1,0,0:0:0:0:
64,192,303935,1,0,0:0:0:0:
448,192,303977,1,0,0:0:0:0:
320,192,304020,1,0,0:0:0:0:
192,192,304063,1,0,0:0:0:0:
64,192,304106,1,0,0:0:0:0:
448,192,304149,1,0,0:0:0:0:
320,192,304192,1,0,0:0:0:0:
192,192,304235,1,0,0:0:0:0:
64,192,304277,1,0,0:0:0:0:
448,192,304320,1,0,0:0:0:0:
320,192,304363,1,0,0:0:0:0:
192,192,304406,1,0,0:0:0:0:
64,192,304449,1,0,0:0:0:0:
320,192,304492,1,0,0:0:0:30:crash.wav
448,192,304492,1,0,0:0:0:50:kick.wav
64,192,304577,1,0,0:0:0:0:
320,192,304663,1,0,0:0:0:0:
448,192,304835,1,0,0:0:0:50:kick.wav
64,192,304835,1,0,0:0:0:0:
320,192,304920,1,0,0:0:0:0:
192,192,305006,1,0,0:0:0:0:
320,192,305177,1,0,0:0:0:50:kick.wav
192,192,305177,1,0,0:0:0:0:
448,192,305263,1,0,0:0:0:0:
192,192,305349,1,0,0:0:0:0:
448,192,305435,1,0,0:0:0:0:
320,192,305520,1,0,0:0:0:50:kick.wav
64,192,305520,1,0,0:0:0:0:
192,192,305606,1,0,0:0:0:0:
448,192,305692,1,0,0:0:0:0:
320,192,305777,1,0,0:0:0:0:
64,192,305863,1,0,0:0:0:50:kick.wav
192,192,305863,1,0,0:0:0:0:
448,192,305949,1,0,0:0:0:0:
320,192,306035,1,0,0:0:0:0:
64,192,306206,1,0,0:0:0:50:kick.wav
448,192,306206,1,0,0:0:0:0:
320,192,306292,1,0,0:0:0:0:
192,192,306377,1,0,0:0:0:0:
448,192,306549,1,0,0:0:0:50:kick.wav
192,192,306549,1,0,0:0:0:0:
320,192,306635,1,0,0:0:0:0:
192,192,306720,1,0,0:0:0:0:
64,192,306806,1,0,0:0:0:0:
192,192,306892,1,0,0:0:0:50:kick.wav
320,192,306892,1,0,0:0:0:0:
64,192,307063,1,0,0:0:0:0:
192,192,307149,1,0,0:0:0:0:
320,192,307235,1,0,0:0:0:50:kick.wav
448,192,307235,1,0,0:0:0:0:
192,192,307320,1,0,0:0:0:0:
448,192,307406,1,0,0:0:0:0:
320,192,307577,1,0,0:0:0:50:kick.wav
64,192,307577,1,0,0:0:0:0:
192,192,307663,1,0,0:0:0:0:
448,192,307749,1,0,0:0:0:0:
320,192,307835,1,0,0:0:0:0:
192,192,307920,1,0,0:0:0:50:kick.wav
64,192,307920,1,0,0:0:0:0:
192,192,308092,1,0,0:0:0:0:
448,192,308177,1,0,0:0:0:0:
64,192,308263,1,0,0:0:0:50:kick.wav
320,192,308263,1,0,0:0:0:0:
192,192,308435,1,0,0:0:0:0:
64,192,308520,1,0,0:0:0:0:
448,192,308606,1,0,0:0:0:50:kick.wav
192,192,308606,1,0,0:0:0:0:
64,192,308692,1,0,0:0:0:0:
320,192,308777,1,0,0:0:0:0:
320,192,308949,1,0,0:0:0:50:kick.wav
64,192,308949,1,0,0:0:0:0:
448,192,309035,1,0,0:0:0:0:
192,192,309120,1,0,0:0:0:0:
320,192,309206,1,0,0:0:0:0:
192,192,309292,1,0,0:0:0:50:kick.wav
448,192,309292,1,0,0:0:0:0:
320,192,309377,1,0,0:0:0:0:
448,192,309463,1,0,0:0:0:0:
320,192,309549,1,0,0:0:0:0:
192,192,309635,1,0,0:0:0:50:kick.wav
64,192,309635,1,0,0:0:0:0:
192,192,309806,1,0,0:0:0:0:
320,192,309892,1,0,0:0:0:0:
448,192,309977,1,0,0:0:0:50:kick.wav
192,192,309977,1,0,0:0:0:0:
64,192,310063,1,0,0:0:0:0:
192,192,310149,1,0,0:0:0:0:
320,192,310235,1,0,0:0:0:0:
64,192,310320,1,0,0:0:0:50:kick.wav
192,192,310320,1,0,0:0:0:0:
320,192,310406,1,0,0:0:0:0:
192,192,310492,1,0,0:0:0:0:
64,192,310577,1,0,0:0:0:0:
448,192,310663,1,0,0:0:0:50:kick.wav
320,192,310663,1,0,0:0:0:0:
192,192,310749,1,0,0:0:0:0:
448,192,310835,1,0,0:0:0:0:
64,192,310920,1,0,0:0:0:0:
320,192,311006,1,0,0:0:0:50:kick.wav
192,192,311006,1,0,0:0:0:0:
448,192,311092,1,0,0:0:0:0:
192,192,311177,1,0,0:0:0:0:
320,192,311263,1,0,0:0:0:0:
64,192,311349,1,0,0:0:0:50:kick.wav
192,192,311349,1,0,0:0:0:0:
448,192,311435,1,0,0:0:0:0:
320,192,311520,1,0,0:0:0:0:
192,192,311692,1,0,0:0:0:50:kick.wav
448,192,311692,1,0,0:0:0:0:
64,192,311777,1,0,0:0:0:0:
320,192,311863,1,0,0:0:0:0:
192,192,311949,1,0,0:0:0:0:
64,192,312035,1,0,0:0:0:50:kick.wav
448,192,312035,1,0,0:0:0:0:
320,192,312120,1,0,0:0:0:0:
64,192,312206,1,0,0:0:0:0:
192,192,312292,1,0,0:0:0:0:
320,192,312377,1,0,0:0:0:50:kick.wav
448,192,312377,1,0,0:0:0:0:
192,192,312549,1,0,0:0:0:0:
320,192,312635,1,0,0:0:0:0:
64,192,312720,1,0,0:0:0:50:kick.wav
192,192,312720,1,0,0:0:0:0:
448,192,312806,1,0,0:0:0:0:
192,192,312892,1,0,0:0:0:0:
320,192,313063,1,0,0:0:0:50:kick.wav
64,192,313063,1,0,0:0:0:0:
448,192,313149,1,0,0:0:0:0:
192,192,313235,1,0,0:0:0:0:
320,192,313320,1,0,0:0:0:0:
192,192,313406,1,0,0:0:0:50:kick.wav
448,192,313406,1,0,0:0:0:0:
64,192,313492,1,0,0:0:0:0:
320,192,313577,1,0,0:0:0:0:
192,192,313663,1,0,0:0:0:0:
320,192,313749,1,0,0:0:0:50:kick.wav
64,192,313749,1,0,0:0:0:0:
192,192,313835,1,0,0:0:0:0:
448,192,313920,1,0,0:0:0:0:
320,192,314006,1,0,0:0:0:0:
192,192,314092,1,0,0:0:0:50:kick.wav
64,192,314092,1,0,0:0:0:0:
448,192,314177,1,0,0:0:0:0:
192,192,314263,1,0,0:0:0:0:
64,192,314349,1,0,0:0:0:0:
448,192,314435,1,0,0:0:0:50:kick.wav
192,192,314435,1,0,0:0:0:0:
320,192,314520,1,0,0:0:0:0:
64,192,314606,1,0,0:0:0:0:
192,192,314692,1,0,0:0:0:0:
448,192,314777,1,0,0:0:0:50:kick.wav
320,192,314777,1,0,0:0:0:0:
64,192,314863,1,0,0:0:0:0:
320,192,314949,1,0,0:0:0:0:
192,192,315035,1,0,0:0:0:0:
320,192,315120,1,0,0:0:0:50:kick.wav
64,192,315120,1,0,0:0:0:0:
192,192,315292,1,0,0:0:0:50:kick.wav
448,192,315292,1,0,0:0:0:0:
448,192,315377,1,0,0:0:0:50:kick.wav
192,192,315377,1,0,0:0:0:0:
64,192,315463,5,0,0:0:0:50:kick.wav
320,192,315463,1,0,0:0:0:0:
192,192,315635,1,0,0:0:0:0:
320,192,315720,1,0,0:0:0:0:
64,192,315806,1,0,0:0:0:50:kick.wav
192,192,315806,1,0,0:0:0:0:
448,192,315892,1,0,0:0:0:0:
320,192,315977,1,0,0:0:0:0:
192,192,316063,1,0,0:0:0:0:
64,192,316149,1,0,0:0:0:50:kick.wav
320,192,316149,1,0,0:0:0:0:
192,192,316235,1,0,0:0:0:0:
448,192,316320,1,0,0:0:0:0:
320,192,316406,1,0,0:0:0:0:
64,192,316492,1,0,0:0:0:50:kick.wav
448,192,316492,1,0,0:0:0:0:
320,192,316577,1,0,0:0:0:0:
448,192,316663,1,0,0:0:0:0:
192,192,316749,1,0,0:0:0:0:
64,192,316835,1,0,0:0:0:50:kick.wav
320,192,316835,1,0,0:0:0:0:
448,192,316920,1,0,0:0:0:0:
192,192,317006,1,0,0:0:0:0:
64,192,317177,1,0,0:0:0:50:kick.wav
320,192,317177,1,0,0:0:0:0:
192,192,317263,1,0,0:0:0:0:
448,192,317349,1,0,0:0:0:0:
320,192,317435,1,0,0:0:0:0:
64,192,317520,1,0,0:0:0:50:kick.wav
192,192,317520,1,0,0:0:0:0:
448,192,317606,1,0,0:0:0:0:
192,192,317692,1,0,0:0:0:0:
320,192,317777,1,0,0:0:0:0:
64,192,317863,1,0,0:0:0:50:kick.wav
192,192,317863,1,0,0:0:0:0:
448,192,318035,1,0,0:0:0:0:
192,192,318120,1,0,0:0:0:0:
64,192,318206,1,0,0:0:0:50:kick.wav
320,192,318206,1,0,0:0:0:0:
192,192,318292,1,0,0:0:0:0:
320,192,318377,1,0,0:0:0:0:
448,192,318463,1,0,0:0:0:0:
64,192,318549,1,0,0:0:0:50:kick.wav
320,192,318549,1,0,0:0:0:0:
192,192,318635,1,0,0:0:0:0:
448,192,318720,1,0,0:0:0:0:
320,192,318806,1,0,0:0:0:0:
64,192,318892,1,0,0:0:0:50:kick.wav
192,192,318892,1,0,0:0:0:0:
320,192,318977,1,0,0:0:0:0:
192,192,319063,1,0,0:0:0:0:
448,192,319149,1,0,0:0:0:0:
64,192,319235,1,0,0:0:0:50:kick.wav
320,192,319235,1,0,0:0:0:0:
448,192,319320,1,0,0:0:0:0:
192,192,319406,1,0,0:0:0:0:
320,192,319492,1,0,0:0:0:0:
448,192,319577,1,0,0:0:0:50:kick.wav
64,192,319577,1,0,0:0:0:0:
320,192,319663,1,0,0:0:0:0:
192,192,319749,1,0,0:0:0:0:
448,192,319835,5,0,0:0:0:0:
64,192,319920,1,0,0:0:0:50:kick.wav
320,192,319920,1,0,0:0:0:0:kick.wav
192,192,320006,1,0,0:0:0:0:
448,192,320092,1,0,0:0:0:0:
320,192,320177,1,0,0:0:0:0:
64,192,320263,1,0,0:0:0:50:kick.wav
192,192,320263,1,0,0:0:0:0:
320,192,320349,1,0,0:0:0:0:
448,192,320435,1,0,0:0:0:0:
192,192,320520,1,0,0:0:0:0:
64,192,320606,1,0,0:0:0:50:kick.wav
448,192,320606,1,0,0:0:0:0:
192,192,320692,1,0,0:0:0:0:
448,192,320777,1,0,0:0:0:0:
320,192,320863,1,0,0:0:0:0:
448,192,320949,5,0,0:0:0:50:kick.wav
192,192,320949,1,0,0:0:0:0:
64,192,320949,1,0,0:0:0:0:
192,192,321120,1,0,0:0:0:50:kick.wav
448,192,321120,1,0,0:0:0:0:
320,192,321120,1,0,0:0:0:0:
64,192,321292,1,0,0:0:0:50:kick.wav
448,192,321292,1,0,0:0:0:0:
320,192,321292,1,0,0:0:0:0:
320,192,321463,1,0,0:0:0:50:kick.wav
192,192,321463,1,0,0:0:0:0:
64,192,321463,1,0,0:0:0:0:
320,192,321635,1,0,0:0:0:50:kick.wav
192,192,321635,1,0,0:0:0:0:
448,192,321635,1,0,0:0:0:0:
448,192,321806,1,0,0:0:0:50:kick.wav
64,192,321806,1,0,0:0:0:0:
192,192,321806,1,0,0:0:0:0:
448,192,321977,1,0,0:0:0:50:kick.wav
64,192,321977,1,0,0:0:0:0:
320,192,321977,1,0,0:0:0:0:
320,192,322149,1,0,0:0:0:50:kick.wav
64,192,322149,1,0,0:0:0:0:
192,192,322149,1,0,0:0:0:0:
448,192,322320,1,0,0:0:0:50:kick.wav
192,192,322320,1,0,0:0:0:0:
320,192,322320,1,0,0:0:0:0:
192,192,322492,1,0,0:0:0:50:kick.wav
320,192,322492,1,0,0:0:0:0:
64,192,322492,1,0,0:0:0:0:
448,192,322663,5,0,0:0:0:50:kick.wav
64,192,322663,1,0,0:0:0:0:
192,192,322663,1,0,0:0:0:0:
320,192,322835,1,0,0:0:0:50:kick.wav
192,192,322835,1,0,0:0:0:0:
448,192,322835,1,0,0:0:0:0:
320,192,323006,1,0,0:0:0:50:kick.wav
192,192,323006,1,0,0:0:0:0:
64,192,323006,1,0,0:0:0:0:
448,192,323177,1,0,0:0:0:50:kick.wav
64,192,323177,1,0,0:0:0:0:
192,192,323177,1,0,0:0:0:0:
320,192,323349,1,0,0:0:0:50:kick.wav
448,192,323349,1,0,0:0:0:0:
192,192,323349,1,0,0:0:0:0:
320,192,323520,1,0,0:0:0:50:kick.wav
64,192,323520,1,0,0:0:0:0:
448,192,323520,1,0,0:0:0:0:
64,192,323692,1,0,0:0:0:50:kick.wav
192,192,323692,1,0,0:0:0:0:
448,192,323777,1,0,0:0:0:50:kick.wav
320,192,323777,1,0,0:0:0:0:
448,192,323863,1,0,0:0:0:50:kick.wav
64,192,323863,1,0,0:0:0:0:
320,192,323949,1,0,0:0:0:50:kick.wav
192,192,323949,1,0,0:0:0:0:
64,192,324035,1,0,0:0:0:50:kick.wav
448,192,324035,1,0,0:0:0:0:
320,192,324120,1,0,0:0:0:50:kick.wav
192,192,324120,1,0,0:0:0:0:
192,192,324206,1,0,0:0:0:50:kick.wav
64,192,324206,1,0,0:0:0:0:
320,192,324292,1,0,0:0:0:50:kick.wav
448,192,324292,1,0,0:0:0:0:
192,192,324377,1,0,0:0:0:50:kick.wav
64,192,324377,1,0,0:0:0:0:
448,192,324463,1,0,0:0:0:50:kick.wav
192,192,324463,1,0,0:0:0:0:
320,192,324549,1,0,0:0:0:50:kick.wav
64,192,324549,1,0,0:0:0:0:
448,192,324635,1,0,0:0:0:50:kick.wav
192,192,324635,1,0,0:0:0:0:
320,192,324720,1,0,0:0:0:50:kick.wav
64,192,324720,1,0,0:0:0:0:
448,192,324806,1,0,0:0:0:50:kick.wav
64,192,324806,1,0,0:0:0:0:
320,192,324892,1,0,0:0:0:50:kick.wav
192,192,324892,1,0,0:0:0:0:
64,192,324977,1,0,0:0:0:50:kick.wav
448,192,324977,1,0,0:0:0:0:
64,192,325063,1,0,0:0:0:50:kick.wav
192,192,325106,1,0,0:0:0:0:
320,192,325149,1,0,0:0:0:0:
448,192,325192,1,0,0:0:0:0:
64,192,325235,1,0,0:0:0:0:
192,192,325277,5,0,0:0:0:0:
320,192,325320,1,0,0:0:0:0:
448,192,325363,1,0,0:0:0:0:
64,192,325406,1,0,0:0:0:0:
192,192,325449,1,0,0:0:0:0:
320,192,325492,1,0,0:0:0:0:
448,192,325535,1,0,0:0:0:0:
320,192,325577,1,0,0:0:0:0:
192,192,325620,1,0,0:0:0:0:
64,192,325663,1,0,0:0:0:0:
448,192,325706,5,0,0:0:0:0:
320,192,325749,1,0,0:0:0:0:
192,192,325792,1,0,0:0:0:0:
64,192,325835,1,0,0:0:0:0:
448,192,325877,1,0,0:0:0:0:
320,192,325920,1,0,0:0:0:0:
192,192,325963,1,0,0:0:0:0:
64,192,326006,1,0,0:0:0:0:
448,192,326049,1,0,0:0:0:0:
320,192,326092,1,0,0:0:0:0:
192,192,326135,1,0,0:0:0:0:
64,192,326177,1,0,0:0:0:0:
448,192,326220,1,0,0:0:0:0:
320,192,326263,1,0,0:0:0:0:
192,192,326306,1,0,0:0:0:0:
64,192,326349,1,0,0:0:0:0:
192,192,326392,1,0,0:0:0:0:
320,192,326435,5,0,0:0:0:20:crash.wav
448,192,326435,1,0,0:0:0:50:kick.wav
64,192,326606,5,0,0:0:0:0:
448,192,326777,1,0,0:0:0:50:kick.wav
320,192,326777,1,0,0:0:0:0:
320,192,326949,1,0,0:0:0:0:
448,192,327120,1,0,0:0:0:50:kick.wav
192,192,327120,1,0,0:0:0:0:
320,192,327206,1,0,0:0:0:0:
64,192,327292,1,0,0:0:0:0:
192,192,327377,1,0,0:0:0:0:
448,192,327463,1,0,0:0:0:50:kick.wav
320,192,327463,1,0,0:0:0:0:
192,192,327549,1,0,0:0:0:0:
320,192,327635,1,0,0:0:0:0:
192,192,327806,1,0,0:0:0:50:kick.wav
448,192,327806,1,0,0:0:0:0:
64,192,327977,1,0,0:0:0:0:
448,192,328149,1,0,0:0:0:50:kick.wav
320,192,328149,1,0,0:0:0:0:
320,192,328320,1,0,0:0:0:0:
192,192,328492,1,0,0:0:0:50:kick.wav
448,192,328492,1,0,0:0:0:0:
64,192,328663,1,0,0:0:0:0:
448,192,328749,1,0,0:0:0:0:
192,192,328835,1,0,0:0:0:50:kick.wav
64,192,328835,1,0,0:0:0:0:
320,192,328920,1,0,0:0:0:0:
448,192,329006,1,0,0:0:0:0:
192,192,329092,1,0,0:0:0:0:
64,192,329177,1,0,0:0:0:50:kick.wav
320,192,329177,1,0,0:0:0:0:
192,192,329263,1,0,0:0:0:0:
448,192,329349,1,0,0:0:0:0:
320,192,329435,1,0,0:0:0:0:
64,192,329520,1,0,0:0:0:50:kick.wav
192,192,329520,1,0,0:0:0:0:
192,192,329692,1,0,0:0:0:0:
64,192,329863,1,0,0:0:0:50:kick.wav
320,192,329863,1,0,0:0:0:0:
192,192,329949,1,0,0:0:0:0:
448,192,330035,1,0,0:0:0:0:
320,192,330120,1,0,0:0:0:0:
192,192,330206,1,0,0:0:0:50:kick.wav
64,192,330206,1,0,0:0:0:0:
448,192,330292,1,0,0:0:0:0:
192,192,330377,1,0,0:0:0:0:
64,192,330549,1,0,0:0:0:50:kick.wav
320,192,330549,1,0,0:0:0:0:
448,192,330720,1,0,0:0:0:0:
64,192,330892,1,0,0:0:0:50:kick.wav
192,192,330892,1,0,0:0:0:0:
192,192,331063,1,0,0:0:0:0:
320,192,331235,1,0,0:0:0:50:kick.wav
64,192,331235,1,0,0:0:0:0:
192,192,331320,1,0,0:0:0:0:
448,192,331406,1,0,0:0:0:0:
320,192,331492,1,0,0:0:0:0:
64,192,331577,1,0,0:0:0:50:kick.wav
192,192,331577,1,0,0:0:0:0:
320,192,331663,1,0,0:0:0:0:
448,192,331749,1,0,0:0:0:0:
320,192,331835,1,0,0:0:0:0:
448,192,331920,1,0,0:0:0:50:kick.wav
192,192,331920,1,0,0:0:0:0:
320,192,332006,1,0,0:0:0:0:
64,192,332092,1,0,0:0:0:0:
192,192,332177,1,0,0:0:0:0:
448,192,332263,1,0,0:0:0:50:kick.wav
320,192,332263,1,0,0:0:0:0:
320,192,332435,1,0,0:0:0:0:
448,192,332606,1,0,0:0:0:50:kick.wav
192,192,332606,1,0,0:0:0:0:
320,192,332692,1,0,0:0:0:0:
64,192,332777,1,0,0:0:0:0:
192,192,332863,1,0,0:0:0:0:
448,192,332949,1,0,0:0:0:50:kick.wav
320,192,332949,1,0,0:0:0:0:
64,192,333035,1,0,0:0:0:0:
320,192,333120,1,0,0:0:0:0:
192,192,333292,1,0,0:0:0:50:kick.wav
448,192,333292,1,0,0:0:0:0:
64,192,333463,1,0,0:0:0:0:
320,192,333635,1,0,0:0:0:50:kick.wav
448,192,333635,1,0,0:0:0:0:
320,192,333806,1,0,0:0:0:0:
192,192,333977,1,0,0:0:0:50:kick.wav
448,192,333977,1,0,0:0:0:0:
64,192,334149,1,0,0:0:0:0:
192,192,334235,1,0,0:0:0:0:
320,192,334320,1,0,0:0:0:50:kick.wav
448,192,334320,1,0,0:0:0:0:
64,192,334406,1,0,0:0:0:0:
192,192,334492,1,0,0:0:0:0:
64,192,334577,1,0,0:0:0:0:
320,192,334663,1,0,0:0:0:50:kick.wav
448,192,334663,1,0,0:0:0:0:
192,192,334749,1,0,0:0:0:0:
64,192,334835,1,0,0:0:0:0:
320,192,334920,1,0,0:0:0:0:
192,192,335006,1,0,0:0:0:50:kick.wav
448,192,335006,1,0,0:0:0:0:
320,192,335177,1,0,0:0:0:0:
320,192,335349,1,0,0:0:0:50:kick.wav
448,192,335349,1,0,0:0:0:0:
64,192,335520,1,0,0:0:0:0:
320,192,335606,1,0,0:0:0:0:
192,192,335692,1,0,0:0:0:50:kick.wav
448,192,335692,1,0,0:0:0:0:
64,192,335777,1,0,0:0:0:0:
320,192,335863,1,0,0:0:0:0:
192,192,335949,1,0,0:0:0:0:
320,192,336035,1,0,0:0:0:50:kick.wav
448,192,336035,1,0,0:0:0:0:
192,192,336120,1,0,0:0:0:0:
64,192,336206,1,0,0:0:0:0:
192,192,336292,1,0,0:0:0:0:
448,192,336377,1,0,0:0:0:50:kick.wav
320,192,336377,1,0,0:0:0:0:
448,192,336549,1,0,0:0:0:0:
192,192,336635,1,0,0:0:0:0:
64,192,336720,1,0,0:0:0:50:kick.wav
320,192,336720,1,0,0:0:0:0:
192,192,336892,1,0,0:0:0:0:
64,192,336977,1,0,0:0:0:0:
448,192,337063,1,0,0:0:0:50:kick.wav
320,192,337063,1,0,0:0:0:0:
192,192,337149,1,0,0:0:0:0:
64,192,337235,1,0,0:0:0:50:kick.wav
320,192,337235,1,0,0:0:0:0:
64,192,337320,1,0,0:0:0:50:kick.wav
320,192,337320,1,0,0:0:0:0:
448,192,337406,1,0,0:0:0:50:kick.wav
320,192,337492,1,0,0:0:0:0:
64,192,337577,1,0,0:0:0:0:
192,192,337663,1,0,0:0:0:0:
448,192,337749,1,0,0:0:0:50:kick.wav
320,192,337920,1,0,0:0:0:0:
448,192,338092,1,0,0:0:0:50:kick.wav
320,192,338263,1,0,0:0:0:0:
192,192,338349,1,0,0:0:0:0:
448,192,338435,1,0,0:0:0:50:kick.wav
320,192,338520,1,0,0:0:0:0:
192,192,338606,1,0,0:0:0:0:
448,192,338777,1,0,0:0:0:50:kick.wav
64,192,338777,128,0,339120:0:0:0:0:
192,192,338949,1,0,0:0:0:0:
448,192,339120,1,0,0:0:0:50:kick.wav
64,192,339292,128,0,339635:0:0:0:0:
320,192,339292,1,0,0:0:0:0:
448,192,339463,1,0,0:0:0:50:kick.wav
320,192,339635,1,0,0:0:0:0:
192,192,339720,1,0,0:0:0:0:
448,192,339806,1,0,0:0:0:50:kick.wav
64,192,339892,1,0,0:0:0:0:
320,192,339977,1,0,0:0:0:0:
192,192,340063,1,0,0:0:0:0:
448,192,340149,1,0,0:0:0:50:kick.wav
64,192,340235,1,0,0:0:0:0:
320,192,340320,1,0,0:0:0:0:
192,192,340406,1,0,0:0:0:0:
448,192,340492,1,0,0:0:0:50:kick.wav
320,192,340663,1,0,0:0:0:0:
448,192,340835,1,0,0:0:0:50:kick.wav
320,192,341006,1,0,0:0:0:0:
192,192,341092,1,0,0:0:0:0:
448,192,341177,1,0,0:0:0:50:kick.wav
64,192,341263,1,0,0:0:0:0:
320,192,341349,1,0,0:0:0:0:
64,192,341520,128,0,341863:0:0:0:50:kick.wav
448,192,341520,1,0,0:0:0:0:
192,192,341692,1,0,0:0:0:0:
448,192,341863,1,0,0:0:0:50:kick.wav
320,192,342035,1,0,0:0:0:0:
64,192,342035,128,0,342377:0:0:0:0:
448,192,342206,1,0,0:0:0:50:kick.wav
320,192,342377,1,0,0:0:0:0:
192,192,342463,1,0,0:0:0:0:
448,192,342549,1,0,0:0:0:50:kick.wav
64,192,342635,1,0,0:0:0:0:
320,192,342720,1,0,0:0:0:0:
192,192,342892,1,0,0:0:0:50:kick.wav
448,192,342892,1,0,0:0:0:0:
64,192,343063,1,0,0:0:0:50:kick.wav
448,192,343063,1,0,0:0:0:0:
64,192,343235,1,0,0:0:0:50:kick.wav
320,192,343235,1,0,0:0:0:0:
192,192,343406,1,0,0:0:0:50:kick.wav
64,192,343406,1,0,0:0:0:0:
192,192,343577,1,0,0:0:0:50:kick.wav
448,192,343577,1,0,0:0:0:0:
320,192,343749,1,0,0:0:0:50:kick.wav
448,192,343749,1,0,0:0:0:0:
64,192,343920,1,0,0:0:0:50:kick.wav
448,192,343920,1,0,0:0:0:0:
192,192,344092,1,0,0:0:0:50:kick.wav
320,192,344092,1,0,0:0:0:0:
320,192,344263,1,0,0:0:0:50:kick.wav
64,192,344263,1,0,0:0:0:0:
64,192,344435,1,0,0:0:0:50:kick.wav
448,192,344435,1,0,0:0:0:0:
192,192,344606,1,0,0:0:0:50:kick.wav
448,192,344606,1,0,0:0:0:0:
320,192,344777,1,0,0:0:0:50:kick.wav
448,192,344777,1,0,0:0:0:0:
64,192,344949,1,0,0:0:0:50:kick.wav
192,192,344949,1,0,0:0:0:0:
64,192,345120,1,0,0:0:0:50:kick.wav
448,192,345120,1,0,0:0:0:0:
192,192,345292,1,0,0:0:0:50:kick.wav
448,192,345292,1,0,0:0:0:0:
64,192,345463,1,0,0:0:0:50:kick.wav
320,192,345463,1,0,0:0:0:0:
192,192,345635,5,0,0:0:0:50:kick.wav
448,192,345635,1,0,0:0:0:0:
64,192,345720,1,0,0:0:0:50:kick.wav
320,192,345720,1,0,0:0:0:0:
448,192,345806,1,0,0:0:0:50:kick.wav
192,192,345806,1,0,0:0:0:0:
192,192,345892,1,0,0:0:0:50:kick.wav
64,192,345892,1,0,0:0:0:0:
448,192,345977,1,0,0:0:0:50:kick.wav
320,192,345977,1,0,0:0:0:0:
64,192,346063,1,0,0:0:0:50:kick.wav
192,192,346063,1,0,0:0:0:0:
64,192,346149,1,0,0:0:0:50:kick.wav
448,192,346149,1,0,0:0:0:0:
320,192,346235,1,0,0:0:0:50:kick.wav
192,192,346235,1,0,0:0:0:0:
448,192,346320,1,0,0:0:0:0:
64,192,346320,1,0,0:0:0:50:kick.wav
320,192,346406,1,0,0:0:0:0:
64,192,346406,1,0,0:0:0:50:kick.wav
192,192,346492,1,0,0:0:0:50:kick.wav
448,192,346492,1,0,0:0:0:0:
320,192,346577,1,0,0:0:0:50:kick.wav
64,192,346577,1,0,0:0:0:0:
320,192,346663,1,0,0:0:0:50:kick.wav
448,192,346663,1,0,0:0:0:0:
64,192,346749,1,0,0:0:0:50:kick.wav
192,192,346749,1,0,0:0:0:0:
448,192,346835,1,0,0:0:0:50:kick.wav
320,192,346835,1,0,0:0:0:0:
64,192,346920,1,0,0:0:0:50:kick.wav
192,192,346920,1,0,0:0:0:0:
64,192,347006,1,0,0:0:0:50:kick.wav
192,192,347049,1,0,0:0:0:0:
320,192,347092,1,0,0:0:0:0:
448,192,347135,1,0,0:0:0:0:
320,192,347177,1,0,0:0:0:0:
192,192,347220,1,0,0:0:0:0:
64,192,347263,1,0,0:0:0:0:
192,192,347306,1,0,0:0:0:0:
320,192,347349,1,0,0:0:0:0:
448,192,347392,1,0,0:0:0:0:
320,192,347435,1,0,0:0:0:0:
192,192,347477,1,0,0:0:0:0:
64,192,347520,1,0,0:0:0:0:
192,192,347563,1,0,0:0:0:0:
320,192,347606,1,0,0:0:0:0:
448,192,347649,1,0,0:0:0:0:
64,192,347692,1,0,0:0:0:0:
192,192,347735,1,0,0:0:0:0:
320,192,347777,1,0,0:0:0:0:
448,192,347820,1,0,0:0:0:0:
320,192,347863,1,0,0:0:0:0:
192,192,347906,1,0,0:0:0:0:
64,192,347949,1,0,0:0:0:0:
448,192,347992,1,0,0:0:0:0:
320,192,348035,1,0,0:0:0:0:
192,192,348077,1,0,0:0:0:0:
64,192,348120,1,0,0:0:0:0:
192,192,348163,1,0,0:0:0:0:
320,192,348206,1,0,0:0:0:0:
448,192,348249,1,0,0:0:0:0:
320,192,348292,1,0,0:0:0:0:
192,192,348335,1,0,0:0:0:0:
448,192,348377,5,0,0:0:0:20:crash.wav
64,192,348377,1,0,0:0:0:30:snare.wav
320,192,348463,1,0,0:0:0:0:
192,192,348549,1,0,0:0:0:0:
448,192,348635,1,0,0:0:0:0:
64,192,348720,1,0,0:0:0:30:snare.wav
320,192,348720,1,0,0:0:0:0:
192,192,348892,1,0,0:0:0:0:
64,192,349063,1,0,0:0:0:30:snare.wav
192,192,349235,1,0,0:0:0:0:
320,192,349320,1,0,0:0:0:0:
64,192,349406,1,0,0:0:0:30:snare.wav
448,192,349492,1,0,0:0:0:0:
192,192,349577,1,0,0:0:0:0:
64,192,349749,1,0,0:0:0:30:snare.wav
448,192,349749,128,0,350092:0:0:0:0:
320,192,349920,1,0,0:0:0:0:
64,192,350092,1,0,0:0:0:30:snare.wav
192,192,350263,1,0,0:0:0:0:
448,192,350263,128,0,350606:0:0:0:0:
64,192,350435,1,0,0:0:0:30:snare.wav
192,192,350606,1,0,0:0:0:0:
320,192,350692,1,0,0:0:0:0:
64,192,350777,1,0,0:0:0:30:snare.wav
192,192,350863,1,0,0:0:0:0:
448,192,350949,1,0,0:0:0:0:
320,192,351035,1,0,0:0:0:0:
64,192,351120,1,0,0:0:0:30:snare.wav
192,192,351120,1,0,0:0:0:0:
320,192,351206,1,0,0:0:0:0:
192,192,351292,1,0,0:0:0:0:
448,192,351377,1,0,0:0:0:0:
64,192,351463,1,0,0:0:0:30:snare.wav
448,192,351635,1,0,0:0:0:0:
64,192,351806,1,0,0:0:0:30:snare.wav
320,192,351892,1,0,0:0:0:0:
192,192,351977,1,0,0:0:0:0:
64,192,352149,1,0,0:0:0:30:snare.wav
192,192,352235,1,0,0:0:0:0:
320,192,352320,1,0,0:0:0:0:
64,192,352492,1,0,0:0:0:30:snare.wav
448,192,352492,128,0,352835:0:0:0:0:
320,192,352663,1,0,0:0:0:0:
64,192,352835,1,0,0:0:0:30:snare.wav
448,192,353006,128,0,353349:0:0:0:0:
192,192,353006,1,0,0:0:0:0:
64,192,353177,1,0,0:0:0:30:snare.wav
192,192,353349,1,0,0:0:0:0:
320,192,353435,1,0,0:0:0:0:
64,192,353520,1,0,0:0:0:30:snare.wav
192,192,353606,1,0,0:0:0:0:
448,192,353692,1,0,0:0:0:0:
192,192,353777,1,0,0:0:0:0:
64,192,353863,1,0,0:0:0:30:snare.wav
320,192,353863,1,0,0:0:0:0:
192,192,353949,1,0,0:0:0:0:
320,192,354035,1,0,0:0:0:0:
448,192,354120,1,0,0:0:0:0:
64,192,354206,1,0,0:0:0:30:snare.wav
192,192,354206,1,0,0:0:0:0:
448,192,354377,1,0,0:0:0:0:
64,192,354549,1,0,0:0:0:30:snare.wav
192,192,354720,1,0,0:0:0:0:
448,192,354806,1,0,0:0:0:0:
64,192,354892,1,0,0:0:0:30:snare.wav
192,192,354977,1,0,0:0:0:0:
320,192,355063,1,0,0:0:0:0:
64,192,355235,1,0,0:0:0:30:snare.wav
448,192,355235,128,0,355577:0:0:0:0:
320,192,355406,1,0,0:0:0:0:
64,192,355577,1,0,0:0:0:30:snare.wav
192,192,355749,1,0,0:0:0:0:
448,192,355749,128,0,356092:0:0:0:0:
64,192,355920,1,0,0:0:0:30:snare.wav
192,192,356092,1,0,0:0:0:0:
320,192,356177,1,0,0:0:0:0:
64,192,356263,1,0,0:0:0:30:snare.wav
192,192,356349,1,0,0:0:0:0:
448,192,356435,1,0,0:0:0:0:
320,192,356520,1,0,0:0:0:0:
64,192,356606,1,0,0:0:0:30:snare.wav
192,192,356606,1,0,0:0:0:0:
448,192,356692,1,0,0:0:0:0:
320,192,356777,1,0,0:0:0:0:
192,192,356863,1,0,0:0:0:0:
64,192,356949,1,0,0:0:0:30:snare.wav
320,192,356949,1,0,0:0:0:0:
448,192,357120,1,0,0:0:0:0:
64,192,357292,1,0,0:0:0:30:snare.wav
192,192,357463,1,0,0:0:0:0:
448,192,357549,1,0,0:0:0:0:
64,192,357635,1,0,0:0:0:30:snare.wav
192,192,357720,1,0,0:0:0:0:
320,192,357806,1,0,0:0:0:0:
192,192,357892,1,0,0:0:0:0:
64,192,357977,1,0,0:0:0:0:
448,192,357977,128,0,358320:0:0:0:0:
320,192,357977,1,0,0:0:0:0:
192,192,358063,1,0,0:0:0:0:
320,192,358149,1,0,0:0:0:0:
192,192,358235,1,0,0:0:0:0:
64,192,358320,1,0,0:0:0:30:snare.wav
320,192,358320,1,0,0:0:0:0:
448,192,358492,128,0,358835:0:0:0:0:
192,192,358492,1,0,0:0:0:0:
320,192,358577,1,0,0:0:0:0:
64,192,358663,1,0,0:0:0:30:snare.wav
320,192,358749,1,0,0:0:0:0:
192,192,358835,1,0,0:0:0:0:
320,192,358920,1,0,0:0:0:0:
64,192,359006,1,0,0:0:0:30:snare.wav
448,192,359006,1,0,0:0:0:0:
192,192,359092,1,0,0:0:0:0:
448,192,359177,1,0,0:0:0:0:
320,192,359177,1,0,0:0:0:0:
448,192,359263,1,0,0:0:0:0:
320,192,359263,1,0,0:0:0:0:
64,192,359349,1,0,0:0:0:40:snare.wav
192,192,359349,1,0,0:0:0:0:
448,192,359435,1,0,0:0:0:0:
320,192,359520,1,0,0:0:0:0:
448,192,359606,1,0,0:0:0:0:
64,192,359692,1,0,0:0:0:40:snare.wav
192,192,359692,1,0,0:0:0:0:
448,192,359863,1,0,0:0:0:0:
64,192,360035,1,0,0:0:0:40:snare.wav
192,192,360035,1,0,0:0:0:0:
192,192,360206,1,0,0:0:0:0:
320,192,360292,1,0,0:0:0:0:
64,192,360377,1,0,0:0:0:40:snare.wav
192,192,360377,1,0,0:0:0:0:
320,192,360463,1,0,0:0:0:0:
448,192,360549,1,0,0:0:0:0:
64,192,360720,1,0,0:0:0:40:snare.wav
448,192,360720,128,0,361063:0:0:0:0:
320,192,360892,1,0,0:0:0:0:
64,192,361063,1,0,0:0:0:40:snare.wav
192,192,361235,1,0,0:0:0:0:
448,192,361235,128,0,361577:0:0:0:0:
64,192,361406,1,0,0:0:0:40:snare.wav
192,192,361577,1,0,0:0:0:0:
320,192,361663,1,0,0:0:0:0:
64,192,361749,1,0,0:0:0:40:snare.wav
192,192,361835,1,0,0:0:0:0:
448,192,361920,1,0,0:0:0:0:
320,192,362006,1,0,0:0:0:0:
64,192,362092,1,0,0:0:0:40:snare.wav
192,192,362092,1,0,0:0:0:0:
448,192,362177,1,0,0:0:0:0:
192,192,362263,1,0,0:0:0:0:
320,192,362349,1,0,0:0:0:0:
64,192,362435,1,0,0:0:0:40:snare.wav
192,192,362435,1,0,0:0:0:0:
448,192,362606,1,0,0:0:0:0:
64,192,362777,1,0,0:0:0:40:snare.wav
192,192,362949,1,0,0:0:0:0:
448,192,363035,1,0,0:0:0:0:
64,192,363120,1,0,0:0:0:40:snare.wav
192,192,363206,1,0,0:0:0:0:
320,192,363292,1,0,0:0:0:0:
64,192,363463,1,0,0:0:0:40:snare.wav
448,192,363463,128,0,363806:0:0:0:0:
320,192,363635,1,0,0:0:0:0:
64,192,363806,1,0,0:0:0:40:snare.wav
448,192,363977,128,0,364320:0:0:0:0:
192,192,363977,1,0,0:0:0:0:
64,192,364149,1,0,0:0:0:40:snare.wav
192,192,364320,1,0,0:0:0:0:
320,192,364406,1,0,0:0:0:0:
64,192,364492,1,0,0:0:0:40:snare.wav
192,192,364577,1,0,0:0:0:0:
448,192,364663,1,0,0:0:0:0:
320,192,364749,1,0,0:0:0:0:
64,192,364835,1,0,0:0:0:40:snare.wav
192,192,364835,1,0,0:0:0:0:
448,192,364920,1,0,0:0:0:0:
192,192,365006,1,0,0:0:0:40:snare.wav
64,192,365006,1,0,0:0:0:0:
320,192,365092,1,0,0:0:0:0:
64,192,365177,1,0,0:0:0:40:snare.wav
192,192,365177,1,0,0:0:0:0:
448,192,365349,1,0,0:0:0:40:snare.wav
64,192,365349,1,0,0:0:0:0:
64,192,365520,1,0,0:0:0:40:snare.wav
192,192,365692,1,0,0:0:0:40:snare.wav
64,192,365692,1,0,0:0:0:0:
448,192,365777,1,0,0:0:0:0:
64,192,365863,1,0,0:0:0:40:snare.wav
320,192,365863,1,0,0:0:0:0:
192,192,365949,1,0,0:0:0:0:
320,192,366035,1,0,0:0:0:40:snare.wav
64,192,366035,1,0,0:0:0:0:
64,192,366206,1,0,0:0:0:40:snare.wav
448,192,366206,128,0,366549:0:0:0:0:
64,192,366377,1,0,0:0:0:40:snare.wav
64,192,366549,1,0,0:0:0:40:snare.wav
64,192,366720,1,0,0:0:0:40:snare.wav
448,192,366720,128,0,367063:0:0:0:0:
64,192,366892,1,0,0:0:0:40:snare.wav
64,192,367063,1,0,0:0:0:40:snare.wav
320,192,367149,1,0,0:0:0:0:
64,192,367235,1,0,0:0:0:40:snare.wav
448,192,367235,1,0,0:0:0:0:
192,192,367320,1,0,0:0:0:0:
64,192,367406,1,0,0:0:0:40:snare.wav
448,192,367406,1,0,0:0:0:0:
192,192,367492,1,0,0:0:0:0:
64,192,367577,1,0,0:0:0:40:snare.wav
448,192,367577,1,0,0:0:0:0:
192,192,367663,1,0,0:0:0:40:snare.wav
320,192,367663,1,0,0:0:0:0:
64,192,367749,1,0,0:0:0:40:snare.wav
448,192,367749,1,0,0:0:0:0:
320,192,367835,1,0,0:0:0:40:snare.wav
192,192,367835,1,0,0:0:0:0:
64,192,367920,1,0,0:0:0:40:snare.wav
192,192,367920,1,0,0:0:0:0:
320,192,368006,1,0,0:0:0:40:snare.wav
448,192,368006,1,0,0:0:0:0:
192,192,368092,1,0,0:0:0:40:snare.wav
64,192,368092,1,0,0:0:0:0:
192,192,368177,1,0,0:0:0:40:snare.wav
448,192,368177,1,0,0:0:0:0:
64,192,368263,1,0,0:0:0:40:snare.wav
320,192,368263,1,0,0:0:0:0:
320,192,368349,1,0,0:0:0:40:snare.wav
192,192,368349,1,0,0:0:0:0:
64,192,368435,1,0,0:0:0:40:snare.wav
448,192,368435,1,0,0:0:0:0:
192,192,368520,1,0,0:0:0:40:snare.wav
320,192,368520,1,0,0:0:0:0:
64,192,368606,1,0,0:0:0:40:snare.wav
192,192,368606,1,0,0:0:0:0:
320,192,368692,1,0,0:0:0:40:snare.wav
448,192,368692,1,0,0:0:0:0:
192,192,368777,1,0,0:0:0:40:snare.wav
448,192,368777,1,0,0:0:0:0:
320,192,368863,1,0,0:0:0:40:snare.wav
64,192,368863,1,0,0:0:0:0:
64,192,368949,1,0,0:0:0:30:snare.wav
448,192,368949,128,0,369292:0:0:0:0:
192,192,368949,1,0,0:0:0:0:
320,192,369035,1,0,0:0:0:0:
64,192,369120,1,0,0:0:0:0:
192,192,369206,1,0,0:0:0:0:
64,192,369292,1,0,0:0:0:0:
448,192,369463,128,0,369806:0:0:0:0:
192,192,369463,1,0,0:0:0:0:
320,192,369549,1,0,0:0:0:0:
64,192,369635,1,0,0:0:0:0:
192,192,369720,1,0,0:0:0:0:
64,192,369806,1,0,0:0:0:0:
320,192,369892,1,0,0:0:0:0:
64,192,369977,1,0,0:0:0:0:
192,192,370063,1,0,0:0:0:0:
448,192,370149,1,0,0:0:0:0:
