osu file format v13

[General]
AudioFilename: Space Time (Amane Hardcore Remix).mp3
AudioLeadIn: 0
PreviewTime: 172835
Countdown: 0
SampleSet: Soft
StackLeniency: 0.7
Mode: 3
LetterboxInBreaks: 0
SpecialStyle: 0
WidescreenStoryboard: 1

[Editor]
DistanceSpacing: 0.6
BeatDivisor: 4
GridSize: 8
TimelineZoom: 3

[Metadata]
Title:Space Time (Amane Hardcore Remix)
TitleUnicode:Space Time (Amane Hardcore Remix)
Artist:Amane
ArtistUnicode:Amane
Creator:Lieselotte
Version:7K Lv.40
Source:
Tags:Spy 天音
BeatmapID:462733
BeatmapSetID:194921

[Difficulty]
HPDrainRate:8
CircleSize:7
OverallDifficulty:8
ApproachRate:5
SliderMultiplier:1.4
SliderTickRate:1

[Events]
//Background and Video events
0,0,"BG.jpg",0,0
//Break Periods
2,85263,100406
//Storyboard Layer 0 (Background)
//Storyboard Layer 1 (Fail)
//Storyboard Layer 2 (Pass)
//Storyboard Layer 3 (Foreground)
//Storyboard Sound Samples
Sample,42549,0,"kick.wav",50
Sample,43235,0,"kick.wav",50
Sample,43920,0,"kick.wav",50
Sample,45292,0,"kick.wav",50
Sample,45977,0,"kick.wav",50
Sample,46663,0,"kick.wav",50
Sample,48035,0,"kick.wav",50
Sample,48720,0,"kick.wav",50
Sample,49406,0,"kick.wav",50
Sample,50092,0,"kick.wav",50
Sample,50777,0,"kick.wav",50
Sample,51463,0,"kick.wav",50
Sample,53520,0,"kick.wav",50
Sample,54892,0,"kick.wav",50
Sample,56263,0,"kick.wav",50
Sample,357977,0,"snare.wav",30

[TimingPoints]
35,342.857142857143,4,2,0,30,1,0
17863,-50,4,2,0,30,0,0
18035,-20,4,2,0,30,0,0
18549,-50,4,2,0,30,0,0
18892,-66.6666666666667,4,2,0,30,0,0
19235,-100,4,2,0,30,0,0
85063,-200,4,2,0,30,0,0
127577,-100,4,2,0,30,0,0
128949,-133.333333333333,4,2,0,30,0,0
139749,-113.636363636364,4,2,0,30,0,0
147977,-133.333333333333,4,2,0,30,0,0
149349,-200,4,2,0,30,0,0
150892,-100,4,2,0,30,0,0
171463,-50,4,2,0,30,0,0
171635,-20,4,2,0,30,0,0
172149,-50,4,2,0,30,0,0
172492,-66.6666666666667,4,2,0,30,0,0
172835,-100,4,2,0,30,0,0
238663,-200,4,2,0,30,0,0
260435,-100,4,2,0,30,0,0
281177,-50,4,2,0,30,0,0
281349,-20,4,2,0,30,0,0
281863,-50,4,2,0,30,0,0
282206,-66.6666666666667,4,2,0,30,0,0
282549,-100,4,2,0,30,0,0

[Colours]
Combo1 : 5,5,240
Combo2 : 5,240,5

[HitObjects]
182,192,35,5,0,0:0:0:30:snare.wav
329,192,206,1,0,0:0:0:0:
475,192,206,1,0,0:0:0:0:
109,192,377,1,0,0:0:0:30:snare.wav
402,192,549,1,0,0:0:0:0:
182,192,720,1,0,0:0:0:30:snare.wav
329,192,892,1,0,0:0:0:0:
402,192,977,1,0,0:0:0:0:
109,192,1063,1,0,0:0:0:30:snare.wav
329,192,1235,1,0,0:0:0:0:
182,192,1406,1,0,0:0:0:30:snare.wav
475,192,1406,128,0,1749:0:0:0:0:
256,192,1577,1,0,0:0:0:0:
402,192,1577,1,0,0:0:0:0:
109,192,1749,1,0,0:0:0:30:snare.wav
329,192,1920,1,0,0:0:0:0:
475,192,1920,128,0,2263:0:0:0:0:
182,192,2092,1,0,0:0:0:30:snare.wav
402,192,2263,1,0,0:0:0:0:
36,192,2263,128,0,2777:0:0:0:0:
329,192,2349,1,0,0:0:0:0:
109,192,2435,1,0,0:0:0:30:snare.wav
402,192,2606,1,0,0:0:0:0:
182,192,2777,1,0,0:0:0:30:snare.wav
329,192,2949,1,0,0:0:0:0:
475,192,2949,1,0,0:0:0:0:
109,192,3120,1,0,0:0:0:30:snare.wav
402,192,3292,1,0,0:0:0:0:
182,192,3463,1,0,0:0:0:30:snare.wav
329,192,3635,1,0,0:0:0:0:
402,192,3720,1,0,0:0:0:0:
109,192,3806,1,0,0:0:0:30:snare.wav
329,192,3977,1,0,0:0:0:0:
182,192,4149,1,0,0:0:0:30:snare.wav
475,192,4149,128,0,4492:0:0:0:0:
256,192,4320,1,0,0:0:0:0:
402,192,4320,1,0,0:0:0:0:
182,192,4492,1,0,0:0:0:30:snare.wav
475,192,4663,128,0,5006:0:0:0:0:
329,192,4663,1,0,0:0:0:0:
109,192,4835,1,0,0:0:0:30:snare.wav
402,192,5006,1,0,0:0:0:0:
329,192,5092,1,0,0:0:0:0:
109,192,5177,1,0,0:0:0:30:snare.wav
402,192,5349,1,0,0:0:0:0:
182,192,5520,1,0,0:0:0:30:snare.wav
256,192,5692,1,0,0:0:0:0:
475,192,5692,1,0,0:0:0:0:
402,192,5777,1,0,0:0:0:0:
329,192,5863,1,0,0:0:0:0:
109,192,5863,1,0,0:0:0:30:snare.wav
402,192,5949,1,0,0:0:0:0:
475,192,6035,1,0,0:0:0:0:
182,192,6206,1,0,0:0:0:30:snare.wav
475,192,6377,1,0,0:0:0:0:
402,192,6463,1,0,0:0:0:0:
329,192,6549,1,0,0:0:0:0:
109,192,6549,1,0,0:0:0:30:snare.wav
402,192,6635,1,0,0:0:0:0:
475,192,6720,1,0,0:0:0:0:
475,192,6892,128,0,7235:0:0:0:0:
182,192,6892,1,0,0:0:0:30:snare.wav
256,192,7063,1,0,0:0:0:0:
402,192,7063,1,0,0:0:0:0:
329,192,7149,1,0,0:0:0:0:
109,192,7235,1,0,0:0:0:30:snare.wav
36,192,7235,1,0,0:0:0:0:
182,192,7320,1,0,0:0:0:0:
329,192,7406,1,0,0:0:0:0:
475,192,7406,128,0,7749:0:0:0:0:
256,192,7577,1,0,0:0:0:30:snare.wav
329,192,7749,1,0,0:0:0:0:
182,192,7835,1,0,0:0:0:0:
109,192,7920,1,0,0:0:0:30:snare.wav
36,192,7920,1,0,0:0:0:0:
402,192,8006,1,0,0:0:0:0:
475,192,8092,1,0,0:0:0:0:
256,192,8092,1,0,0:0:0:30:snare.wav
256,192,8177,1,0,0:0:0:30:snare.wav
182,192,8263,1,0,0:0:0:40:snare.wav
109,192,8263,1,0,0:0:0:0:
475,192,8435,1,0,0:0:0:0:
402,192,8520,1,0,0:0:0:0:
329,192,8606,1,0,0:0:0:0:
182,192,8606,1,0,0:0:0:40:snare.wav
109,192,8606,1,0,0:0:0:0:
402,192,8692,1,0,0:0:0:0:
475,192,8777,1,0,0:0:0:0:
182,192,8949,1,0,0:0:0:40:snare.wav
109,192,8949,1,0,0:0:0:0:
475,192,9120,1,0,0:0:0:0:
402,192,9206,1,0,0:0:0:0:
329,192,9292,1,0,0:0:0:0:
182,192,9292,1,0,0:0:0:40:snare.wav
109,192,9292,1,0,0:0:0:0:
402,192,9377,1,0,0:0:0:0:
475,192,9463,1,0,0:0:0:0:
182,192,9635,1,0,0:0:0:40:snare.wav
109,192,9635,1,0,0:0:0:0:
475,192,9635,128,0,9977:0:0:0:0:
402,192,9806,1,0,0:0:0:0:
256,192,9806,1,0,0:0:0:0:
329,192,9892,1,0,0:0:0:0:
182,192,9977,1,0,0:0:0:40:snare.wav
109,192,9977,1,0,0:0:0:0:
256,192,10063,1,0,0:0:0:0:
475,192,10149,128,0,10492:0:0:0:0:
329,192,10149,1,0,0:0:0:0:
182,192,10320,1,0,0:0:0:40:snare.wav
109,192,10320,1,0,0:0:0:0:
402,192,10492,1,0,0:0:0:0:
329,192,10577,1,0,0:0:0:0:
109,192,10663,1,0,0:0:0:0:
182,192,10663,1,0,0:0:0:40:snare.wav
329,192,10749,1,0,0:0:0:0:
402,192,10835,1,0,0:0:0:0:
109,192,11006,1,0,0:0:0:0:
36,192,11006,1,0,0:0:0:40:snare.wav
256,192,11177,1,0,0:0:0:0:
475,192,11177,1,0,0:0:0:0:
402,192,11263,1,0,0:0:0:0:
36,192,11349,1,0,0:0:0:40:snare.wav
109,192,11349,1,0,0:0:0:0:
329,192,11349,1,0,0:0:0:0:
402,192,11435,1,0,0:0:0:0:
475,192,11520,1,0,0:0:0:0:
109,192,11692,1,0,0:0:0:0:
36,192,11692,1,0,0:0:0:40:snare.wav
475,192,11863,1,0,0:0:0:0:
402,192,11949,1,0,0:0:0:0:
329,192,12035,1,0,0:0:0:0:
109,192,12035,1,0,0:0:0:0:
36,192,12035,1,0,0:0:0:40:snare.wav
402,192,12120,1,0,0:0:0:0:
475,192,12206,1,0,0:0:0:0:
109,192,12377,1,0,0:0:0:0:
36,192,12377,1,0,0:0:0:40:snare.wav
475,192,12377,128,0,12720:0:0:0:0:
402,192,12549,1,0,0:0:0:0:
256,192,12549,1,0,0:0:0:0:
329,192,12635,1,0,0:0:0:0:
109,192,12720,1,0,0:0:0:0:
36,192,12720,1,0,0:0:0:40:snare.wav
256,192,12806,1,0,0:0:0:0:
329,192,12892,1,0,0:0:0:0:
475,192,12892,128,0,13235:0:0:0:0:
109,192,13063,1,0,0:0:0:0:
36,192,13063,1,0,0:0:0:40:snare.wav
402,192,13235,1,0,0:0:0:0:
329,192,13320,1,0,0:0:0:0:
36,192,13406,1,0,0:0:0:40:snare.wav
109,192,13406,1,0,0:0:0:0:
256,192,13406,1,0,0:0:0:0:
329,192,13492,1,0,0:0:0:0:
402,192,13577,1,0,0:0:0:0:
182,192,13749,1,0,0:0:0:40:snare.wav
109,192,13749,1,0,0:0:0:0:
329,192,13920,1,0,0:0:0:40:snare.wav
402,192,13920,1,0,0:0:0:0:
182,192,14092,1,0,0:0:0:40:snare.wav
109,192,14092,1,0,0:0:0:0:
329,192,14263,1,0,0:0:0:40:snare.wav
402,192,14263,1,0,0:0:0:0:
182,192,14435,1,0,0:0:0:40:snare.wav
109,192,14435,1,0,0:0:0:0:
329,192,14606,1,0,0:0:0:40:snare.wav
402,192,14606,1,0,0:0:0:0:
182,192,14777,1,0,0:0:0:40:snare.wav
109,192,14777,1,0,0:0:0:0:
329,192,14949,1,0,0:0:0:40:snare.wav
402,192,14949,1,0,0:0:0:0:
109,192,15120,1,0,0:0:0:0:
36,192,15120,1,0,0:0:0:40:snare.wav
256,192,15120,128,0,15463:0:0:0:0:
402,192,15292,1,0,0:0:0:0:
475,192,15292,1,0,0:0:0:40:snare.wav
109,192,15463,1,0,0:0:0:0:
36,192,15463,1,0,0:0:0:40:snare.wav
256,192,15635,128,0,15977:0:0:0:0:
402,192,15635,1,0,0:0:0:0:
475,192,15635,1,0,0:0:0:40:snare.wav
109,192,15806,1,0,0:0:0:0:
36,192,15806,1,0,0:0:0:40:snare.wav
402,192,15977,1,0,0:0:0:0:
475,192,15977,1,0,0:0:0:40:snare.wav
109,192,16149,1,0,0:0:0:0:
36,192,16149,1,0,0:0:0:40:snare.wav
402,192,16320,1,0,0:0:0:0:
475,192,16320,1,0,0:0:0:40:snare.wav
182,192,16492,1,0,0:0:0:45:snare.wav
109,192,16492,1,0,0:0:0:0:
329,192,16577,1,0,0:0:0:45:snare.wav
402,192,16577,1,0,0:0:0:0:
182,192,16663,1,0,0:0:0:45:snare.wav
109,192,16663,1,0,0:0:0:0:
329,192,16749,1,0,0:0:0:45:snare.wav
402,192,16749,1,0,0:0:0:0:
182,192,16835,1,0,0:0:0:45:snare.wav
109,192,16835,1,0,0:0:0:0:
329,192,16920,1,0,0:0:0:45:snare.wav
402,192,16920,1,0,0:0:0:0:
182,192,17006,1,0,0:0:0:45:snare.wav
109,192,17006,1,0,0:0:0:0:
329,192,17092,1,0,0:0:0:45:snare.wav
402,192,17092,1,0,0:0:0:0:
182,192,17177,1,0,0:0:0:45:snare.wav
109,192,17177,1,0,0:0:0:0:
329,192,17263,1,0,0:0:0:45:snare.wav
402,192,17263,1,0,0:0:0:0:
182,192,17349,1,0,0:0:0:45:snare.wav
109,192,17349,1,0,0:0:0:0:
329,192,17435,1,0,0:0:0:45:snare.wav
402,192,17435,1,0,0:0:0:0:
182,192,17520,1,0,0:0:0:45:snare.wav
109,192,17520,1,0,0:0:0:0:
329,192,17606,1,0,0:0:0:45:snare.wav
402,192,17606,1,0,0:0:0:0:
182,192,17692,1,0,0:0:0:45:snare.wav
109,192,17692,1,0,0:0:0:0:
329,192,17777,1,0,0:0:0:45:snare.wav
402,192,17777,1,0,0:0:0:0:
256,192,17863,1,0,0:0:0:45:snare.wav
475,192,17863,1,0,0:0:0:0:
36,192,17863,1,0,0:0:0:0:
256,192,19235,1,0,0:0:0:40:crash.wav
475,192,19235,1,0,0:0:0:0:
36,192,19235,1,0,0:0:0:50:kick.wav
329,192,19406,1,0,0:0:0:0:
182,192,19577,1,0,0:0:0:50:kick.wav
109,192,19577,1,0,0:0:0:0:
329,192,19749,1,0,0:0:0:0:
182,192,19920,1,0,0:0:0:50:kick.wav
329,192,20092,1,0,0:0:0:0:
109,192,20263,1,0,0:0:0:0:
36,192,20263,1,0,0:0:0:50:kick.wav
329,192,20435,1,0,0:0:0:0:
256,192,20606,1,0,0:0:0:50:kick.wav
475,192,20606,128,0,20949:0:0:0:0:
329,192,20777,1,0,0:0:0:0:
182,192,20949,1,0,0:0:0:50:kick.wav
109,192,20949,1,0,0:0:0:0:
329,192,21120,1,0,0:0:0:0:
475,192,21120,128,0,21463:0:0:0:0:
182,192,21292,1,0,0:0:0:50:kick.wav
329,192,21463,1,0,0:0:0:0:
109,192,21635,1,0,0:0:0:0:
36,192,21635,1,0,0:0:0:50:kick.wav
329,192,21806,1,0,0:0:0:0:
256,192,21977,1,0,0:0:0:50:kick.wav
329,192,22149,1,0,0:0:0:0:
182,192,22320,1,0,0:0:0:50:kick.wav
109,192,22320,1,0,0:0:0:0:
329,192,22492,1,0,0:0:0:0:
182,192,22663,1,0,0:0:0:50:kick.wav
329,192,22835,1,0,0:0:0:0:
109,192,23006,1,0,0:0:0:0:
36,192,23006,1,0,0:0:0:50:kick.wav
329,192,23177,1,0,0:0:0:0:
256,192,23349,1,0,0:0:0:50:kick.wav
475,192,23349,128,0,23692:0:0:0:0:
329,192,23520,1,0,0:0:0:0:
182,192,23692,1,0,0:0:0:50:kick.wav
109,192,23692,1,0,0:0:0:0:
475,192,23863,128,0,24206:0:0:0:0:
329,192,23863,1,0,0:0:0:0:
182,192,24035,1,0,0:0:0:50:kick.wav
329,192,24206,1,0,0:0:0:0:
109,192,24377,1,0,0:0:0:0:
36,192,24377,1,0,0:0:0:50:kick.wav
329,192,24549,1,0,0:0:0:0:
256,192,24720,1,0,0:0:0:50:kick.wav
329,192,24892,128,0,25063:0:0:0:0:
182,192,25063,1,0,0:0:0:50:kick.wav
109,192,25063,1,0,0:0:0:0:
329,192,25235,128,0,25406:0:0:0:0:
182,192,25406,1,0,0:0:0:50:kick.wav
329,192,25577,128,0,25749:0:0:0:0:
109,192,25749,1,0,0:0:0:0:
36,192,25749,1,0,0:0:0:50:kick.wav
329,192,25920,128,0,26092:0:0:0:0:
256,192,26092,1,0,0:0:0:50:kick.wav
475,192,26092,128,0,26435:0:0:0:0:
329,192,26263,128,0,26435:0:0:0:0:
182,192,26435,1,0,0:0:0:50:kick.wav
109,192,26435,1,0,0:0:0:0:
329,192,26606,128,0,26777:0:0:0:0:
475,192,26606,128,0,26949:0:0:0:0:
182,192,26777,1,0,0:0:0:50:kick.wav
329,192,26949,128,0,27120:0:0:0:0:
109,192,27120,1,0,0:0:0:0:
36,192,27120,1,0,0:0:0:50:kick.wav
329,192,27292,128,0,27463:0:0:0:0:
256,192,27463,1,0,0:0:0:50:kick.wav
329,192,27635,128,0,27806:0:0:0:0:
182,192,27806,1,0,0:0:0:50:kick.wav
109,192,27806,1,0,0:0:0:0:
329,192,27977,128,0,28149:0:0:0:0:
182,192,28149,1,0,0:0:0:50:kick.wav
329,192,28320,128,0,28492:0:0:0:0:
109,192,28492,1,0,0:0:0:0:
36,192,28492,1,0,0:0:0:50:kick.wav
329,192,28663,128,0,28835:0:0:0:0:
182,192,28835,1,0,0:0:0:50:kick.wav
475,192,28835,128,0,29177:0:0:0:0:
329,192,29006,128,0,29177:0:0:0:0:
182,192,29177,1,0,0:0:0:50:kick.wav
109,192,29177,1,0,0:0:0:0:
475,192,29349,128,0,29692:0:0:0:0:
329,192,29349,128,0,29520:0:0:0:0:
182,192,29520,128,0,29692:0:0:0:0:
36,192,29520,1,0,0:0:0:50:kick.wav
329,192,29692,128,0,29863:0:0:0:0:
256,192,29692,1,0,0:0:0:0:
182,192,29863,1,0,0:0:0:50:kick.wav
36,192,29863,1,0,0:0:0:0:
475,192,29863,1,0,0:0:0:0:
256,192,30035,1,0,0:0:0:50:kick.wav
256,192,30120,1,0,0:0:0:50:kick.wav
109,192,30206,1,0,0:0:0:0:
36,192,30206,1,0,0:0:0:50:kick.wav
256,192,30377,128,0,30549:0:0:0:0:
402,192,30549,1,0,0:0:0:0:
475,192,30549,1,0,0:0:0:50:kick.wav
256,192,30720,128,0,30892:0:0:0:0:
109,192,30892,1,0,0:0:0:0:
36,192,30892,1,0,0:0:0:50:kick.wav
256,192,31063,128,0,31235:0:0:0:0:
402,192,31235,1,0,0:0:0:0:
475,192,31235,1,0,0:0:0:50:kick.wav
256,192,31406,128,0,31577:0:0:0:0:
109,192,31577,1,0,0:0:0:0:
36,192,31577,1,0,0:0:0:50:kick.wav
402,192,31577,128,0,31920:0:0:0:0:
256,192,31749,128,0,31920:0:0:0:0:
329,192,31920,1,0,0:0:0:0:
475,192,31920,1,0,0:0:0:50:kick.wav
402,192,32092,128,0,32435:0:0:0:0:
256,192,32092,128,0,32263:0:0:0:0:
109,192,32263,1,0,0:0:0:0:
36,192,32263,1,0,0:0:0:50:kick.wav
256,192,32435,128,0,32606:0:0:0:0:
329,192,32606,1,0,0:0:0:0:
475,192,32606,1,0,0:0:0:50:kick.wav
256,192,32777,128,0,32949:0:0:0:0:
402,192,32777,128,0,33120:0:0:0:0:
182,192,32949,1,0,0:0:0:0:
36,192,32949,1,0,0:0:0:50:kick.wav
256,192,33120,128,0,33292:0:0:0:0:
109,192,33120,128,0,33292:0:0:0:0:
402,192,33292,1,0,0:0:0:0:
475,192,33292,1,0,0:0:0:50:kick.wav
36,192,33292,128,0,33463:0:0:0:0:
256,192,33463,128,0,33635:0:0:0:0:
109,192,33635,1,0,0:0:0:0:
36,192,33635,1,0,0:0:0:50:kick.wav
256,192,33806,128,0,33977:0:0:0:0:
402,192,33977,1,0,0:0:0:0:
475,192,33977,1,0,0:0:0:50:kick.wav
256,192,34149,128,0,34320:0:0:0:0:
109,192,34320,1,0,0:0:0:0:
36,192,34320,1,0,0:0:0:50:kick.wav
402,192,34320,128,0,34663:0:0:0:0:
256,192,34492,128,0,34663:0:0:0:0:
329,192,34663,1,0,0:0:0:0:
475,192,34663,1,0,0:0:0:50:kick.wav
256,192,34835,128,0,35006:0:0:0:0:
402,192,34835,128,0,35177:0:0:0:0:
109,192,35006,1,0,0:0:0:0:
36,192,35006,1,0,0:0:0:50:kick.wav
256,192,35177,128,0,35349:0:0:0:0:
402,192,35349,1,0,0:0:0:0:
475,192,35349,1,0,0:0:0:50:kick.wav
256,192,35520,128,0,35692:0:0:0:0:
402,192,35692,1,0,0:0:0:0:
109,192,35692,1,0,0:0:0:50:kick.wav
182,192,35863,1,0,0:0:0:50:kick.wav
329,192,35863,1,0,0:0:0:0:
256,192,36035,1,0,0:0:0:50:kick.wav
475,192,36035,1,0,0:0:0:0:
36,192,36035,1,0,0:0:0:0:
182,192,36206,1,0,0:0:0:50:kick.wav
329,192,36206,1,0,0:0:0:0:
256,192,36377,1,0,0:0:0:0:
109,192,36377,1,0,0:0:0:50:kick.wav
182,192,36549,1,0,0:0:0:50:kick.wav
329,192,36549,1,0,0:0:0:0:
256,192,36720,1,0,0:0:0:0:
475,192,36720,1,0,0:0:0:0:
36,192,36720,1,0,0:0:0:50:kick.wav
182,192,36892,1,0,0:0:0:50:kick.wav
329,192,36892,1,0,0:0:0:0:
256,192,37063,1,0,0:0:0:0:
109,192,37063,1,0,0:0:0:50:kick.wav
475,192,37063,128,0,37406:0:0:0:0:
182,192,37235,1,0,0:0:0:50:kick.wav
329,192,37235,1,0,0:0:0:0:
402,192,37406,1,0,0:0:0:0:
256,192,37406,1,0,0:0:0:0:
36,192,37406,1,0,0:0:0:50:kick.wav
182,192,37577,1,0,0:0:0:50:kick.wav
329,192,37577,1,0,0:0:0:0:
475,192,37577,128,0,37920:0:0:0:0:
256,192,37749,1,0,0:0:0:0:
109,192,37749,1,0,0:0:0:50:kick.wav
182,192,37920,1,0,0:0:0:50:kick.wav
329,192,37920,1,0,0:0:0:0:
256,192,38092,1,0,0:0:0:50:kick.wav
475,192,38092,1,0,0:0:0:0:
36,192,38092,1,0,0:0:0:0:
182,192,38263,1,0,0:0:0:50:kick.wav
329,192,38263,1,0,0:0:0:0:
109,192,38435,1,0,0:0:0:50:kick.wav
475,192,38435,1,0,0:0:0:0:
402,192,38520,1,0,0:0:0:0:
256,192,38520,1,0,0:0:0:50:kick.wav
475,192,38606,1,0,0:0:0:0:
36,192,38606,1,0,0:0:0:50:kick.wav
182,192,38692,1,0,0:0:0:50:kick.wav
329,192,38692,1,0,0:0:0:0:
402,192,38777,1,0,0:0:0:0:
36,192,38777,1,0,0:0:0:50:kick.wav
109,192,38863,1,0,0:0:0:50:kick.wav
256,192,38863,1,0,0:0:0:0:
36,192,38949,1,0,0:0:0:50:kick.wav
475,192,38949,1,0,0:0:0:0:
329,192,39035,1,0,0:0:0:0:
182,192,39035,1,0,0:0:0:50:kick.wav
475,192,39120,1,0,0:0:0:0:
109,192,39120,1,0,0:0:0:50:kick.wav
256,192,39206,1,0,0:0:0:50:kick.wav
402,192,39206,1,0,0:0:0:0:
475,192,39292,1,0,0:0:0:0:
36,192,39292,1,0,0:0:0:50:kick.wav
182,192,39377,1,0,0:0:0:50:kick.wav
329,192,39377,1,0,0:0:0:0:
402,192,39463,1,0,0:0:0:0:
36,192,39463,1,0,0:0:0:50:kick.wav
109,192,39549,1,0,0:0:0:50:kick.wav
256,192,39549,1,0,0:0:0:0:
36,192,39635,1,0,0:0:0:50:kick.wav
475,192,39635,1,0,0:0:0:0:
182,192,39720,1,0,0:0:0:50:kick.wav
329,192,39720,1,0,0:0:0:0:
109,192,39806,1,0,0:0:0:50:kick.wav
256,192,39849,1,0,0:0:0:0:
402,192,39892,1,0,0:0:0:0:
182,192,39935,1,0,0:0:0:0:
329,192,39977,1,0,0:0:0:0:
36,192,39977,1,0,0:0:0:0:
475,192,40020,1,0,0:0:0:0:
109,192,40063,1,0,0:0:0:0:
256,192,40106,1,0,0:0:0:0:
402,192,40149,1,0,0:0:0:0:
36,192,40149,1,0,0:0:0:0:
182,192,40192,1,0,0:0:0:0:
329,192,40235,1,0,0:0:0:0:
475,192,40277,1,0,0:0:0:0:
109,192,40320,1,0,0:0:0:0:
256,192,40363,1,0,0:0:0:0:
402,192,40406,1,0,0:0:0:0:
182,192,40449,1,0,0:0:0:0:
36,192,40492,1,0,0:0:0:0:
475,192,40492,1,0,0:0:0:0:
329,192,40535,1,0,0:0:0:0:
109,192,40577,1,0,0:0:0:0:
256,192,40620,1,0,0:0:0:0:
402,192,40663,1,0,0:0:0:0:
36,192,40663,1,0,0:0:0:0:
182,192,40706,1,0,0:0:0:0:
329,192,40749,1,0,0:0:0:0:
475,192,40792,1,0,0:0:0:0:
256,192,40835,1,0,0:0:0:0:
109,192,40835,1,0,0:0:0:0:
402,192,40877,1,0,0:0:0:0:
182,192,40920,1,0,0:0:0:0:
36,192,40920,1,0,0:0:0:0:
329,192,40963,1,0,0:0:0:0:
109,192,41006,1,0,0:0:0:0:
475,192,41006,1,0,0:0:0:0:
256,192,41049,1,0,0:0:0:0:
402,192,41092,1,0,0:0:0:0:
182,192,41135,1,0,0:0:0:0:
36,192,41177,1,0,0:0:0:50:kick.wav
329,192,41177,1,0,0:0:0:0:
475,192,41177,1,0,0:0:0:40:crash.wav
109,192,41263,1,0,0:0:0:0:
402,192,41349,1,0,0:0:0:0:
182,192,41435,1,0,0:0:0:0:
36,192,41520,1,0,0:0:0:50:kick.wav
329,192,41520,128,0,41692:0:0:0:0:
475,192,41692,1,0,0:0:0:0:
182,192,41863,1,0,0:0:0:50:kick.wav
329,192,42035,1,0,0:0:0:0:
109,192,42206,1,0,0:0:0:0:
36,192,42206,1,0,0:0:0:50:kick.wav
256,192,42377,1,0,0:0:0:0:
256,192,42463,128,0,42635:0:0:0:0:
109,192,42635,1,0,0:0:0:0:
402,192,42720,1,0,0:0:0:0:
36,192,42806,1,0,0:0:0:0:
329,192,42892,1,0,0:0:0:0:
475,192,42892,1,0,0:0:0:50:kick.wav
182,192,42892,128,0,43063:0:0:0:0:
182,192,43149,128,0,43320:0:0:0:0:
329,192,43320,1,0,0:0:0:0:
475,192,43406,128,0,43577:0:0:0:0:
402,192,43577,1,0,0:0:0:0:
256,192,43577,1,0,0:0:0:0:
36,192,43577,1,0,0:0:0:50:kick.wav
182,192,43663,1,0,0:0:0:0:
329,192,43749,1,0,0:0:0:0:
329,192,43835,128,0,44006:0:0:0:0:
109,192,44006,1,0,0:0:0:0:
475,192,44092,1,0,0:0:0:0:
36,192,44177,1,0,0:0:0:0:
329,192,44263,1,0,0:0:0:50:kick.wav
402,192,44263,1,0,0:0:0:0:
182,192,44263,128,0,44435:0:0:0:0:
475,192,44435,1,0,0:0:0:0:
182,192,44606,1,0,0:0:0:50:kick.wav
329,192,44777,1,0,0:0:0:0:
256,192,44949,1,0,0:0:0:50:kick.wav
109,192,44949,1,0,0:0:0:0:
329,192,45120,1,0,0:0:0:0:
329,192,45206,128,0,45377:0:0:0:0:
109,192,45377,1,0,0:0:0:0:
475,192,45463,1,0,0:0:0:0:
36,192,45549,1,0,0:0:0:0:
329,192,45635,1,0,0:0:0:50:kick.wav
402,192,45635,1,0,0:0:0:0:
182,192,45635,128,0,45806:0:0:0:0:
182,192,45892,128,0,46063:0:0:0:0:
329,192,46063,1,0,0:0:0:0:
475,192,46149,128,0,46320:0:0:0:0:
402,192,46320,1,0,0:0:0:0:
256,192,46320,1,0,0:0:0:50:kick.wav
36,192,46320,1,0,0:0:0:0:kick.wav
182,192,46406,1,0,0:0:0:0:
329,192,46492,1,0,0:0:0:0:
329,192,46577,128,0,46749:0:0:0:0:
109,192,46749,1,0,0:0:0:0:
475,192,46835,1,0,0:0:0:0:
36,192,46920,1,0,0:0:0:0:
329,192,47006,1,0,0:0:0:50:kick.wav
402,192,47006,1,0,0:0:0:0:
182,192,47006,128,0,47177:0:0:0:0:
475,192,47177,1,0,0:0:0:0:
182,192,47349,1,0,0:0:0:50:kick.wav
329,192,47520,1,0,0:0:0:0:
182,192,47692,1,0,0:0:0:50:kick.wav
109,192,47692,1,0,0:0:0:0:
329,192,47863,1,0,0:0:0:0:
329,192,47949,128,0,48120:0:0:0:0:
109,192,48120,1,0,0:0:0:0:
402,192,48206,1,0,0:0:0:0:
36,192,48292,1,0,0:0:0:0:
329,192,48377,1,0,0:0:0:0:
475,192,48377,1,0,0:0:0:50:kick.wav
182,192,48377,128,0,48549:0:0:0:0:
182,192,48635,128,0,48806:0:0:0:0:
329,192,48806,1,0,0:0:0:0:
475,192,48892,128,0,49063:0:0:0:0:
402,192,49063,1,0,0:0:0:0:
109,192,49063,1,0,0:0:0:0:
182,192,49063,1,0,0:0:0:50:kick.wav
256,192,49149,1,0,0:0:0:0:
36,192,49235,1,0,0:0:0:0:
329,192,49320,128,0,49492:0:0:0:0:
109,192,49492,1,0,0:0:0:0:
475,192,49577,1,0,0:0:0:0:
36,192,49663,1,0,0:0:0:0:
329,192,49749,1,0,0:0:0:50:kick.wav
402,192,49749,1,0,0:0:0:0:
182,192,49749,128,0,49920:0:0:0:0:
256,192,49920,1,0,0:0:0:0:
329,192,50006,128,0,50177:0:0:0:0:
109,192,50177,1,0,0:0:0:0:
475,192,50263,1,0,0:0:0:0:
36,192,50349,1,0,0:0:0:0:
329,192,50435,1,0,0:0:0:50:kick.wav
402,192,50435,1,0,0:0:0:0:
182,192,50435,128,0,50606:0:0:0:0:
256,192,50606,1,0,0:0:0:0:
329,192,50692,128,0,50863:0:0:0:0:
109,192,50863,1,0,0:0:0:0:
402,192,50949,1,0,0:0:0:0:
36,192,51035,1,0,0:0:0:0:
329,192,51120,1,0,0:0:0:0:
475,192,51120,1,0,0:0:0:50:kick.wav
182,192,51120,128,0,51292:0:0:0:0:
182,192,51377,128,0,51549:0:0:0:0:
329,192,51549,1,0,0:0:0:0:
475,192,51635,128,0,51806:0:0:0:0:
329,192,51806,1,0,0:0:0:0:
182,192,51806,1,0,0:0:0:0:
36,192,51806,1,0,0:0:0:50:kick.wav
256,192,51892,1,0,0:0:0:0:
109,192,51977,1,0,0:0:0:0:
475,192,52063,128,0,52149:0:0:0:0:
329,192,52149,1,0,0:0:0:0:
36,192,52149,1,0,0:0:0:50:kick.wav
182,192,52235,1,0,0:0:0:0:
256,192,52320,1,0,0:0:0:0:
109,192,52406,1,0,0:0:0:0:
329,192,52492,1,0,0:0:0:50:kick.wav
402,192,52492,1,0,0:0:0:0:
182,192,52492,128,0,52663:0:0:0:0:
475,192,52663,1,0,0:0:0:0:
182,192,52835,1,0,0:0:0:50:kick.wav
329,192,53006,1,0,0:0:0:0:
109,192,53177,1,0,0:0:0:0:
36,192,53177,1,0,0:0:0:50:kick.wav
256,192,53349,1,0,0:0:0:0:
256,192,53435,128,0,53606:0:0:0:0:
109,192,53606,1,0,0:0:0:0:
402,192,53692,1,0,0:0:0:0:
36,192,53777,1,0,0:0:0:0:
329,192,53863,1,0,0:0:0:50:kick.wav
475,192,53863,1,0,0:0:0:0:
182,192,53863,128,0,54035:0:0:0:0:
182,192,54120,128,0,54292:0:0:0:0:
36,192,54206,1,0,0:0:0:50:kick.wav
329,192,54292,1,0,0:0:0:0:
475,192,54377,128,0,54549:0:0:0:0:
402,192,54549,1,0,0:0:0:0:
256,192,54549,1,0,0:0:0:50:kick.wav
36,192,54549,1,0,0:0:0:0:
109,192,54635,1,0,0:0:0:0:
329,192,54720,1,0,0:0:0:0:
329,192,54806,128,0,54977:0:0:0:0:
109,192,54977,1,0,0:0:0:0:
475,192,55063,1,0,0:0:0:0:
36,192,55149,1,0,0:0:0:0:
329,192,55235,1,0,0:0:0:50:kick.wav
402,192,55235,1,0,0:0:0:0:
182,192,55235,128,0,55406:0:0:0:0:
475,192,55406,1,0,0:0:0:0:
182,192,55577,1,0,0:0:0:50:kick.wav
329,192,55749,1,0,0:0:0:0:
256,192,55920,1,0,0:0:0:50:kick.wav
109,192,55920,1,0,0:0:0:0:
329,192,56092,1,0,0:0:0:0:
329,192,56177,128,0,56349:0:0:0:0:
109,192,56349,1,0,0:0:0:0:
475,192,56435,1,0,0:0:0:0:
36,192,56520,1,0,0:0:0:0:
329,192,56606,1,0,0:0:0:50:kick.wav
402,192,56606,1,0,0:0:0:0:
182,192,56606,128,0,56777:0:0:0:0:
182,192,56863,128,0,57035:0:0:0:0:
36,192,56949,1,0,0:0:0:50:kick.wav
329,192,57035,1,0,0:0:0:0:
475,192,57120,128,0,57292:0:0:0:0:
402,192,57292,1,0,0:0:0:0:
256,192,57292,1,0,0:0:0:50:kick.wav
109,192,57292,1,0,0:0:0:0:
36,192,57292,1,0,0:0:0:0:
182,192,57377,1,0,0:0:0:0:
329,192,57463,1,0,0:0:0:0:
329,192,57549,128,0,57720:0:0:0:0:
182,192,57635,1,0,0:0:0:50:kick.wav
109,192,57720,1,0,0:0:0:0:
256,192,57806,1,0,0:0:0:50:kick.wav
402,192,57806,1,0,0:0:0:0:
36,192,57892,1,0,0:0:0:0:
329,192,57977,1,0,0:0:0:0:
475,192,57977,1,0,0:0:0:50:kick.wav
182,192,57977,128,0,58149:0:0:0:0:
402,192,58149,1,0,0:0:0:0:
256,192,58149,1,0,0:0:0:50:kick.wav
329,192,58320,1,0,0:0:0:0:
109,192,58320,1,0,0:0:0:50:kick.wav
182,192,58492,1,0,0:0:0:50:kick.wav
402,192,58492,1,0,0:0:0:0:
475,192,58663,1,0,0:0:0:0:
256,192,58663,1,0,0:0:0:0:
36,192,58663,1,0,0:0:0:50:kick.wav
109,192,58835,1,0,0:0:0:50:kick.wav
329,192,58835,1,0,0:0:0:0:
329,192,58920,128,0,59092:0:0:0:0:
182,192,59006,1,0,0:0:0:50:kick.wav
475,192,59006,1,0,0:0:0:0:
36,192,59092,1,0,0:0:0:0:
256,192,59177,1,0,0:0:0:50:kick.wav
402,192,59177,1,0,0:0:0:0:
109,192,59263,1,0,0:0:0:0:
329,192,59349,1,0,0:0:0:50:kick.wav
475,192,59349,1,0,0:0:0:0:
182,192,59349,128,0,59520:0:0:0:0:
256,192,59520,1,0,0:0:0:50:kick.wav
402,192,59520,1,0,0:0:0:0:
182,192,59606,128,0,59777:0:0:0:0:
329,192,59692,1,0,0:0:0:50:kick.wav
36,192,59692,1,0,0:0:0:0:
402,192,59777,1,0,0:0:0:0:
256,192,59863,1,0,0:0:0:50:kick.wav
109,192,59863,1,0,0:0:0:0:
475,192,59863,128,0,60035:0:0:0:0:
329,192,60035,1,0,0:0:0:50:kick.wav
182,192,60035,1,0,0:0:0:0:
36,192,60035,1,0,0:0:0:0:
402,192,60120,1,0,0:0:0:0:
256,192,60206,1,0,0:0:0:50:kick.wav
109,192,60206,1,0,0:0:0:0:
329,192,60292,1,0,0:0:0:0:
475,192,60377,1,0,0:0:0:0:
109,192,60377,1,0,0:0:0:50:kick.wav
402,192,60463,1,0,0:0:0:0:
256,192,60463,1,0,0:0:0:50:kick.wav
475,192,60549,1,0,0:0:0:0:
36,192,60549,1,0,0:0:0:50:kick.wav
182,192,60635,1,0,0:0:0:50:kick.wav
329,192,60635,1,0,0:0:0:0:
36,192,60720,1,0,0:0:0:50:kick.wav
402,192,60720,1,0,0:0:0:0:
109,192,60806,1,0,0:0:0:50:kick.wav
256,192,60806,1,0,0:0:0:0:
36,192,60892,1,0,0:0:0:50:kick.wav
475,192,60892,1,0,0:0:0:0:
329,192,60977,1,0,0:0:0:0:
182,192,60977,1,0,0:0:0:50:kick.wav
475,192,61063,1,0,0:0:0:0:
109,192,61063,1,0,0:0:0:50:kick.wav
256,192,61149,1,0,0:0:0:50:kick.wav
402,192,61149,1,0,0:0:0:0:
475,192,61235,1,0,0:0:0:0:
36,192,61235,1,0,0:0:0:50:kick.wav
182,192,61320,1,0,0:0:0:50:kick.wav
329,192,61320,1,0,0:0:0:0:
402,192,61406,1,0,0:0:0:0:
36,192,61406,1,0,0:0:0:50:kick.wav
109,192,61492,1,0,0:0:0:50:kick.wav
256,192,61492,1,0,0:0:0:0:
36,192,61577,1,0,0:0:0:50:kick.wav
475,192,61577,1,0,0:0:0:0:
329,192,61663,1,0,0:0:0:0:
182,192,61663,1,0,0:0:0:50:kick.wav
109,192,61749,1,0,0:0:0:50:kick.wav
256,192,61792,1,0,0:0:0:0:
402,192,61835,1,0,0:0:0:0:
182,192,61877,1,0,0:0:0:0:
329,192,61920,1,0,0:0:0:0:
36,192,61920,1,0,0:0:0:0:
475,192,61963,1,0,0:0:0:0:
109,192,62006,1,0,0:0:0:0:
256,192,62049,1,0,0:0:0:0:
402,192,62092,1,0,0:0:0:0:
36,192,62092,1,0,0:0:0:0:
182,192,62135,1,0,0:0:0:0:
329,192,62177,1,0,0:0:0:0:
475,192,62220,1,0,0:0:0:0:
109,192,62263,1,0,0:0:0:0:
256,192,62306,1,0,0:0:0:0:
402,192,62349,1,0,0:0:0:0:
182,192,62392,1,0,0:0:0:0:
475,192,62435,1,0,0:0:0:0:
36,192,62435,1,0,0:0:0:0:
329,192,62477,1,0,0:0:0:0:
109,192,62520,1,0,0:0:0:0:
256,192,62563,1,0,0:0:0:0:
402,192,62606,1,0,0:0:0:0:
36,192,62606,1,0,0:0:0:0:
182,192,62649,1,0,0:0:0:0:
329,192,62692,1,0,0:0:0:0:
475,192,62735,1,0,0:0:0:0:
256,192,62777,1,0,0:0:0:0:
109,192,62777,1,0,0:0:0:0:
402,192,62820,1,0,0:0:0:0:
182,192,62863,1,0,0:0:0:0:
36,192,62863,1,0,0:0:0:0:
329,192,62906,1,0,0:0:0:0:
475,192,62949,1,0,0:0:0:0:
109,192,62949,1,0,0:0:0:0:
256,192,62992,1,0,0:0:0:0:
402,192,63035,1,0,0:0:0:0:
182,192,63077,1,0,0:0:0:0:
329,192,63120,1,0,0:0:0:0:
475,192,63120,1,0,0:0:0:40:crash.wav
36,192,63120,1,0,0:0:0:50:kick.wav
109,192,63206,1,0,0:0:0:0:
402,192,63292,1,0,0:0:0:0:
256,192,63292,128,0,63463:0:0:0:0:
36,192,63377,1,0,0:0:0:0:
182,192,63463,128,0,63635:0:0:0:0:
329,192,63635,128,0,63806:0:0:0:0:
329,192,63977,128,0,64149:0:0:0:0:
329,192,64320,128,0,64492:0:0:0:0:
475,192,64492,128,0,64835:0:0:0:0:
329,192,64663,128,0,64835:0:0:0:0:
329,192,65006,128,0,65177:0:0:0:0:
475,192,65006,128,0,65349:0:0:0:0:
329,192,65349,128,0,65520:0:0:0:0:
256,192,65692,1,0,0:0:0:0:
256,192,65777,128,0,65949:0:0:0:0:
109,192,65949,1,0,0:0:0:0:
475,192,66035,1,0,0:0:0:0:
329,192,66035,128,0,66206:0:0:0:0:
36,192,66120,1,0,0:0:0:0:
182,192,66206,128,0,66377:0:0:0:0:
329,192,66377,128,0,66549:0:0:0:0:
329,192,66720,128,0,66892:0:0:0:0:
329,192,67063,128,0,67235:0:0:0:0:
475,192,67235,128,0,67577:0:0:0:0:
329,192,67406,128,0,67577:0:0:0:0:
329,192,67749,128,0,67920:0:0:0:0:
475,192,67749,128,0,68092:0:0:0:0:
329,192,68092,128,0,68263:0:0:0:0:
256,192,68435,1,0,0:0:0:0:
256,192,68520,128,0,68692:0:0:0:0:
109,192,68692,1,0,0:0:0:0:
475,192,68777,1,0,0:0:0:0:
329,192,68777,128,0,68949:0:0:0:0:
36,192,68863,1,0,0:0:0:0:
182,192,68949,128,0,69120:0:0:0:0:
329,192,69120,128,0,69292:0:0:0:0:
329,192,69463,128,0,69635:0:0:0:0:
329,192,69806,128,0,69977:0:0:0:0:
475,192,69977,128,0,70320:0:0:0:0:
329,192,70149,128,0,70320:0:0:0:0:
475,192,70492,128,0,70835:0:0:0:0:
329,192,70492,128,0,70663:0:0:0:0:
329,192,70835,128,0,71006:0:0:0:0:
256,192,71177,1,0,0:0:0:0:
256,192,71263,128,0,71435:0:0:0:0:
109,192,71435,1,0,0:0:0:0:
475,192,71520,1,0,0:0:0:0:
329,192,71520,128,0,71692:0:0:0:0:
36,192,71606,1,0,0:0:0:0:
182,192,71692,128,0,71863:0:0:0:0:
329,192,71863,128,0,72035:0:0:0:0:
329,192,72206,128,0,72377:0:0:0:0:
256,192,72549,1,0,0:0:0:0:
256,192,72635,128,0,72806:0:0:0:0:
109,192,72806,1,0,0:0:0:0:
475,192,72892,1,0,0:0:0:0:
329,192,72892,128,0,73063:0:0:0:0:
36,192,72977,1,0,0:0:0:0:
182,192,73063,128,0,73235:0:0:0:0:
329,192,73235,128,0,73406:0:0:0:0:
109,192,73320,128,0,73492:0:0:0:0:
256,192,73492,1,0,0:0:0:0:
329,192,73577,128,0,73749:0:0:0:0:
475,192,73577,128,0,73749:0:0:0:0:
36,192,73749,1,0,0:0:0:0:
109,192,73835,1,0,0:0:0:0:
256,192,73920,1,0,0:0:0:0:
256,192,74006,128,0,74177:0:0:0:0:
182,192,74177,1,0,0:0:0:0:
475,192,74263,1,0,0:0:0:0:
329,192,74263,128,0,74435:0:0:0:0:
36,192,74349,1,0,0:0:0:0:
182,192,74435,128,0,74606:0:0:0:0:
329,192,74606,128,0,74777:0:0:0:0:
329,192,74949,128,0,75120:0:0:0:0:
329,192,75292,128,0,75463:0:0:0:0:
475,192,75463,128,0,75806:0:0:0:0:
329,192,75635,128,0,75806:0:0:0:0:
475,192,75977,128,0,76320:0:0:0:0:
329,192,75977,128,0,76149:0:0:0:0:
329,192,76320,128,0,76492:0:0:0:0:
256,192,76663,1,0,0:0:0:0:
256,192,76749,128,0,76920:0:0:0:0:
182,192,76920,1,0,0:0:0:0:
475,192,77006,1,0,0:0:0:0:
329,192,77006,128,0,77177:0:0:0:0:
36,192,77092,1,0,0:0:0:0:
182,192,77177,128,0,77349:0:0:0:0:
329,192,77349,128,0,77520:0:0:0:0:
329,192,77692,128,0,77863:0:0:0:0:
329,192,78035,128,0,78206:0:0:0:0:
475,192,78206,128,0,78549:0:0:0:0:
329,192,78377,128,0,78549:0:0:0:0:
475,192,78720,128,0,79063:0:0:0:0:
329,192,78720,128,0,78892:0:0:0:0:
329,192,79063,128,0,79235:0:0:0:0:
256,192,79406,1,0,0:0:0:0:
256,192,79492,128,0,79663:0:0:0:0:
182,192,79663,1,0,0:0:0:0:
475,192,79749,1,0,0:0:0:0:
329,192,79749,128,0,79920:0:0:0:0:
36,192,79835,1,0,0:0:0:0:
182,192,79920,128,0,80092:0:0:0:0:
329,192,80092,128,0,80263:0:0:0:0:
329,192,80435,128,0,80606:0:0:0:0:
329,192,80777,128,0,80949:0:0:0:0:
475,192,80949,128,0,81292:0:0:0:0:
329,192,81120,128,0,81292:0:0:0:0:
475,192,81463,128,0,81806:0:0:0:0:
329,192,81463,128,0,81635:0:0:0:0:
329,192,81806,128,0,81977:0:0:0:0:
256,192,82149,1,0,0:0:0:0:
256,192,82235,128,0,82406:0:0:0:0:
109,192,82406,1,0,0:0:0:0:
475,192,82492,1,0,0:0:0:0:
329,192,82492,128,0,82663:0:0:0:0:
36,192,82577,1,0,0:0:0:0:
182,192,82663,128,0,82835:0:0:0:0:
329,192,82835,128,0,83006:0:0:0:0:
329,192,83177,128,0,83349:0:0:0:0:
329,192,83520,128,0,83692:0:0:0:0:
182,192,83520,1,0,0:0:0:0:
182,192,83606,1,0,0:0:0:0:
256,192,83692,1,0,0:0:0:0:
475,192,83692,1,0,0:0:0:0:
36,192,83692,1,0,0:0:0:0:
109,192,83777,1,0,0:0:0:0:
182,192,83863,128,0,84035:0:0:0:0:
329,192,83863,1,0,0:0:0:0:
36,192,83949,1,0,0:0:0:0:
402,192,84035,1,0,0:0:0:0:
475,192,84035,1,0,0:0:0:20:snare.wav
182,192,84206,1,0,0:0:0:0:
329,192,84206,128,0,84377:0:0:0:0:
182,192,84292,1,0,0:0:0:0:
256,192,84377,1,0,0:0:0:0:
36,192,84377,1,0,0:0:0:0:
109,192,84463,1,0,0:0:0:0:
329,192,84549,1,0,0:0:0:0:
182,192,84549,128,0,84720:0:0:0:0:
402,192,84635,1,0,0:0:0:0:
475,192,84720,1,0,0:0:0:0:
36,192,84720,1,0,0:0:0:0:
109,192,84806,1,0,0:0:0:0:
182,192,84892,1,0,0:0:0:0:
329,192,84892,128,0,85063:0:0:0:0:
256,192,85063,1,0,0:0:0:40:crash.wav
402,192,85063,1,0,0:0:0:0:
475,192,85063,1,0,0:0:0:50:kick.wav
109,192,85063,1,0,0:0:0:0:
36,192,85063,1,0,0:0:0:0:
109,192,101606,132,0,102977:0:0:0:0:
256,192,102977,128,0,104349:0:0:0:0:
402,192,104349,128,0,106320:0:0:0:0:
475,192,106320,1,0,0:0:0:0:
402,192,106492,1,0,0:0:0:0:
329,192,106663,1,0,0:0:0:0:
182,192,106835,1,0,0:0:0:0:
36,192,107006,1,0,0:0:0:0:
475,192,107006,1,0,0:0:0:20:crash.wav
329,192,107177,1,0,0:0:0:0:
182,192,107349,1,0,0:0:0:0:
109,192,107520,1,0,0:0:0:0:
329,192,109749,1,0,0:0:0:0:
182,192,109920,1,0,0:0:0:0:
36,192,110263,1,0,0:0:0:0:
402,192,112663,1,0,0:0:0:0:
329,192,112835,1,0,0:0:0:0:
182,192,113006,1,0,0:0:0:0:
402,192,115235,1,0,0:0:0:0:
329,192,115406,1,0,0:0:0:0:
109,192,115749,128,0,116092:0:0:0:0:
182,192,116092,128,0,116435:0:0:0:0:
256,192,116435,128,0,116777:0:0:0:0:
329,192,116777,128,0,117120:0:0:0:0:
402,192,117120,128,0,117463:0:0:0:0:
475,192,117463,128,0,117977:0:0:0:0:
329,192,118149,1,0,0:0:0:0:
182,192,118320,1,0,0:0:0:0:
36,192,118492,1,0,0:0:0:0:
109,192,119520,1,0,0:0:0:0:
256,192,119692,1,0,0:0:0:0:
402,192,119863,1,0,0:0:0:0:
182,192,120377,1,0,0:0:0:0:
329,192,120720,1,0,0:0:0:0:
182,192,120892,1,0,0:0:0:0:
36,192,121235,1,0,0:0:0:0:
109,192,122435,128,0,122777:0:0:0:0:
109,192,122949,128,0,123292:0:0:0:0:
256,192,123292,1,0,0:0:0:0:
329,192,123635,1,0,0:0:0:0:
182,192,123806,1,0,0:0:0:0:
36,192,123977,1,0,0:0:0:0:
109,192,125006,1,0,0:0:0:0:
256,192,125177,1,0,0:0:0:0:
329,192,125349,1,0,0:0:0:0:
475,192,125349,128,0,127406:0:0:0:0:
402,192,125863,1,0,0:0:0:0:
256,192,126206,1,0,0:0:0:0:
182,192,126377,1,0,0:0:0:0:
109,192,126720,1,0,0:0:0:0:
182,192,127063,1,0,0:0:0:0:
256,192,127406,1,0,0:0:0:0:
475,192,127577,1,0,0:0:0:0:
36,192,127577,1,0,0:0:0:0:
182,192,127749,1,0,0:0:0:0:
329,192,127749,1,0,0:0:0:0:
475,192,127920,1,0,0:0:0:0:
36,192,127920,1,0,0:0:0:0:
256,192,128092,1,0,0:0:0:0:
402,192,128092,1,0,0:0:0:0:
256,192,128177,1,0,0:0:0:0:
109,192,128177,1,0,0:0:0:0:
329,192,128263,1,0,0:0:0:0:
36,192,128349,1,0,0:0:0:0:
475,192,128435,1,0,0:0:0:0:
256,192,128435,1,0,0:0:0:0:
256,192,128520,1,0,0:0:0:0:
402,192,128606,1,0,0:0:0:0:
109,192,128606,1,0,0:0:0:0:
256,192,128777,1,0,0:0:0:0:
256,192,128863,1,0,0:0:0:0:
329,192,128949,1,0,0:0:0:0:
475,192,128949,1,0,0:0:0:20:crash.wav
36,192,128949,1,0,0:0:0:25:kick.wav
182,192,129120,1,0,0:0:0:0:
402,192,129206,1,0,0:0:0:0:
109,192,129377,1,0,0:0:0:0:
256,192,129463,1,0,0:0:0:0:
182,192,129635,1,0,0:0:0:0:
329,192,129720,1,0,0:0:0:0:
36,192,129892,1,0,0:0:0:0:
256,192,129977,1,0,0:0:0:0:
475,192,130063,1,0,0:0:0:0:
109,192,130149,1,0,0:0:0:0:
329,192,130235,1,0,0:0:0:0:
475,192,130320,1,0,0:0:0:0:
182,192,130492,1,0,0:0:0:0:
402,192,130577,1,0,0:0:0:0:
109,192,130749,1,0,0:0:0:0:
329,192,130835,1,0,0:0:0:0:
36,192,131006,1,0,0:0:0:0:
256,192,131092,1,0,0:0:0:0:
109,192,131263,1,0,0:0:0:0:
329,192,131349,1,0,0:0:0:0:
475,192,131435,1,0,0:0:0:0:
36,192,131520,1,0,0:0:0:0:
182,192,131606,1,0,0:0:0:0:
402,192,131692,1,0,0:0:0:0:
109,192,131863,1,0,0:0:0:0:
256,192,131949,1,0,0:0:0:0:
182,192,132120,1,0,0:0:0:0:
329,192,132206,1,0,0:0:0:0:
256,192,132377,1,0,0:0:0:0:
402,192,132463,1,0,0:0:0:0:
109,192,132635,1,0,0:0:0:0:
329,192,132720,1,0,0:0:0:0:
475,192,132806,1,0,0:0:0:0:
36,192,132892,1,0,0:0:0:0:
256,192,132977,1,0,0:0:0:0:
402,192,133063,1,0,0:0:0:0:
109,192,133235,1,0,0:0:0:0:
329,192,133320,1,0,0:0:0:0:
182,192,133492,1,0,0:0:0:0:
402,192,133577,1,0,0:0:0:0:
256,192,133749,1,0,0:0:0:0:
475,192,133835,1,0,0:0:0:0:
109,192,134006,1,0,0:0:0:0:
402,192,134092,1,0,0:0:0:0:
329,192,134177,1,0,0:0:0:0:
36,192,134263,1,0,0:0:0:0:
182,192,134349,1,0,0:0:0:0:
329,192,134435,1,0,0:0:0:0:
109,192,134606,1,0,0:0:0:0:
256,192,134692,1,0,0:0:0:0:
182,192,134863,1,0,0:0:0:0:
329,192,134949,1,0,0:0:0:0:
256,192,135120,1,0,0:0:0:0:
402,192,135206,1,0,0:0:0:0:
109,192,135377,1,0,0:0:0:0:
329,192,135463,1,0,0:0:0:0:
475,192,135549,1,0,0:0:0:0:
36,192,135635,1,0,0:0:0:0:
256,192,135720,1,0,0:0:0:0:
475,192,135806,1,0,0:0:0:0:
182,192,135977,1,0,0:0:0:0:
402,192,136063,1,0,0:0:0:0:
109,192,136235,1,0,0:0:0:0:
329,192,136320,1,0,0:0:0:0:
182,192,136492,1,0,0:0:0:0:
402,192,136577,1,0,0:0:0:0:
109,192,136749,1,0,0:0:0:0:
329,192,136835,1,0,0:0:0:0:
475,192,136920,1,0,0:0:0:0:
36,192,137006,1,0,0:0:0:0:
182,192,137092,1,0,0:0:0:0:
402,192,137177,1,0,0:0:0:0:
109,192,137349,1,0,0:0:0:0:
256,192,137435,1,0,0:0:0:0:
36,192,137606,1,0,0:0:0:0:
329,192,137692,1,0,0:0:0:0:
182,192,137863,1,0,0:0:0:0:
402,192,137949,1,0,0:0:0:0:
109,192,138120,1,0,0:0:0:0:
329,192,138206,1,0,0:0:0:0:
475,192,138292,1,0,0:0:0:0:
36,192,138377,1,0,0:0:0:0:
182,192,138463,1,0,0:0:0:0:
402,192,138549,1,0,0:0:0:0:
109,192,138720,1,0,0:0:0:0:
256,192,138806,1,0,0:0:0:0:
182,192,138977,1,0,0:0:0:0:
329,192,139063,1,0,0:0:0:0:
256,192,139235,1,0,0:0:0:0:
402,192,139320,1,0,0:0:0:0:
109,192,139492,1,0,0:0:0:0:
475,192,139577,1,0,0:0:0:0:
402,192,139663,1,0,0:0:0:0:
36,192,139749,1,0,0:0:0:0:
182,192,139835,1,0,0:0:0:0:
329,192,139920,1,0,0:0:0:0:
109,192,140092,1,0,0:0:0:0:
256,192,140177,1,0,0:0:0:0:
182,192,140349,1,0,0:0:0:0:
329,192,140435,1,0,0:0:0:0:
256,192,140606,1,0,0:0:0:0:
402,192,140692,1,0,0:0:0:0:
109,192,140863,1,0,0:0:0:0:
256,192,140949,1,0,0:0:0:0:
402,192,141035,1,0,0:0:0:0:
36,192,141120,1,0,0:0:0:0:
256,192,141206,1,0,0:0:0:0:
475,192,141292,1,0,0:0:0:0:
182,192,141463,1,0,0:0:0:0:
402,192,141549,1,0,0:0:0:0:
109,192,141720,1,0,0:0:0:0:
329,192,141806,1,0,0:0:0:0:
36,192,141977,1,0,0:0:0:0:
256,192,142063,1,0,0:0:0:0:
109,192,142235,1,0,0:0:0:0:
329,192,142320,1,0,0:0:0:0:
475,192,142406,1,0,0:0:0:0:
36,192,142492,1,0,0:0:0:0:
182,192,142577,1,0,0:0:0:0:
402,192,142663,1,0,0:0:0:0:
109,192,142835,1,0,0:0:0:0:
256,192,142920,1,0,0:0:0:0:
182,192,143092,1,0,0:0:0:0:
329,192,143177,1,0,0:0:0:0:
256,192,143349,1,0,0:0:0:0:
402,192,143435,1,0,0:0:0:0:
109,192,143606,1,0,0:0:0:0:
329,192,143692,1,0,0:0:0:0:
475,192,143777,1,0,0:0:0:0:
36,192,143863,1,0,0:0:0:0:
256,192,143949,1,0,0:0:0:0:
402,192,144035,1,0,0:0:0:0:
109,192,144206,1,0,0:0:0:0:
329,192,144292,1,0,0:0:0:0:
182,192,144463,1,0,0:0:0:0:
402,192,144549,1,0,0:0:0:0:
256,192,144720,1,0,0:0:0:0:
475,192,144806,1,0,0:0:0:0:
109,192,144977,1,0,0:0:0:0:
402,192,145063,1,0,0:0:0:0:
329,192,145149,1,0,0:0:0:0:
36,192,145235,1,0,0:0:0:0:
182,192,145320,1,0,0:0:0:0:
402,192,145406,1,0,0:0:0:0:
109,192,145577,1,0,0:0:0:0:
329,192,145663,1,0,0:0:0:0:
182,192,145835,1,0,0:0:0:0:
402,192,145920,1,0,0:0:0:0:
256,192,146092,1,0,0:0:0:0:
475,192,146177,1,0,0:0:0:0:
36,192,146349,1,0,0:0:0:0:
182,192,146435,1,0,0:0:0:0:
402,192,146520,1,0,0:0:0:0:
109,192,146606,1,0,0:0:0:0:
329,192,146692,1,0,0:0:0:0:
475,192,146777,1,0,0:0:0:0:
182,192,146949,1,0,0:0:0:0:
402,192,147035,1,0,0:0:0:0:
109,192,147206,1,0,0:0:0:0:
329,192,147292,1,0,0:0:0:0:
182,192,147463,1,0,0:0:0:0:
402,192,147549,1,0,0:0:0:0:
109,192,147720,1,0,0:0:0:0:
329,192,147806,1,0,0:0:0:0:
475,192,147892,1,0,0:0:0:0:
36,192,147977,1,0,0:0:0:0:
182,192,148063,1,0,0:0:0:0:
402,192,148149,1,0,0:0:0:0:
109,192,148320,1,0,0:0:0:0:
256,192,148406,1,0,0:0:0:0:
182,192,148577,1,0,0:0:0:0:
329,192,148663,1,0,0:0:0:0:
256,192,148835,1,0,0:0:0:0:
402,192,148920,1,0,0:0:0:0:
109,192,149092,1,0,0:0:0:0:
329,192,149177,1,0,0:0:0:0:
475,192,149263,1,0,0:0:0:0:
36,192,149349,1,0,0:0:0:0:
182,192,149435,1,0,0:0:0:0:
402,192,149520,1,0,0:0:0:0:
109,192,149692,1,0,0:0:0:0:
329,192,149777,1,0,0:0:0:0:
182,192,149949,1,0,0:0:0:0:
402,192,150035,1,0,0:0:0:0:
329,192,150206,1,0,0:0:0:0:
475,192,150292,1,0,0:0:0:0:
256,192,150377,1,0,0:0:0:0:
109,192,150463,1,0,0:0:0:0:
402,192,150892,1,0,0:0:0:30:snare.wav
182,192,150892,1,0,0:0:0:0:
36,192,150892,1,0,0:0:0:20:crash.wav
256,192,151063,1,0,0:0:0:0:
182,192,151235,1,0,0:0:0:0:
475,192,151235,1,0,0:0:0:30:snare.wav
109,192,151406,1,0,0:0:0:0:
475,192,151577,1,0,0:0:0:30:snare.wav
475,192,151920,1,0,0:0:0:30:snare.wav
475,192,152263,1,0,0:0:0:30:snare.wav
475,192,152606,1,0,0:0:0:30:snare.wav
475,192,152949,1,0,0:0:0:30:snare.wav
475,192,153292,1,0,0:0:0:30:snare.wav
475,192,153635,1,0,0:0:0:30:snare.wav
256,192,153635,1,0,0:0:0:0:
182,192,153806,1,0,0:0:0:0:
475,192,153977,1,0,0:0:0:30:snare.wav
36,192,154149,1,0,0:0:0:0:
475,192,154320,1,0,0:0:0:30:snare.wav
475,192,154663,1,0,0:0:0:30:snare.wav
475,192,155006,1,0,0:0:0:30:snare.wav
475,192,155349,1,0,0:0:0:30:snare.wav
475,192,155692,1,0,0:0:0:30:snare.wav
475,192,156035,1,0,0:0:0:30:snare.wav
36,192,156377,1,0,0:0:0:30:snare.wav
402,192,156549,1,0,0:0:0:0:
329,192,156720,1,0,0:0:0:0:
36,192,156720,1,0,0:0:0:30:snare.wav
182,192,156892,1,0,0:0:0:0:
36,192,157063,1,0,0:0:0:30:snare.wav
36,192,157406,1,0,0:0:0:30:snare.wav
36,192,157749,1,0,0:0:0:30:snare.wav
36,192,158092,1,0,0:0:0:30:snare.wav
36,192,158435,1,0,0:0:0:30:snare.wav
36,192,158777,1,0,0:0:0:30:snare.wav
36,192,159120,1,0,0:0:0:30:snare.wav
402,192,159120,1,0,0:0:0:0:
329,192,159292,1,0,0:0:0:0:
36,192,159463,1,0,0:0:0:30:snare.wav
109,192,159635,1,0,0:0:0:0:
36,192,159806,1,0,0:0:0:30:snare.wav
182,192,159977,1,0,0:0:0:0:
36,192,160149,1,0,0:0:0:30:snare.wav
256,192,160320,1,0,0:0:0:0:
36,192,160492,1,0,0:0:0:30:snare.wav
329,192,160663,1,0,0:0:0:0:
36,192,160835,1,0,0:0:0:30:snare.wav
402,192,161006,1,0,0:0:0:0:
36,192,161177,1,0,0:0:0:30:snare.wav
475,192,161349,1,0,0:0:0:0:
36,192,161520,1,0,0:0:0:30:snare.wav
36,192,161863,1,0,0:0:0:40:snare.wav
109,192,161863,1,0,0:0:0:0:
475,192,161863,1,0,0:0:0:0:
182,192,161949,1,0,0:0:0:0:
329,192,162035,1,0,0:0:0:0:
475,192,162206,1,0,0:0:0:0:
256,192,162206,1,0,0:0:0:0:
36,192,162206,1,0,0:0:0:40:snare.wav
402,192,162292,1,0,0:0:0:0:
182,192,162463,1,0,0:0:0:0:
36,192,162549,1,0,0:0:0:40:snare.wav
329,192,162549,1,0,0:0:0:0:
475,192,162549,1,0,0:0:0:0:
256,192,162720,1,0,0:0:0:0:
402,192,162806,1,0,0:0:0:0:
475,192,162892,1,0,0:0:0:0:
36,192,162892,1,0,0:0:0:40:snare.wav
182,192,162977,1,0,0:0:0:0:
256,192,163063,1,0,0:0:0:0:
402,192,163149,1,0,0:0:0:0:
475,192,163235,1,0,0:0:0:0:
109,192,163235,1,0,0:0:0:0:
36,192,163235,1,0,0:0:0:40:snare.wav
256,192,163320,1,0,0:0:0:0:
329,192,163406,1,0,0:0:0:0:
475,192,163577,1,0,0:0:0:0:
182,192,163577,1,0,0:0:0:0:
36,192,163577,1,0,0:0:0:40:snare.wav
402,192,163663,1,0,0:0:0:0:
109,192,163835,1,0,0:0:0:0:
36,192,163920,1,0,0:0:0:40:snare.wav
256,192,163920,1,0,0:0:0:0:
475,192,163920,1,0,0:0:0:0:
182,192,164092,1,0,0:0:0:0:
329,192,164177,1,0,0:0:0:0:
475,192,164263,1,0,0:0:0:0:
36,192,164263,1,0,0:0:0:40:snare.wav
109,192,164349,1,0,0:0:0:0:
256,192,164435,1,0,0:0:0:0:
402,192,164520,1,0,0:0:0:0:
475,192,164606,1,0,0:0:0:0:
182,192,164606,1,0,0:0:0:0:
36,192,164606,1,0,0:0:0:40:snare.wav
256,192,164692,1,0,0:0:0:0:
329,192,164777,1,0,0:0:0:0:
475,192,164949,1,0,0:0:0:0:
256,192,164949,1,0,0:0:0:0:
36,192,164949,1,0,0:0:0:40:snare.wav
402,192,165035,1,0,0:0:0:0:
182,192,165206,1,0,0:0:0:0:
329,192,165292,1,0,0:0:0:0:
475,192,165292,1,0,0:0:0:0:
36,192,165292,1,0,0:0:0:40:snare.wav
256,192,165463,1,0,0:0:0:0:
402,192,165549,1,0,0:0:0:0:
475,192,165635,1,0,0:0:0:0:
36,192,165635,1,0,0:0:0:40:snare.wav
109,192,165720,1,0,0:0:0:0:
256,192,165806,1,0,0:0:0:0:
402,192,165892,1,0,0:0:0:0:
475,192,165977,1,0,0:0:0:0:
182,192,165977,1,0,0:0:0:0:
36,192,165977,1,0,0:0:0:40:snare.wav
256,192,166063,1,0,0:0:0:0:
402,192,166149,1,0,0:0:0:0:
475,192,166320,1,0,0:0:0:0:
182,192,166320,1,0,0:0:0:0:
36,192,166320,1,0,0:0:0:40:snare.wav
329,192,166406,1,0,0:0:0:0:
109,192,166577,1,0,0:0:0:0:
36,192,166663,1,0,0:0:0:40:snare.wav
256,192,166663,1,0,0:0:0:0:
475,192,166663,1,0,0:0:0:0:
182,192,166835,1,0,0:0:0:0:
329,192,166920,1,0,0:0:0:0:
475,192,167006,1,0,0:0:0:0:
36,192,167006,1,0,0:0:0:40:snare.wav
182,192,167092,1,0,0:0:0:0:
256,192,167177,1,0,0:0:0:0:
402,192,167263,1,0,0:0:0:0:
36,192,167349,1,0,0:0:0:40:snare.wav
109,192,167349,1,0,0:0:0:0:
182,192,167435,1,0,0:0:0:0:
256,192,167520,1,0,0:0:0:0:
475,192,167520,1,0,0:0:0:40:snare.wav
109,192,167606,1,0,0:0:0:0:
36,192,167692,1,0,0:0:0:40:snare.wav
329,192,167692,1,0,0:0:0:0:
182,192,167777,1,0,0:0:0:0:
402,192,167863,1,0,0:0:0:0:
475,192,167863,1,0,0:0:0:40:snare.wav
109,192,168035,1,0,0:0:0:0:
36,192,168035,1,0,0:0:0:40:snare.wav
182,192,168120,1,0,0:0:0:0:
256,192,168206,1,0,0:0:0:0:
475,192,168206,1,0,0:0:0:40:snare.wav
109,192,168292,1,0,0:0:0:0:
36,192,168377,1,0,0:0:0:40:snare.wav
329,192,168377,1,0,0:0:0:0:
182,192,168463,1,0,0:0:0:0:
402,192,168549,1,0,0:0:0:0:
475,192,168549,1,0,0:0:0:40:snare.wav
109,192,168720,1,0,0:0:0:0:
36,192,168720,1,0,0:0:0:40:snare.wav
182,192,168806,1,0,0:0:0:0:
256,192,168892,1,0,0:0:0:0:
475,192,168892,1,0,0:0:0:40:snare.wav
109,192,168977,1,0,0:0:0:0:
36,192,169063,1,0,0:0:0:40:snare.wav
329,192,169063,1,0,0:0:0:0:
182,192,169149,1,0,0:0:0:0:
402,192,169235,1,0,0:0:0:0:
475,192,169235,1,0,0:0:0:40:snare.wav
109,192,169406,1,0,0:0:0:0:
36,192,169406,1,0,0:0:0:40:snare.wav
182,192,169492,1,0,0:0:0:0:
256,192,169577,1,0,0:0:0:0:
475,192,169577,1,0,0:0:0:40:snare.wav
109,192,169663,1,0,0:0:0:0:
36,192,169749,1,0,0:0:0:40:snare.wav
329,192,169749,1,0,0:0:0:0:
182,192,169835,1,0,0:0:0:0:
402,192,169920,1,0,0:0:0:0:
475,192,169920,1,0,0:0:0:40:snare.wav
182,192,170092,1,0,0:0:0:50:snare.wav
109,192,170092,1,0,0:0:0:0:
329,192,170177,1,0,0:0:0:50:snare.wav
402,192,170177,1,0,0:0:0:0:
182,192,170263,1,0,0:0:0:50:snare.wav
109,192,170263,1,0,0:0:0:0:
329,192,170349,1,0,0:0:0:50:snare.wav
402,192,170349,1,0,0:0:0:0:
36,192,170435,1,0,0:0:0:50:snare.wav
109,192,170435,1,0,0:0:0:0:
402,192,170520,1,0,0:0:0:0:
475,192,170520,1,0,0:0:0:50:snare.wav
109,192,170606,1,0,0:0:0:0:
36,192,170606,1,0,0:0:0:50:snare.wav
402,192,170692,1,0,0:0:0:0:
475,192,170692,1,0,0:0:0:50:snare.wav
182,192,170777,1,0,0:0:0:50:snare.wav
109,192,170777,1,0,0:0:0:0:
329,192,170863,1,0,0:0:0:50:snare.wav
402,192,170863,1,0,0:0:0:0:
182,192,170949,1,0,0:0:0:50:snare.wav
109,192,170949,1,0,0:0:0:0:
329,192,171035,1,0,0:0:0:50:snare.wav
402,192,171035,1,0,0:0:0:0:
109,192,171120,1,0,0:0:0:0:
36,192,171120,1,0,0:0:0:50:snare.wav
402,192,171206,1,0,0:0:0:0:
475,192,171206,1,0,0:0:0:50:snare.wav
109,192,171292,1,0,0:0:0:0:
36,192,171292,1,0,0:0:0:50:snare.wav
402,192,171377,1,0,0:0:0:0:
475,192,171377,1,0,0:0:0:50:snare.wav
256,192,171463,1,0,0:0:0:0:
182,192,171463,1,0,0:0:0:50:snare.wav
475,192,172835,1,0,0:0:0:50:kick.wav
256,192,172835,1,0,0:0:0:30:crash.wav
36,192,172835,1,0,0:0:0:0:
182,192,172920,1,0,0:0:0:0:
329,192,173006,1,0,0:0:0:0:
402,192,173177,1,0,0:0:0:0:
475,192,173177,1,0,0:0:0:50:kick.wav
109,192,173177,1,0,0:0:0:0:
256,192,173263,1,0,0:0:0:0:
182,192,173435,1,0,0:0:0:0:
36,192,173520,1,0,0:0:0:50:kick.wav
329,192,173520,1,0,0:0:0:0:
256,192,173692,1,0,0:0:0:0:
402,192,173777,1,0,0:0:0:0:
182,192,173863,1,0,0:0:0:0:
109,192,173863,1,0,0:0:0:0:
36,192,173863,1,0,0:0:0:50:kick.wav
256,192,173949,1,0,0:0:0:0:
329,192,174035,1,0,0:0:0:0:
402,192,174120,1,0,0:0:0:0:
256,192,174206,1,0,0:0:0:50:kick.wav
109,192,174206,1,0,0:0:0:0:
182,192,174292,1,0,0:0:0:0:
475,192,174377,1,0,0:0:0:0:
256,192,174549,1,0,0:0:0:0:
109,192,174549,1,0,0:0:0:0:
36,192,174549,1,0,0:0:0:50:kick.wav
402,192,174635,1,0,0:0:0:0:
182,192,174806,1,0,0:0:0:0:
329,192,174892,1,0,0:0:0:0:
475,192,174892,1,0,0:0:0:50:kick.wav
109,192,175063,1,0,0:0:0:0:
256,192,175149,1,0,0:0:0:0:
402,192,175235,1,0,0:0:0:0:
475,192,175235,1,0,0:0:0:50:kick.wav
36,192,175235,1,0,0:0:0:0:
182,192,175320,1,0,0:0:0:0:
329,192,175406,1,0,0:0:0:0:
475,192,175492,1,0,0:0:0:0:
256,192,175577,1,0,0:0:0:50:kick.wav
109,192,175577,1,0,0:0:0:0:
182,192,175663,1,0,0:0:0:0:
329,192,175749,1,0,0:0:0:0:
109,192,175920,1,0,0:0:0:0:
36,192,175920,1,0,0:0:0:50:kick.wav
256,192,175920,1,0,0:0:0:0:
402,192,176006,1,0,0:0:0:0:
182,192,176177,1,0,0:0:0:0:
329,192,176263,1,0,0:0:0:0:
36,192,176263,1,0,0:0:0:50:kick.wav
256,192,176435,1,0,0:0:0:0:
402,192,176520,1,0,0:0:0:0:
475,192,176606,1,0,0:0:0:0:
109,192,176606,1,0,0:0:0:0:
36,192,176606,1,0,0:0:0:50:kick.wav
182,192,176692,1,0,0:0:0:0:
329,192,176777,1,0,0:0:0:0:
475,192,176863,1,0,0:0:0:0:
256,192,176949,1,0,0:0:0:0:
36,192,176949,1,0,0:0:0:50:kick.wav
329,192,177035,1,0,0:0:0:0:
475,192,177120,1,0,0:0:0:0:
402,192,177292,1,0,0:0:0:0:
182,192,177292,1,0,0:0:0:0:
36,192,177292,1,0,0:0:0:50:kick.wav
256,192,177377,1,0,0:0:0:0:
109,192,177549,1,0,0:0:0:0:
182,192,177635,1,0,0:0:0:0:
402,192,177635,1,0,0:0:0:50:kick.wav
256,192,177806,1,0,0:0:0:0:
475,192,177892,1,0,0:0:0:0:
329,192,177977,1,0,0:0:0:0:
109,192,177977,1,0,0:0:0:0:
36,192,177977,1,0,0:0:0:50:kick.wav
182,192,178063,1,0,0:0:0:0:
402,192,178149,1,0,0:0:0:0:
256,192,178235,1,0,0:0:0:0:
475,192,178320,1,0,0:0:0:50:kick.wav
36,192,178320,1,0,0:0:0:0:
182,192,178406,1,0,0:0:0:0:
329,192,178492,1,0,0:0:0:0:
402,192,178663,1,0,0:0:0:0:
475,192,178663,1,0,0:0:0:50:kick.wav
109,192,178663,1,0,0:0:0:0:
256,192,178749,1,0,0:0:0:0:
182,192,178920,1,0,0:0:0:0:
329,192,179006,1,0,0:0:0:0:
36,192,179006,1,0,0:0:0:50:kick.wav
109,192,179177,1,0,0:0:0:0:
256,192,179263,1,0,0:0:0:0:
182,192,179349,1,0,0:0:0:0:kick.wav
402,192,179349,1,0,0:0:0:0:
475,192,179349,1,0,0:0:0:50:kick.wav
36,192,179435,1,0,0:0:0:0:
329,192,179520,1,0,0:0:0:0:
402,192,179606,1,0,0:0:0:0:
256,192,179692,1,0,0:0:0:50:kick.wav
109,192,179692,1,0,0:0:0:0:
182,192,179777,1,0,0:0:0:0:
475,192,179863,1,0,0:0:0:0:
256,192,180035,1,0,0:0:0:0:
109,192,180035,1,0,0:0:0:0:
36,192,180035,1,0,0:0:0:50:kick.wav
402,192,180120,1,0,0:0:0:0:
182,192,180292,1,0,0:0:0:0:
36,192,180377,1,0,0:0:0:0:
475,192,180377,1,0,0:0:0:50:kick.wav
109,192,180549,1,0,0:0:0:0:
256,192,180635,1,0,0:0:0:0:
329,192,180720,1,0,0:0:0:0:
109,192,180720,1,0,0:0:0:0:
36,192,180720,1,0,0:0:0:50:kick.wav
182,192,180806,1,0,0:0:0:0:
402,192,180892,1,0,0:0:0:0:
475,192,180977,1,0,0:0:0:0:
329,192,181063,1,0,0:0:0:50:kick.wav
36,192,181063,1,0,0:0:0:0:
109,192,181149,1,0,0:0:0:0:
256,192,181235,1,0,0:0:0:0:
182,192,181406,1,0,0:0:0:0:
36,192,181406,1,0,0:0:0:50:kick.wav
402,192,181406,1,0,0:0:0:0:
475,192,181406,1,0,0:0:0:0:
329,192,181492,1,0,0:0:0:0:
109,192,181663,1,0,0:0:0:0:
256,192,181749,1,0,0:0:0:0:
402,192,181749,1,0,0:0:0:50:kick.wav
182,192,181920,1,0,0:0:0:0:
256,192,182006,1,0,0:0:0:0:
402,192,182092,1,0,0:0:0:0:
475,192,182092,1,0,0:0:0:50:kick.wav
36,192,182092,1,0,0:0:0:0:
109,192,182177,1,0,0:0:0:0:
329,192,182263,1,0,0:0:0:0:
402,192,182349,1,0,0:0:0:0:
182,192,182435,1,0,0:0:0:0:
36,192,182435,1,0,0:0:0:50:kick.wav
256,192,182520,1,0,0:0:0:0:
475,192,182606,1,0,0:0:0:0:
109,192,182777,1,0,0:0:0:0:
36,192,182777,1,0,0:0:0:50:kick.wav
402,192,182777,1,0,0:0:0:0:
256,192,182863,1,0,0:0:0:0:
182,192,183035,1,0,0:0:0:0:
36,192,183120,1,0,0:0:0:50:kick.wav
329,192,183120,1,0,0:0:0:0:
256,192,183292,1,0,0:0:0:0:
402,192,183377,1,0,0:0:0:0:
182,192,183463,1,0,0:0:0:0:
36,192,183463,1,0,0:0:0:50:kick.wav
329,192,183549,1,0,0:0:0:0:
256,192,183635,1,0,0:0:0:50:kick.wav
475,192,183635,1,0,0:0:0:0:
402,192,183720,1,0,0:0:0:0:
182,192,183720,1,0,0:0:0:50:kick.wav
109,192,183806,1,0,0:0:0:50:kick.wav
36,192,183806,1,0,0:0:0:0:
256,192,183892,1,0,0:0:0:0:
329,192,183977,1,0,0:0:0:0:
182,192,184063,1,0,0:0:0:0:
36,192,184149,1,0,0:0:0:0:
402,192,184149,1,0,0:0:0:0:
475,192,184149,1,0,0:0:0:50:kick.wav
256,192,184235,1,0,0:0:0:0:
109,192,184320,1,0,0:0:0:0:
182,192,184406,1,0,0:0:0:0:
329,192,184492,1,0,0:0:0:50:kick.wav
36,192,184492,1,0,0:0:0:0:kick.wav
109,192,184577,1,0,0:0:0:0:
256,192,184663,1,0,0:0:0:0:
402,192,184749,1,0,0:0:0:0:
475,192,184835,1,0,0:0:0:0:
109,192,184835,1,0,0:0:0:0:
36,192,184835,1,0,0:0:0:50:kick.wav
182,192,184920,1,0,0:0:0:0:
329,192,185006,1,0,0:0:0:0:
402,192,185092,1,0,0:0:0:0:
256,192,185177,1,0,0:0:0:0:
36,192,185177,1,0,0:0:0:50:kick.wav
329,192,185263,1,0,0:0:0:0:
475,192,185349,1,0,0:0:0:0:
182,192,185435,1,0,0:0:0:0:
36,192,185520,1,0,0:0:0:50:kick.wav
109,192,185520,1,0,0:0:0:0:
256,192,185520,1,0,0:0:0:0:
402,192,185606,1,0,0:0:0:0:
182,192,185692,1,0,0:0:0:0:
256,192,185777,1,0,0:0:0:0:
329,192,185863,1,0,0:0:0:0:
109,192,185863,1,0,0:0:0:50:kick.wav
36,192,185949,1,0,0:0:0:0:
402,192,186035,1,0,0:0:0:0:
182,192,186120,1,0,0:0:0:0:
256,192,186206,1,0,0:0:0:0:
475,192,186206,1,0,0:0:0:50:kick.wav
36,192,186206,1,0,0:0:0:0:
109,192,186292,1,0,0:0:0:0:
329,192,186377,1,0,0:0:0:0:
402,192,186463,1,0,0:0:0:0:
256,192,186549,1,0,0:0:0:0:
36,192,186549,1,0,0:0:0:50:kick.wav
182,192,186635,1,0,0:0:0:0:
329,192,186720,1,0,0:0:0:0:
109,192,186806,1,0,0:0:0:0:
36,192,186892,1,0,0:0:0:50:kick.wav
256,192,186892,1,0,0:0:0:0:
475,192,186892,1,0,0:0:0:0:
402,192,186977,1,0,0:0:0:0:
182,192,187063,1,0,0:0:0:0:
329,192,187149,1,0,0:0:0:0:
475,192,187235,1,0,0:0:0:0:
36,192,187235,1,0,0:0:0:50:kick.wav
109,192,187320,1,0,0:0:0:0:
256,192,187406,1,0,0:0:0:0:
402,192,187492,1,0,0:0:0:0:
475,192,187577,1,0,0:0:0:0:
182,192,187577,1,0,0:0:0:0:
36,192,187577,1,0,0:0:0:50:kick.wav
256,192,187663,1,0,0:0:0:0:
329,192,187749,1,0,0:0:0:0:
402,192,187835,1,0,0:0:0:0:
182,192,187920,1,0,0:0:0:0:
36,192,187920,1,0,0:0:0:50:kick.wav
329,192,188006,1,0,0:0:0:0:
475,192,188092,1,0,0:0:0:0:
182,192,188177,1,0,0:0:0:0:
36,192,188263,1,0,0:0:0:50:kick.wav
109,192,188263,1,0,0:0:0:0:
256,192,188263,1,0,0:0:0:0:
329,192,188349,1,0,0:0:0:0:
182,192,188435,1,0,0:0:0:0:
256,192,188520,1,0,0:0:0:0:
402,192,188606,1,0,0:0:0:0:
36,192,188606,1,0,0:0:0:50:kick.wav
109,192,188692,1,0,0:0:0:0:
182,192,188777,1,0,0:0:0:0:
329,192,188863,1,0,0:0:0:0:
256,192,188949,1,0,0:0:0:0:
475,192,188949,1,0,0:0:0:0:
36,192,188949,1,0,0:0:0:50:kick.wav
182,192,189035,1,0,0:0:0:0:
402,192,189120,1,0,0:0:0:0:
329,192,189206,1,0,0:0:0:0:
475,192,189292,1,0,0:0:0:50:kick.wav
36,192,189292,1,0,0:0:0:0:
109,192,189377,1,0,0:0:0:0:
182,192,189463,1,0,0:0:0:0:
329,192,189463,1,0,0:0:0:50:kick.wav
36,192,189549,1,0,0:0:0:0:
109,192,189635,1,0,0:0:0:0:
402,192,189635,1,0,0:0:0:0:
475,192,189635,1,0,0:0:0:50:kick.wav
256,192,189720,1,0,0:0:0:0:
329,192,189806,1,0,0:0:0:0:
36,192,189806,1,0,0:0:0:50:kick.wav
182,192,189892,1,0,0:0:0:0:
256,192,189977,1,0,0:0:0:0:
475,192,189977,1,0,0:0:0:50:kick.wav
36,192,190063,1,0,0:0:0:0:
109,192,190149,1,0,0:0:0:0:
329,192,190149,1,0,0:0:0:50:kick.wav
256,192,190235,1,0,0:0:0:0:
402,192,190320,1,0,0:0:0:0:
475,192,190320,1,0,0:0:0:50:kick.wav
36,192,190320,1,0,0:0:0:0:
109,192,190406,1,0,0:0:0:0:
182,192,190492,1,0,0:0:0:0:
329,192,190492,1,0,0:0:0:50:kick.wav
402,192,190577,1,0,0:0:0:0:
256,192,190663,1,0,0:0:0:0:
36,192,190663,1,0,0:0:0:50:kick.wav
329,192,190749,1,0,0:0:0:0:
475,192,190835,1,0,0:0:0:0:kick.wav
182,192,190835,1,0,0:0:0:50:kick.wav
256,192,190920,1,0,0:0:0:0:
329,192,191006,1,0,0:0:0:0:
109,192,191006,1,0,0:0:0:0:
36,192,191006,1,0,0:0:0:50:kick.wav
402,192,191092,1,0,0:0:0:0:
256,192,191177,1,0,0:0:0:0:
182,192,191177,1,0,0:0:0:50:kick.wav
329,192,191263,1,0,0:0:0:0:
475,192,191349,1,0,0:0:0:0:
36,192,191349,1,0,0:0:0:50:kick.wav
256,192,191435,1,0,0:0:0:0:
182,192,191520,1,0,0:0:0:50:kick.wav
329,192,191520,1,0,0:0:0:0:
402,192,191606,1,0,0:0:0:0:
256,192,191692,1,0,0:0:0:0:
109,192,191692,1,0,0:0:0:0:
36,192,191692,1,0,0:0:0:50:kick.wav
329,192,191777,1,0,0:0:0:0:
402,192,191863,1,0,0:0:0:0:
182,192,191863,1,0,0:0:0:50:kick.wav
475,192,191949,1,0,0:0:0:0:
329,192,192035,1,0,0:0:0:0:
36,192,192035,1,0,0:0:0:50:kick.wav
109,192,192120,1,0,0:0:0:50:kick.wav
256,192,192120,1,0,0:0:0:0:
402,192,192206,1,0,0:0:0:0:
36,192,192206,1,0,0:0:0:50:kick.wav
182,192,192292,1,0,0:0:0:50:kick.wav
329,192,192292,1,0,0:0:0:0:
109,192,192377,1,0,0:0:0:50:kick.wav
475,192,192377,1,0,0:0:0:0:
402,192,192463,1,0,0:0:0:0:
256,192,192463,1,0,0:0:0:50:kick.wav
475,192,192549,1,0,0:0:0:0:
36,192,192549,1,0,0:0:0:50:kick.wav
329,192,192635,1,0,0:0:0:0:
182,192,192635,1,0,0:0:0:50:kick.wav
402,192,192720,1,0,0:0:0:0:
36,192,192720,1,0,0:0:0:50:kick.wav
109,192,192806,1,0,0:0:0:50:kick.wav
256,192,192806,1,0,0:0:0:0:
36,192,192892,1,0,0:0:0:50:kick.wav
475,192,192892,1,0,0:0:0:0:
329,192,192977,1,0,0:0:0:0:
182,192,192977,1,0,0:0:0:50:kick.wav
109,192,193063,1,0,0:0:0:50:kick.wav
475,192,193063,1,0,0:0:0:0:
402,192,193149,1,0,0:0:0:0:
256,192,193149,1,0,0:0:0:50:kick.wav
475,192,193235,1,0,0:0:0:0:
36,192,193235,1,0,0:0:0:50:kick.wav
182,192,193320,1,0,0:0:0:50:kick.wav
329,192,193320,1,0,0:0:0:0:
109,192,193406,1,0,0:0:0:50:kick.wav
256,192,193449,1,0,0:0:0:0:
402,192,193492,1,0,0:0:0:0:
182,192,193535,1,0,0:0:0:0:
36,192,193577,1,0,0:0:0:0:
329,192,193577,1,0,0:0:0:0:
475,192,193620,1,0,0:0:0:0:
109,192,193663,1,0,0:0:0:0:
256,192,193706,1,0,0:0:0:0:
402,192,193749,1,0,0:0:0:0:
36,192,193749,1,0,0:0:0:0:
182,192,193792,1,0,0:0:0:0:
329,192,193835,1,0,0:0:0:0:
475,192,193877,1,0,0:0:0:0:
109,192,193920,1,0,0:0:0:0:
256,192,193963,1,0,0:0:0:0:
402,192,194006,1,0,0:0:0:0:
182,192,194049,1,0,0:0:0:0:
475,192,194092,1,0,0:0:0:0:
36,192,194092,1,0,0:0:0:0:
329,192,194135,1,0,0:0:0:0:
109,192,194177,1,0,0:0:0:0:
256,192,194220,1,0,0:0:0:0:
402,192,194263,1,0,0:0:0:0:
36,192,194263,1,0,0:0:0:0:
182,192,194306,1,0,0:0:0:0:
329,192,194349,1,0,0:0:0:0:
475,192,194392,1,0,0:0:0:0:
256,192,194435,1,0,0:0:0:0:
109,192,194435,1,0,0:0:0:0:
402,192,194477,1,0,0:0:0:0:
182,192,194520,1,0,0:0:0:0:
36,192,194520,1,0,0:0:0:0:
329,192,194563,1,0,0:0:0:0:
475,192,194606,1,0,0:0:0:0:
109,192,194606,1,0,0:0:0:0:
256,192,194649,1,0,0:0:0:0:
402,192,194692,1,0,0:0:0:0:
182,192,194735,1,0,0:0:0:0:
36,192,194777,1,0,0:0:0:50:kick.wav
329,192,194777,1,0,0:0:0:0:
475,192,194777,1,0,0:0:0:20:crash.wav
109,192,194863,1,0,0:0:0:0:
256,192,194949,1,0,0:0:0:0:
36,192,195035,1,0,0:0:0:0:
182,192,195120,1,0,0:0:0:50:kick.wav
475,192,195120,1,0,0:0:0:0:
402,192,195120,1,0,0:0:0:0:
329,192,195206,1,0,0:0:0:0:
109,192,195292,1,0,0:0:0:0:
256,192,195377,1,0,0:0:0:0:
329,192,195463,1,0,0:0:0:0:
36,192,195463,1,0,0:0:0:50:kick.wav
182,192,195549,1,0,0:0:0:0:
256,192,195635,1,0,0:0:0:0:
402,192,195720,1,0,0:0:0:0:
475,192,195806,1,0,0:0:0:0:
109,192,195806,1,0,0:0:0:0:
36,192,195806,1,0,0:0:0:50:kick.wav
182,192,195892,1,0,0:0:0:0:
329,192,195977,1,0,0:0:0:0:
402,192,196063,1,0,0:0:0:0:
256,192,196149,1,0,0:0:0:0:
36,192,196149,1,0,0:0:0:50:kick.wav
329,192,196235,1,0,0:0:0:0:
475,192,196320,1,0,0:0:0:0:
182,192,196406,1,0,0:0:0:0:
36,192,196492,1,0,0:0:0:50:kick.wav
109,192,196492,1,0,0:0:0:0:
256,192,196492,1,0,0:0:0:0:
402,192,196577,1,0,0:0:0:0:
109,192,196663,1,0,0:0:0:0:
182,192,196749,1,0,0:0:0:0:
329,192,196835,1,0,0:0:0:0:
475,192,196835,1,0,0:0:0:50:kick.wav
109,192,196920,1,0,0:0:0:0:
182,192,197006,1,0,0:0:0:0:
256,192,197092,1,0,0:0:0:0:
402,192,197177,1,0,0:0:0:0:
475,192,197177,1,0,0:0:0:50:kick.wav
36,192,197177,1,0,0:0:0:0:
182,192,197263,1,0,0:0:0:0:
329,192,197349,1,0,0:0:0:0:
402,192,197435,1,0,0:0:0:0:
36,192,197520,1,0,0:0:0:50:kick.wav
109,192,197520,1,0,0:0:0:0:
182,192,197606,1,0,0:0:0:0:
329,192,197692,1,0,0:0:0:0:
109,192,197777,1,0,0:0:0:0:
256,192,197863,1,0,0:0:0:0:
402,192,197863,1,0,0:0:0:0:
475,192,197863,1,0,0:0:0:50:kick.wav
329,192,197949,1,0,0:0:0:0:
182,192,198035,1,0,0:0:0:0:
256,192,198120,1,0,0:0:0:0:
402,192,198206,1,0,0:0:0:0:
36,192,198206,1,0,0:0:0:50:kick.wav
109,192,198292,1,0,0:0:0:0:
256,192,198377,1,0,0:0:0:0:
329,192,198463,1,0,0:0:0:0:
475,192,198549,1,0,0:0:0:0:
109,192,198549,1,0,0:0:0:0:
36,192,198549,1,0,0:0:0:50:kick.wav
182,192,198635,1,0,0:0:0:0:
329,192,198720,1,0,0:0:0:0:
402,192,198806,1,0,0:0:0:0:
256,192,198892,1,0,0:0:0:0:
36,192,198892,1,0,0:0:0:50:kick.wav
329,192,198977,1,0,0:0:0:0:
475,192,199063,1,0,0:0:0:0:
182,192,199149,1,0,0:0:0:0:
256,192,199235,1,0,0:0:0:0:
109,192,199235,1,0,0:0:0:0:
36,192,199235,1,0,0:0:0:50:kick.wav
329,192,199320,1,0,0:0:0:0:
182,192,199406,1,0,0:0:0:0:
256,192,199492,1,0,0:0:0:0:
402,192,199577,1,0,0:0:0:0:
36,192,199577,1,0,0:0:0:50:kick.wav
182,192,199663,1,0,0:0:0:0:
256,192,199749,1,0,0:0:0:0:
475,192,199835,1,0,0:0:0:0:
329,192,199920,1,0,0:0:0:0:
109,192,199920,1,0,0:0:0:0:
36,192,199920,1,0,0:0:0:50:kick.wav
182,192,200006,1,0,0:0:0:0:
402,192,200092,1,0,0:0:0:0:
329,192,200177,1,0,0:0:0:0:
256,192,200263,1,0,0:0:0:0:
475,192,200263,1,0,0:0:0:0:
36,192,200263,1,0,0:0:0:50:kick.wav
182,192,200349,1,0,0:0:0:0:
329,192,200435,1,0,0:0:0:0:
109,192,200520,1,0,0:0:0:0:
36,192,200606,1,0,0:0:0:50:kick.wav
256,192,200606,1,0,0:0:0:0:
475,192,200606,1,0,0:0:0:0:
402,192,200692,1,0,0:0:0:0:
109,192,200777,1,0,0:0:0:0:
256,192,200863,1,0,0:0:0:0:
329,192,200949,1,0,0:0:0:0:
36,192,200949,1,0,0:0:0:50:kick.wav
182,192,201035,1,0,0:0:0:0:
256,192,201120,1,0,0:0:0:0:
402,192,201206,1,0,0:0:0:0:
475,192,201292,1,0,0:0:0:0:
109,192,201292,1,0,0:0:0:0:
36,192,201292,1,0,0:0:0:50:kick.wav
182,192,201377,1,0,0:0:0:0:
329,192,201463,1,0,0:0:0:0:
402,192,201549,1,0,0:0:0:0:
182,192,201635,1,0,0:0:0:0:
36,192,201635,1,0,0:0:0:50:kick.wav
256,192,201720,1,0,0:0:0:0:
475,192,201806,1,0,0:0:0:0:
109,192,201892,1,0,0:0:0:0:
36,192,201977,1,0,0:0:0:50:kick.wav
256,192,201977,1,0,0:0:0:0:
329,192,201977,1,0,0:0:0:0:
402,192,202063,1,0,0:0:0:0:
182,192,202149,1,0,0:0:0:0:
256,192,202235,1,0,0:0:0:0:
329,192,202320,1,0,0:0:0:0:
475,192,202320,1,0,0:0:0:50:kick.wav
109,192,202406,1,0,0:0:0:0:
256,192,202492,1,0,0:0:0:0:
402,192,202577,1,0,0:0:0:0:
182,192,202663,1,0,0:0:0:0:
109,192,202663,1,0,0:0:0:0:
36,192,202663,1,0,0:0:0:50:kick.wav
256,192,202749,1,0,0:0:0:0:
402,192,202835,1,0,0:0:0:0:
475,192,202920,1,0,0:0:0:0:
329,192,203006,1,0,0:0:0:50:kick.wav
36,192,203006,1,0,0:0:0:0:
109,192,203092,1,0,0:0:0:0:
182,192,203177,1,0,0:0:0:0:
109,192,203263,1,0,0:0:0:0:
256,192,203349,1,0,0:0:0:0:
402,192,203349,1,0,0:0:0:0:
475,192,203349,1,0,0:0:0:50:kick.wav
329,192,203435,1,0,0:0:0:0:
182,192,203520,1,0,0:0:0:0:
256,192,203606,1,0,0:0:0:0:
402,192,203692,1,0,0:0:0:50:kick.wav
36,192,203692,1,0,0:0:0:0:
109,192,203777,1,0,0:0:0:0:
182,192,203863,1,0,0:0:0:0:
329,192,203949,1,0,0:0:0:0:
256,192,204035,1,0,0:0:0:50:kick.wav
475,192,204035,1,0,0:0:0:0:
36,192,204035,1,0,0:0:0:0:
109,192,204120,1,0,0:0:0:0:
329,192,204206,1,0,0:0:0:0:
402,192,204292,1,0,0:0:0:0:
182,192,204377,1,0,0:0:0:0:
36,192,204377,1,0,0:0:0:50:kick.wav
256,192,204463,1,0,0:0:0:0:
329,192,204549,1,0,0:0:0:0:
109,192,204635,1,0,0:0:0:0:
182,192,204720,1,0,0:0:0:0:
256,192,204720,1,0,0:0:0:50:kick.wav
402,192,204720,1,0,0:0:0:0:
475,192,204806,1,0,0:0:0:0:
36,192,204892,1,0,0:0:0:0:
109,192,204977,1,0,0:0:0:0:
182,192,205063,1,0,0:0:0:0:
329,192,205063,1,0,0:0:0:50:kick.wav
109,192,205149,1,0,0:0:0:0:
256,192,205235,1,0,0:0:0:0:
402,192,205320,1,0,0:0:0:0:
182,192,205406,1,0,0:0:0:0:
109,192,205406,1,0,0:0:0:0:
36,192,205406,1,0,0:0:0:50:kick.wav
329,192,205492,1,0,0:0:0:0:
256,192,205577,1,0,0:0:0:0:
475,192,205577,1,0,0:0:0:0:
402,192,205663,1,0,0:0:0:0:
256,192,205663,1,0,0:0:0:0:
109,192,205749,1,0,0:0:0:0:
36,192,205749,1,0,0:0:0:50:kick.wav
182,192,205835,1,0,0:0:0:0:
329,192,205920,1,0,0:0:0:0:
109,192,206006,1,0,0:0:0:0:
256,192,206092,1,0,0:0:0:0:
402,192,206092,1,0,0:0:0:0:
475,192,206092,1,0,0:0:0:50:kick.wav
329,192,206177,1,0,0:0:0:0:
182,192,206263,1,0,0:0:0:0:
256,192,206349,1,0,0:0:0:0:
109,192,206435,1,0,0:0:0:0:
36,192,206435,1,0,0:0:0:50:kick.wav
329,192,206520,1,0,0:0:0:0:
182,192,206606,1,0,0:0:0:0:
256,192,206692,1,0,0:0:0:0:
402,192,206777,1,0,0:0:0:0:
475,192,206777,1,0,0:0:0:50:kick.wav
109,192,206777,1,0,0:0:0:0:
182,192,206863,1,0,0:0:0:0:
329,192,206949,1,0,0:0:0:0:
402,192,207035,1,0,0:0:0:0:
109,192,207120,1,0,0:0:0:0:
36,192,207120,1,0,0:0:0:50:kick.wav
182,192,207206,1,0,0:0:0:0:
329,192,207292,1,0,0:0:0:0:
256,192,207377,1,0,0:0:0:0:
402,192,207463,1,0,0:0:0:0:
475,192,207463,1,0,0:0:0:50:kick.wav
109,192,207463,1,0,0:0:0:0:
182,192,207549,1,0,0:0:0:0:
329,192,207635,1,0,0:0:0:0:
256,192,207720,1,0,0:0:0:0:
109,192,207806,1,0,0:0:0:0:
36,192,207806,1,0,0:0:0:50:kick.wav
182,192,207892,1,0,0:0:0:0:
329,192,207977,1,0,0:0:0:0:
256,192,208063,1,0,0:0:0:0:
402,192,208149,1,0,0:0:0:0:
475,192,208149,1,0,0:0:0:50:kick.wav
109,192,208149,1,0,0:0:0:0:
182,192,208235,1,0,0:0:0:0:
329,192,208320,1,0,0:0:0:0:
402,192,208406,1,0,0:0:0:0:
109,192,208492,1,0,0:0:0:0:
36,192,208492,1,0,0:0:0:50:kick.wav
182,192,208577,1,0,0:0:0:0:
329,192,208663,1,0,0:0:0:0:
109,192,208749,1,0,0:0:0:0:
256,192,208835,1,0,0:0:0:0:
402,192,208835,1,0,0:0:0:0:
475,192,208835,1,0,0:0:0:50:kick.wav
329,192,208920,1,0,0:0:0:0:
182,192,209006,1,0,0:0:0:0:
256,192,209092,1,0,0:0:0:0:
109,192,209177,1,0,0:0:0:0:
36,192,209177,1,0,0:0:0:50:kick.wav
329,192,209263,1,0,0:0:0:0:
182,192,209349,1,0,0:0:0:0:
256,192,209435,1,0,0:0:0:0:
402,192,209520,1,0,0:0:0:0:
475,192,209520,1,0,0:0:0:50:kick.wav
109,192,209520,1,0,0:0:0:0:
182,192,209606,1,0,0:0:0:0:
329,192,209692,1,0,0:0:0:0:
402,192,209777,1,0,0:0:0:0:
109,192,209863,1,0,0:0:0:0:
36,192,209863,1,0,0:0:0:50:kick.wav
182,192,209949,1,0,0:0:0:0:
329,192,210035,1,0,0:0:0:0:
109,192,210120,1,0,0:0:0:0:
256,192,210206,1,0,0:0:0:0:
402,192,210206,1,0,0:0:0:0:
475,192,210206,1,0,0:0:0:50:kick.wav
182,192,210292,1,0,0:0:0:0:
329,192,210377,1,0,0:0:0:0:
256,192,210463,1,0,0:0:0:0:
109,192,210549,1,0,0:0:0:0:
36,192,210549,1,0,0:0:0:50:kick.wav
182,192,210635,1,0,0:0:0:0:
329,192,210720,1,0,0:0:0:0:
256,192,210806,1,0,0:0:0:0:
402,192,210892,1,0,0:0:0:0:
475,192,210892,1,0,0:0:0:50:kick.wav
109,192,210892,1,0,0:0:0:0:
36,192,210977,1,0,0:0:0:0:
329,192,211063,1,0,0:0:0:0:
256,192,211149,1,0,0:0:0:0:
36,192,211235,1,0,0:0:0:0:
475,192,211235,1,0,0:0:0:50:kick.wav
109,192,211320,1,0,0:0:0:0:
182,192,211406,1,0,0:0:0:0:
329,192,211406,1,0,0:0:0:50:kick.wav
36,192,211492,1,0,0:0:0:0:
109,192,211577,1,0,0:0:0:0:
402,192,211577,1,0,0:0:0:0:
475,192,211577,1,0,0:0:0:50:kick.wav
256,192,211663,1,0,0:0:0:0:
329,192,211749,1,0,0:0:0:0:kick.wav
36,192,211749,1,0,0:0:0:50:kick.wav
182,192,211835,1,0,0:0:0:0:
256,192,211920,1,0,0:0:0:0:
475,192,211920,1,0,0:0:0:50:kick.wav
36,192,212006,1,0,0:0:0:0:
109,192,212092,1,0,0:0:0:50:kick.wav
329,192,212092,1,0,0:0:0:0:
256,192,212177,1,0,0:0:0:0:
402,192,212263,1,0,0:0:0:0:
475,192,212263,1,0,0:0:0:50:kick.wav
36,192,212263,1,0,0:0:0:0:
109,192,212349,1,0,0:0:0:0:
182,192,212435,1,0,0:0:0:0:
329,192,212435,1,0,0:0:0:50:kick.wav
402,192,212520,1,0,0:0:0:0:
256,192,212606,1,0,0:0:0:0:
36,192,212606,1,0,0:0:0:50:kick.wav
329,192,212692,1,0,0:0:0:0:
475,192,212777,1,0,0:0:0:0:
182,192,212777,1,0,0:0:0:50:kick.wav
256,192,212863,1,0,0:0:0:0:
329,192,212949,1,0,0:0:0:0:
109,192,212949,1,0,0:0:0:0:
36,192,212949,1,0,0:0:0:50:kick.wav
402,192,213035,1,0,0:0:0:0:
256,192,213120,1,0,0:0:0:0:
182,192,213120,1,0,0:0:0:50:kick.wav
329,192,213206,1,0,0:0:0:0:
475,192,213292,1,0,0:0:0:0:
36,192,213292,1,0,0:0:0:50:kick.wav
256,192,213377,1,0,0:0:0:0:
182,192,213463,1,0,0:0:0:50:kick.wav
329,192,213463,1,0,0:0:0:0:
402,192,213549,1,0,0:0:0:0:
256,192,213635,1,0,0:0:0:0:
109,192,213635,1,0,0:0:0:0:
36,192,213635,1,0,0:0:0:50:kick.wav
329,192,213720,1,0,0:0:0:0:
402,192,213806,1,0,0:0:0:0:
182,192,213806,1,0,0:0:0:50:kick.wav
475,192,213892,1,0,0:0:0:0:
329,192,213977,1,0,0:0:0:0:
36,192,213977,1,0,0:0:0:50:kick.wav
109,192,214063,1,0,0:0:0:50:kick.wav
256,192,214063,1,0,0:0:0:0:
402,192,214149,1,0,0:0:0:0:
36,192,214149,1,0,0:0:0:50:kick.wav
329,192,214235,1,0,0:0:0:0:
182,192,214235,1,0,0:0:0:50:kick.wav
109,192,214320,1,0,0:0:0:50:kick.wav
475,192,214320,1,0,0:0:0:0:
402,192,214406,1,0,0:0:0:0:
256,192,214406,1,0,0:0:0:50:kick.wav
475,192,214492,1,0,0:0:0:0:
36,192,214492,1,0,0:0:0:50:kick.wav
182,192,214577,1,0,0:0:0:50:kick.wav
329,192,214577,1,0,0:0:0:0:
402,192,214663,1,0,0:0:0:0:
36,192,214663,1,0,0:0:0:50:kick.wav
109,192,214749,1,0,0:0:0:50:kick.wav
256,192,214749,1,0,0:0:0:0:
36,192,214835,1,0,0:0:0:50:kick.wav
475,192,214835,1,0,0:0:0:0:
329,192,214920,1,0,0:0:0:0:
182,192,214920,1,0,0:0:0:50:kick.wav
109,192,215006,1,0,0:0:0:50:kick.wav
475,192,215006,1,0,0:0:0:0:
402,192,215092,1,0,0:0:0:0:
256,192,215092,1,0,0:0:0:50:kick.wav
475,192,215177,1,0,0:0:0:0:
36,192,215177,1,0,0:0:0:50:kick.wav
182,192,215263,1,0,0:0:0:50:kick.wav
329,192,215263,1,0,0:0:0:0:
109,192,215349,1,0,0:0:0:50:kick.wav
256,192,215392,1,0,0:0:0:0:
402,192,215435,1,0,0:0:0:0:
182,192,215477,1,0,0:0:0:0:
329,192,215520,1,0,0:0:0:0:
36,192,215520,1,0,0:0:0:0:
475,192,215563,1,0,0:0:0:0:
109,192,215606,1,0,0:0:0:0:
256,192,215649,1,0,0:0:0:0:
402,192,215692,1,0,0:0:0:0:
36,192,215692,1,0,0:0:0:0:
182,192,215735,1,0,0:0:0:0:
329,192,215777,1,0,0:0:0:0:
475,192,215820,1,0,0:0:0:0:
109,192,215863,1,0,0:0:0:0:
256,192,215906,1,0,0:0:0:0:
402,192,215949,1,0,0:0:0:0:
182,192,215992,1,0,0:0:0:0:
36,192,216035,1,0,0:0:0:0:
475,192,216035,1,0,0:0:0:0:
329,192,216077,1,0,0:0:0:0:
109,192,216120,1,0,0:0:0:0:
256,192,216163,1,0,0:0:0:0:
402,192,216206,1,0,0:0:0:0:
36,192,216206,1,0,0:0:0:0:
182,192,216249,1,0,0:0:0:0:
329,192,216292,1,0,0:0:0:0:
475,192,216335,1,0,0:0:0:0:
256,192,216377,1,0,0:0:0:0:
109,192,216377,1,0,0:0:0:0:
402,192,216420,1,0,0:0:0:0:
36,192,216463,1,0,0:0:0:0:
182,192,216463,1,0,0:0:0:0:
329,192,216506,1,0,0:0:0:0:
475,192,216549,1,0,0:0:0:0:
109,192,216549,1,0,0:0:0:0:
256,192,216592,1,0,0:0:0:0:
402,192,216635,1,0,0:0:0:0:
182,192,216677,1,0,0:0:0:0:
36,192,216720,1,0,0:0:0:50:kick.wav
109,192,216720,1,0,0:0:0:20:crash.wav
329,192,216806,1,0,0:0:0:0:
182,192,216892,1,0,0:0:0:0:
36,192,217063,1,0,0:0:0:50:kick.wav
329,192,217063,1,0,0:0:0:0:
475,192,217063,1,0,0:0:0:0:
182,192,217235,1,0,0:0:0:0:
329,192,217320,1,0,0:0:0:0:
109,192,217406,1,0,0:0:0:50:kick.wav
182,192,217492,1,0,0:0:0:0:
182,192,217577,1,0,0:0:0:0:
329,192,217577,1,0,0:0:0:0:
475,192,217749,1,0,0:0:0:0:
36,192,217749,1,0,0:0:0:50:kick.wav
329,192,217835,1,0,0:0:0:0:
182,192,217920,1,0,0:0:0:0:
109,192,218092,1,0,0:0:0:50:kick.wav
329,192,218092,1,0,0:0:0:0:
402,192,218177,1,0,0:0:0:0:
256,192,218263,1,0,0:0:0:0:
402,192,218435,1,0,0:0:0:0:
182,192,218435,1,0,0:0:0:0:
36,192,218435,1,0,0:0:0:50:kick.wav
256,192,218606,1,0,0:0:0:0:
402,192,218692,1,0,0:0:0:0:
109,192,218777,1,0,0:0:0:50:kick.wav
256,192,218949,1,0,0:0:0:0:
402,192,218949,1,0,0:0:0:0:
256,192,219035,1,0,0:0:0:0:
182,192,219120,1,0,0:0:0:0:
36,192,219120,1,0,0:0:0:50:kick.wav
402,192,219206,1,0,0:0:0:0:
256,192,219292,1,0,0:0:0:0:
182,192,219463,1,0,0:0:0:50:kick.wav
329,192,219463,1,0,0:0:0:0:
475,192,219549,1,0,0:0:0:0:
256,192,219635,1,0,0:0:0:0:
475,192,219806,1,0,0:0:0:0:
109,192,219806,1,0,0:0:0:0:
36,192,219806,1,0,0:0:0:50:kick.wav
256,192,219977,1,0,0:0:0:0:
475,192,220063,1,0,0:0:0:0:
182,192,220149,1,0,0:0:0:50:kick.wav
256,192,220235,1,0,0:0:0:0:
256,192,220320,1,0,0:0:0:0:
475,192,220320,1,0,0:0:0:0:
109,192,220492,1,0,0:0:0:0:
36,192,220492,1,0,0:0:0:50:kick.wav
475,192,220577,1,0,0:0:0:0:
256,192,220663,1,0,0:0:0:0:
182,192,220835,1,0,0:0:0:50:kick.wav
329,192,220835,1,0,0:0:0:0:
475,192,220920,1,0,0:0:0:0:
256,192,221006,1,0,0:0:0:0:
109,192,221177,1,0,0:0:0:0:
36,192,221177,1,0,0:0:0:50:kick.wav
475,192,221177,1,0,0:0:0:0:
256,192,221349,1,0,0:0:0:0:
475,192,221435,1,0,0:0:0:0:
182,192,221520,1,0,0:0:0:50:kick.wav
256,192,221606,1,0,0:0:0:0:
475,192,221692,1,0,0:0:0:0:
256,192,221777,1,0,0:0:0:0:
109,192,221863,1,0,0:0:0:0:
36,192,221863,1,0,0:0:0:50:kick.wav
475,192,221949,1,0,0:0:0:0:
256,192,222035,1,0,0:0:0:0:
182,192,222206,1,0,0:0:0:0:
36,192,222206,1,0,0:0:0:50:kick.wav
329,192,222292,1,0,0:0:0:0:
109,192,222377,1,0,0:0:0:0:
36,192,222549,1,0,0:0:0:50:kick.wav
329,192,222549,1,0,0:0:0:0:
475,192,222549,1,0,0:0:0:0:
182,192,222720,1,0,0:0:0:0:
329,192,222806,1,0,0:0:0:0:
109,192,222892,1,0,0:0:0:50:kick.wav
182,192,222977,1,0,0:0:0:0:
182,192,223063,1,0,0:0:0:0:
329,192,223063,1,0,0:0:0:0:
475,192,223235,1,0,0:0:0:0:
36,192,223235,1,0,0:0:0:50:kick.wav
329,192,223320,1,0,0:0:0:0:
182,192,223406,1,0,0:0:0:0:
109,192,223577,1,0,0:0:0:50:kick.wav
329,192,223577,1,0,0:0:0:0:
402,192,223663,1,0,0:0:0:0:
256,192,223749,1,0,0:0:0:0:
402,192,223920,1,0,0:0:0:0:
182,192,223920,1,0,0:0:0:0:
36,192,223920,1,0,0:0:0:50:kick.wav
256,192,224092,1,0,0:0:0:0:
402,192,224177,1,0,0:0:0:0:
109,192,224263,1,0,0:0:0:50:kick.wav
256,192,224435,1,0,0:0:0:0:
402,192,224435,1,0,0:0:0:0:
256,192,224520,1,0,0:0:0:0:
182,192,224606,1,0,0:0:0:0:
36,192,224606,1,0,0:0:0:50:kick.wav
402,192,224692,1,0,0:0:0:0:
256,192,224777,1,0,0:0:0:0:
182,192,224949,1,0,0:0:0:50:kick.wav
329,192,224949,1,0,0:0:0:0:
475,192,225035,1,0,0:0:0:0:
256,192,225120,1,0,0:0:0:0:
109,192,225292,1,0,0:0:0:0:
36,192,225292,1,0,0:0:0:50:kick.wav
475,192,225292,1,0,0:0:0:0:
256,192,225463,1,0,0:0:0:0:
475,192,225549,1,0,0:0:0:0:
182,192,225635,1,0,0:0:0:50:kick.wav
256,192,225720,1,0,0:0:0:0:
256,192,225806,1,0,0:0:0:0:
475,192,225806,1,0,0:0:0:0:
109,192,225977,1,0,0:0:0:0:
36,192,225977,1,0,0:0:0:50:kick.wav
475,192,226063,1,0,0:0:0:0:
256,192,226149,1,0,0:0:0:0:
182,192,226320,1,0,0:0:0:50:kick.wav
329,192,226320,1,0,0:0:0:0:
475,192,226406,1,0,0:0:0:0:
256,192,226492,1,0,0:0:0:0:
475,192,226663,1,0,0:0:0:0:
109,192,226663,1,0,0:0:0:0:
36,192,226663,1,0,0:0:0:50:kick.wav
256,192,226835,1,0,0:0:0:0:
475,192,226920,1,0,0:0:0:0:
182,192,227006,1,0,0:0:0:50:kick.wav
256,192,227092,1,0,0:0:0:0:
329,192,227177,1,0,0:0:0:0:
475,192,227177,1,0,0:0:0:0:
256,192,227263,1,0,0:0:0:0:
109,192,227349,1,0,0:0:0:0:
36,192,227349,1,0,0:0:0:50:kick.wav
475,192,227435,1,0,0:0:0:0:
256,192,227520,1,0,0:0:0:50:kick.wav
256,192,227606,1,0,0:0:0:50:kick.wav
182,192,227692,1,0,0:0:0:0:
36,192,227692,1,0,0:0:0:50:kick.wav
329,192,227777,1,0,0:0:0:0:
475,192,227863,1,0,0:0:0:0:
109,192,227949,1,0,0:0:0:0:
36,192,228035,1,0,0:0:0:50:kick.wav
256,192,228035,1,0,0:0:0:0:
402,192,228035,1,0,0:0:0:0:
475,192,228206,1,0,0:0:0:0:
182,192,228206,1,0,0:0:0:0:
329,192,228292,1,0,0:0:0:0:
36,192,228377,1,0,0:0:0:50:kick.wav
182,192,228463,1,0,0:0:0:0:
329,192,228549,1,0,0:0:0:0:
402,192,228549,1,0,0:0:0:0:
475,192,228720,1,0,0:0:0:0:
256,192,228720,1,0,0:0:0:0:
36,192,228720,1,0,0:0:0:50:kick.wav
182,192,228806,1,0,0:0:0:0:
329,192,228892,1,0,0:0:0:0:
402,192,228892,1,0,0:0:0:0:
109,192,229063,1,0,0:0:0:0:
36,192,229063,1,0,0:0:0:50:kick.wav
256,192,229149,1,0,0:0:0:0:
402,192,229235,1,0,0:0:0:0:
182,192,229320,1,0,0:0:0:0:
36,192,229406,1,0,0:0:0:50:kick.wav
329,192,229406,1,0,0:0:0:0:
475,192,229406,1,0,0:0:0:0:
402,192,229577,1,0,0:0:0:0:
109,192,229577,1,0,0:0:0:0:
256,192,229663,1,0,0:0:0:0:
182,192,229749,1,0,0:0:0:50:kick.wav
329,192,229835,1,0,0:0:0:0:
402,192,229920,1,0,0:0:0:0:
109,192,229920,1,0,0:0:0:0:
182,192,230092,1,0,0:0:0:0:
36,192,230092,1,0,0:0:0:50:kick.wav
475,192,230092,1,0,0:0:0:0:
256,192,230177,1,0,0:0:0:0:
109,192,230263,1,0,0:0:0:0:
402,192,230263,1,0,0:0:0:0:
36,192,230435,1,0,0:0:0:50:kick.wav
182,192,230435,1,0,0:0:0:0:
329,192,230435,1,0,0:0:0:0:
475,192,230520,1,0,0:0:0:0:
256,192,230606,1,0,0:0:0:0:
329,192,230692,1,0,0:0:0:0:
475,192,230777,1,0,0:0:0:0:
109,192,230777,1,0,0:0:0:0:
36,192,230777,1,0,0:0:0:50:kick.wav
256,192,230949,1,0,0:0:0:0:
402,192,230949,1,0,0:0:0:0:
475,192,231035,1,0,0:0:0:0:
182,192,231120,1,0,0:0:0:0:
36,192,231120,1,0,0:0:0:50:kick.wav
402,192,231206,1,0,0:0:0:0:
475,192,231292,1,0,0:0:0:0:
256,192,231292,1,0,0:0:0:0:
329,192,231463,1,0,0:0:0:0:
109,192,231463,1,0,0:0:0:0:
36,192,231463,1,0,0:0:0:50:kick.wav
402,192,231549,1,0,0:0:0:0:
475,192,231635,1,0,0:0:0:0:
256,192,231635,1,0,0:0:0:0:
329,192,231806,1,0,0:0:0:0:
182,192,231806,1,0,0:0:0:0:
36,192,231806,1,0,0:0:0:50:kick.wav
475,192,231892,1,0,0:0:0:0:
256,192,231977,1,0,0:0:0:0:
402,192,232063,1,0,0:0:0:0:
475,192,232149,1,0,0:0:0:0:
109,192,232149,1,0,0:0:0:0:
36,192,232149,1,0,0:0:0:50:kick.wav
256,192,232320,1,0,0:0:0:0:
329,192,232320,1,0,0:0:0:0:
475,192,232406,1,0,0:0:0:0:
182,192,232492,1,0,0:0:0:0:
36,192,232492,1,0,0:0:0:50:kick.wav
402,192,232577,1,0,0:0:0:0:
475,192,232663,1,0,0:0:0:0:
256,192,232663,1,0,0:0:0:0:
329,192,232835,1,0,0:0:0:0:
109,192,232835,1,0,0:0:0:0:
36,192,232835,1,0,0:0:0:50:kick.wav
402,192,232920,1,0,0:0:0:0:
475,192,233006,1,0,0:0:0:0:
256,192,233006,1,0,0:0:0:0:
182,192,233177,1,0,0:0:0:0:
36,192,233177,1,0,0:0:0:50:kick.wav
329,192,233263,1,0,0:0:0:0:
256,192,233349,1,0,0:0:0:50:kick.wav
109,192,233435,1,0,0:0:0:0:
36,192,233520,1,0,0:0:0:50:kick.wav
329,192,233520,1,0,0:0:0:0:
475,192,233520,1,0,0:0:0:0:
109,192,233692,1,0,0:0:0:0:
256,192,233692,1,0,0:0:0:50:kick.wav
402,192,233777,1,0,0:0:0:0:
182,192,233863,1,0,0:0:0:50:kick.wav
109,192,233949,1,0,0:0:0:0:
256,192,234035,1,0,0:0:0:50:kick.wav
402,192,234035,1,0,0:0:0:0:
182,192,234206,1,0,0:0:0:0:
36,192,234206,1,0,0:0:0:50:kick.wav
475,192,234206,1,0,0:0:0:0:
329,192,234292,1,0,0:0:0:0:
256,192,234377,1,0,0:0:0:0:
109,192,234377,1,0,0:0:0:50:kick.wav
182,192,234549,1,0,0:0:0:50:kick.wav
329,192,234549,1,0,0:0:0:0:
402,192,234635,1,0,0:0:0:0:
256,192,234720,1,0,0:0:0:50:kick.wav
109,192,234806,1,0,0:0:0:0:
36,192,234892,1,0,0:0:0:0:
329,192,234892,1,0,0:0:0:0:
475,192,234892,1,0,0:0:0:50:kick.wav
256,192,235063,1,0,0:0:0:50:kick.wav
109,192,235063,1,0,0:0:0:0:
402,192,235149,1,0,0:0:0:0:
329,192,235235,1,0,0:0:0:50:kick.wav
109,192,235320,1,0,0:0:0:0:
256,192,235406,1,0,0:0:0:0:
402,192,235406,1,0,0:0:0:50:kick.wav
182,192,235577,1,0,0:0:0:0:
36,192,235577,1,0,0:0:0:0:
475,192,235577,1,0,0:0:0:50:kick.wav
329,192,235663,1,0,0:0:0:0:
256,192,235749,1,0,0:0:0:50:kick.wav
109,192,235749,1,0,0:0:0:0:
402,192,235920,1,0,0:0:0:0:kick.wav
36,192,235920,1,0,0:0:0:50:kick.wav
109,192,236006,1,0,0:0:0:50:kick.wav
256,192,236006,1,0,0:0:0:0:
36,192,236092,1,0,0:0:0:50:kick.wav
475,192,236092,1,0,0:0:0:0:
329,192,236177,1,0,0:0:0:0:
182,192,236177,1,0,0:0:0:50:kick.wav
109,192,236263,1,0,0:0:0:50:kick.wav
475,192,236263,1,0,0:0:0:0:
402,192,236349,1,0,0:0:0:0:
256,192,236349,1,0,0:0:0:50:kick.wav
475,192,236435,1,0,0:0:0:0:
36,192,236435,1,0,0:0:0:50:kick.wav
182,192,236520,1,0,0:0:0:50:kick.wav
329,192,236520,1,0,0:0:0:0:
402,192,236606,1,0,0:0:0:0:
36,192,236606,1,0,0:0:0:50:kick.wav
109,192,236692,1,0,0:0:0:50:kick.wav
256,192,236692,1,0,0:0:0:0:
36,192,236777,1,0,0:0:0:50:kick.wav
475,192,236777,1,0,0:0:0:0:
329,192,236863,1,0,0:0:0:0:
182,192,236863,1,0,0:0:0:50:kick.wav
109,192,236949,1,0,0:0:0:50:kick.wav
475,192,236949,1,0,0:0:0:0:
402,192,237035,1,0,0:0:0:0:
256,192,237035,1,0,0:0:0:50:kick.wav
475,192,237120,1,0,0:0:0:0:
36,192,237120,1,0,0:0:0:50:kick.wav
182,192,237206,1,0,0:0:0:50:kick.wav
329,192,237206,1,0,0:0:0:0:
109,192,237292,1,0,0:0:0:50:kick.wav
256,192,237335,1,0,0:0:0:0:
402,192,237377,1,0,0:0:0:0:
475,192,237377,1,0,0:0:0:0:
36,192,237420,1,0,0:0:0:0:
182,192,237463,1,0,0:0:0:0:
329,192,237506,1,0,0:0:0:0:
109,192,237549,1,0,0:0:0:0:
256,192,237592,1,0,0:0:0:0:
402,192,237635,1,0,0:0:0:0:
36,192,237635,1,0,0:0:0:0:
182,192,237677,1,0,0:0:0:0:
475,192,237720,1,0,0:0:0:0:
109,192,237763,1,0,0:0:0:0:
256,192,237806,1,0,0:0:0:0:
402,192,237849,1,0,0:0:0:0:
182,192,237892,1,0,0:0:0:0:
36,192,237892,1,0,0:0:0:0:
329,192,237935,1,0,0:0:0:0:
475,192,237977,1,0,0:0:0:0:
109,192,237977,1,0,0:0:0:0:
256,192,238020,1,0,0:0:0:0:
402,192,238063,1,0,0:0:0:0:
36,192,238106,1,0,0:0:0:0:
182,192,238149,1,0,0:0:0:0:
329,192,238149,1,0,0:0:0:0:
475,192,238192,1,0,0:0:0:0:
109,192,238235,1,0,0:0:0:0:
256,192,238277,1,0,0:0:0:0:
402,192,238320,1,0,0:0:0:0:
182,192,238320,1,0,0:0:0:0:
36,192,238363,1,0,0:0:0:0:
329,192,238406,1,0,0:0:0:0:
475,192,238449,1,0,0:0:0:0:
256,192,238492,1,0,0:0:0:0:
109,192,238492,1,0,0:0:0:0:
402,192,238535,1,0,0:0:0:0:
182,192,238577,1,0,0:0:0:0:
329,192,238620,1,0,0:0:0:0:
109,192,238663,1,0,0:0:0:0:
36,192,238663,1,0,0:0:0:0:
256,192,238663,1,0,0:0:0:50:kick.wav
475,192,238663,1,0,0:0:0:20:crash.wav
402,192,238835,1,0,0:0:0:0:
329,192,239006,1,0,0:0:0:0:
182,192,239177,1,0,0:0:0:0:
402,192,241406,1,0,0:0:0:0:
329,192,241577,1,0,0:0:0:0:
109,192,241920,1,0,0:0:0:0:
402,192,244320,1,0,0:0:0:0:
329,192,244492,1,0,0:0:0:0:
182,192,244663,1,0,0:0:0:0:
402,192,246892,1,0,0:0:0:0:
329,192,247063,1,0,0:0:0:0:
109,192,247406,128,0,247749:0:0:0:0:
182,192,247749,128,0,248092:0:0:0:0:
256,192,248092,128,0,248435:0:0:0:0:
329,192,248435,128,0,248777:0:0:0:0:
402,192,248777,128,0,249120:0:0:0:0:
475,192,249120,128,0,249720:0:0:0:0:
36,192,249720,128,0,251092:0:0:0:0:
402,192,249806,1,0,0:0:0:0:
329,192,249977,1,0,0:0:0:0:
182,192,250149,1,0,0:0:0:0:
182,192,251092,128,0,252463:0:0:0:0:
109,192,251177,1,0,0:0:0:0:
256,192,251349,1,0,0:0:0:0:
402,192,251520,1,0,0:0:0:0:
109,192,252035,1,0,0:0:0:0:
256,192,252377,1,0,0:0:0:0:
329,192,252463,128,0,255206:0:0:0:0:
109,192,252549,1,0,0:0:0:0:
36,192,252892,1,0,0:0:0:0:
109,192,254092,128,0,254435:0:0:0:0:
109,192,254606,128,0,254949:0:0:0:0:
256,192,254949,1,0,0:0:0:0:
182,192,255206,128,0,256577:0:0:0:0:
402,192,255292,1,0,0:0:0:0:
329,192,255463,1,0,0:0:0:0:
36,192,255635,1,0,0:0:0:0:
329,192,256577,128,0,257949:0:0:0:0:
109,192,256663,1,0,0:0:0:0:
256,192,256835,1,0,0:0:0:0:
402,192,257006,1,0,0:0:0:0:
475,192,257520,1,0,0:0:0:0:
256,192,257863,1,0,0:0:0:0:
475,192,257949,128,0,260520:0:0:0:0:
182,192,258035,1,0,0:0:0:0:
36,192,258377,1,0,0:0:0:0:
109,192,258720,1,0,0:0:0:0:
182,192,259063,1,0,0:0:0:0:
256,192,259406,1,0,0:0:0:0:
329,192,259749,1,0,0:0:0:0:
402,192,260092,1,0,0:0:0:0:
182,192,260606,1,0,0:0:0:0:
36,192,260606,1,0,0:0:0:30:snare.wav
475,192,260606,1,0,0:0:0:20:crash.wav
329,192,260692,1,0,0:0:0:0:
182,192,260863,1,0,0:0:0:0:
36,192,260949,1,0,0:0:0:30:snare.wav
329,192,260949,1,0,0:0:0:0:
182,192,261120,1,0,0:0:0:0:
329,192,261206,1,0,0:0:0:0:
36,192,261292,1,0,0:0:0:30:snare.wav
182,192,261377,1,0,0:0:0:0:
329,192,261463,1,0,0:0:0:0:
182,192,261635,1,0,0:0:0:0:
36,192,261635,1,0,0:0:0:30:snare.wav
329,192,261720,1,0,0:0:0:0:
256,192,261977,1,0,0:0:0:0:
36,192,261977,1,0,0:0:0:30:snare.wav
402,192,262063,1,0,0:0:0:0:
256,192,262235,1,0,0:0:0:0:
402,192,262320,1,0,0:0:0:0:
36,192,262320,1,0,0:0:0:30:snare.wav
256,192,262492,1,0,0:0:0:0:
402,192,262577,1,0,0:0:0:0:
36,192,262663,1,0,0:0:0:30:snare.wav
256,192,262749,1,0,0:0:0:0:
402,192,262835,1,0,0:0:0:0:
256,192,263006,1,0,0:0:0:0:
36,192,263006,1,0,0:0:0:30:snare.wav
402,192,263092,1,0,0:0:0:0:
329,192,263349,1,0,0:0:0:0:
36,192,263349,1,0,0:0:0:30:snare.wav
475,192,263435,1,0,0:0:0:0:
329,192,263606,1,0,0:0:0:0:
475,192,263692,1,0,0:0:0:0:
36,192,263692,1,0,0:0:0:30:snare.wav
329,192,263863,1,0,0:0:0:0:
475,192,263949,1,0,0:0:0:0:
36,192,264035,1,0,0:0:0:30:snare.wav
329,192,264120,1,0,0:0:0:0:
475,192,264206,1,0,0:0:0:0:
329,192,264377,1,0,0:0:0:0:
36,192,264377,1,0,0:0:0:30:snare.wav
475,192,264463,1,0,0:0:0:0:
36,192,264720,1,0,0:0:0:30:snare.wav
329,192,264720,1,0,0:0:0:0:
475,192,264806,1,0,0:0:0:0:
329,192,264977,1,0,0:0:0:0:
475,192,265063,1,0,0:0:0:0:
36,192,265063,1,0,0:0:0:30:snare.wav
329,192,265235,1,0,0:0:0:0:
475,192,265320,1,0,0:0:0:0:
36,192,265406,1,0,0:0:0:30:snare.wav
329,192,265492,1,0,0:0:0:0:
475,192,265577,1,0,0:0:0:0:
329,192,265749,1,0,0:0:0:0:
36,192,265749,1,0,0:0:0:30:snare.wav
475,192,265835,1,0,0:0:0:0:
36,192,266092,1,0,0:0:0:30:snare.wav
329,192,266092,1,0,0:0:0:0:
329,192,266177,1,0,0:0:0:0:
329,192,266349,1,0,0:0:0:0:
329,192,266435,1,0,0:0:0:0:
36,192,266435,1,0,0:0:0:30:snare.wav
329,192,266606,1,0,0:0:0:0:
329,192,266692,1,0,0:0:0:0:
36,192,266777,1,0,0:0:0:30:snare.wav
329,192,266863,1,0,0:0:0:0:
329,192,266949,1,0,0:0:0:0:
329,192,267120,1,0,0:0:0:0:
36,192,267120,1,0,0:0:0:30:snare.wav
329,192,267206,1,0,0:0:0:0:
402,192,267463,1,0,0:0:0:0:
36,192,267463,1,0,0:0:0:30:snare.wav
402,192,267549,1,0,0:0:0:0:
402,192,267720,1,0,0:0:0:0:
402,192,267806,1,0,0:0:0:0:
36,192,267806,1,0,0:0:0:30:snare.wav
402,192,267977,1,0,0:0:0:0:
402,192,268063,1,0,0:0:0:0:
36,192,268149,1,0,0:0:0:30:snare.wav
402,192,268235,1,0,0:0:0:0:
402,192,268320,1,0,0:0:0:0:
402,192,268492,1,0,0:0:0:0:
36,192,268492,1,0,0:0:0:30:snare.wav
402,192,268577,1,0,0:0:0:0:
36,192,268835,1,0,0:0:0:35:snare.wav
109,192,268835,1,0,0:0:0:0:
475,192,268835,1,0,0:0:0:0:
475,192,268920,1,0,0:0:0:0:
475,192,269092,1,0,0:0:0:0:
475,192,269177,1,0,0:0:0:0:
109,192,269177,1,0,0:0:0:0:
36,192,269177,1,0,0:0:0:35:snare.wav
475,192,269349,1,0,0:0:0:0:
475,192,269435,1,0,0:0:0:0:
109,192,269520,1,0,0:0:0:0:
36,192,269520,1,0,0:0:0:35:snare.wav
475,192,269606,1,0,0:0:0:0:
475,192,269692,1,0,0:0:0:0:
475,192,269863,1,0,0:0:0:0:
109,192,269863,1,0,0:0:0:0:
36,192,269863,1,0,0:0:0:35:snare.wav
475,192,269949,1,0,0:0:0:0:
182,192,270206,1,0,0:0:0:0:
36,192,270206,1,0,0:0:0:35:snare.wav
475,192,270206,1,0,0:0:0:0:
475,192,270292,1,0,0:0:0:0:
475,192,270463,1,0,0:0:0:0:
475,192,270549,1,0,0:0:0:0:
182,192,270549,1,0,0:0:0:0:
36,192,270549,1,0,0:0:0:35:snare.wav
475,192,270720,1,0,0:0:0:0:
475,192,270806,1,0,0:0:0:0:
182,192,270892,1,0,0:0:0:0:
36,192,270892,1,0,0:0:0:35:snare.wav
475,192,270977,1,0,0:0:0:0:
475,192,271063,1,0,0:0:0:0:
475,192,271235,1,0,0:0:0:0:
182,192,271235,1,0,0:0:0:0:
36,192,271235,1,0,0:0:0:35:snare.wav
475,192,271320,1,0,0:0:0:0:
475,192,271577,1,0,0:0:0:0:
36,192,271577,1,0,0:0:0:40:snare.wav
256,192,271577,128,0,281092:0:0:0:0:
109,192,271663,1,0,0:0:0:0:
329,192,271749,1,0,0:0:0:0:
475,192,271920,1,0,0:0:0:0:
182,192,271920,1,0,0:0:0:0:
36,192,271920,1,0,0:0:0:40:snare.wav
402,192,272006,1,0,0:0:0:0:
109,192,272177,1,0,0:0:0:0:
36,192,272263,1,0,0:0:0:0:
329,192,272263,1,0,0:0:0:0:
475,192,272263,1,0,0:0:0:40:snare.wav
182,192,272435,1,0,0:0:0:0:
402,192,272520,1,0,0:0:0:0:
475,192,272606,1,0,0:0:0:40:snare.wav
36,192,272606,1,0,0:0:0:0:
109,192,272692,1,0,0:0:0:0:
329,192,272777,1,0,0:0:0:0:
402,192,272863,1,0,0:0:0:0:
475,192,272949,1,0,0:0:0:40:snare.wav
36,192,272949,1,0,0:0:0:0:
109,192,273035,1,0,0:0:0:0:
329,192,273120,1,0,0:0:0:0:
475,192,273292,1,0,0:0:0:0:
182,192,273292,1,0,0:0:0:0:
36,192,273292,1,0,0:0:0:40:snare.wav
402,192,273377,1,0,0:0:0:0:
109,192,273549,1,0,0:0:0:0:
36,192,273635,1,0,0:0:0:0:
329,192,273635,1,0,0:0:0:0:
475,192,273635,1,0,0:0:0:40:snare.wav
182,192,273806,1,0,0:0:0:0:
402,192,273892,1,0,0:0:0:0:
475,192,273977,1,0,0:0:0:40:snare.wav
36,192,273977,1,0,0:0:0:0:
109,192,274063,1,0,0:0:0:0:
329,192,274149,1,0,0:0:0:0:
402,192,274235,1,0,0:0:0:0:
475,192,274320,1,0,0:0:0:40:snare.wav
36,192,274320,1,0,0:0:0:0:
109,192,274406,1,0,0:0:0:0:
329,192,274492,1,0,0:0:0:0:
475,192,274663,1,0,0:0:0:0:
36,192,274663,1,0,0:0:0:40:snare.wav
182,192,274663,1,0,0:0:0:0:
402,192,274749,1,0,0:0:0:0:
109,192,274920,1,0,0:0:0:0:
36,192,275006,1,0,0:0:0:0:
329,192,275006,1,0,0:0:0:0:
475,192,275006,1,0,0:0:0:40:snare.wav
182,192,275177,1,0,0:0:0:0:
402,192,275263,1,0,0:0:0:0:
475,192,275349,1,0,0:0:0:40:snare.wav
36,192,275349,1,0,0:0:0:0:
109,192,275435,1,0,0:0:0:0:
329,192,275520,1,0,0:0:0:0:
402,192,275606,1,0,0:0:0:0:
475,192,275692,1,0,0:0:0:40:snare.wav
36,192,275692,1,0,0:0:0:0:
109,192,275777,1,0,0:0:0:0:
329,192,275863,1,0,0:0:0:0:
475,192,276035,1,0,0:0:0:0:
182,192,276035,1,0,0:0:0:0:
36,192,276035,1,0,0:0:0:40:snare.wav
402,192,276120,1,0,0:0:0:0:
109,192,276292,1,0,0:0:0:0:
36,192,276377,1,0,0:0:0:0:
329,192,276377,1,0,0:0:0:0:
475,192,276377,1,0,0:0:0:40:snare.wav
182,192,276549,1,0,0:0:0:0:
402,192,276635,1,0,0:0:0:0:
475,192,276720,1,0,0:0:0:40:snare.wav
36,192,276720,1,0,0:0:0:0:
109,192,276806,1,0,0:0:0:0:
329,192,276892,1,0,0:0:0:0:
402,192,276977,1,0,0:0:0:0:
182,192,277063,1,0,0:0:0:0:
36,192,277063,1,0,0:0:0:40:snare.wav
109,192,277149,1,0,0:0:0:0:
329,192,277235,1,0,0:0:0:0:
475,192,277235,1,0,0:0:0:40:snare.wav
182,192,277320,1,0,0:0:0:0:
36,192,277406,1,0,0:0:0:0:
402,192,277406,1,0,0:0:0:40:snare.wav
109,192,277492,1,0,0:0:0:0:
329,192,277577,1,0,0:0:0:0:
475,192,277577,1,0,0:0:0:40:snare.wav
182,192,277749,1,0,0:0:0:0:
36,192,277749,1,0,0:0:0:40:snare.wav
109,192,277835,1,0,0:0:0:0:
329,192,277920,1,0,0:0:0:0:
475,192,277920,1,0,0:0:0:40:snare.wav
182,192,278006,1,0,0:0:0:0:
36,192,278092,1,0,0:0:0:40:snare.wav
402,192,278092,1,0,0:0:0:0:
109,192,278177,1,0,0:0:0:0:
329,192,278263,1,0,0:0:0:0:
475,192,278263,1,0,0:0:0:40:snare.wav
182,192,278435,1,0,0:0:0:0:
36,192,278435,1,0,0:0:0:40:snare.wav
109,192,278520,1,0,0:0:0:0:
329,192,278606,1,0,0:0:0:0:
475,192,278606,1,0,0:0:0:40:snare.wav
182,192,278692,1,0,0:0:0:0:
402,192,278777,1,0,0:0:0:40:snare.wav
36,192,278777,1,0,0:0:0:0:
109,192,278863,1,0,0:0:0:0:
329,192,278949,1,0,0:0:0:0:
475,192,278949,1,0,0:0:0:40:snare.wav
182,192,279120,1,0,0:0:0:0:
36,192,279120,1,0,0:0:0:40:snare.wav
109,192,279206,1,0,0:0:0:0:
329,192,279292,1,0,0:0:0:0:
475,192,279292,1,0,0:0:0:40:snare.wav
182,192,279377,1,0,0:0:0:0:
36,192,279463,1,0,0:0:0:0:
402,192,279463,1,0,0:0:0:40:snare.wav
109,192,279549,1,0,0:0:0:0:
329,192,279635,1,0,0:0:0:0:
475,192,279635,1,0,0:0:0:40:snare.wav
182,192,279806,1,0,0:0:0:40:snare.wav
109,192,279806,1,0,0:0:0:0:
329,192,279892,1,0,0:0:0:40:snare.wav
402,192,279892,1,0,0:0:0:0:
182,192,279977,1,0,0:0:0:40:snare.wav
109,192,279977,1,0,0:0:0:0:
329,192,280063,5,0,0:0:0:40:snare.wav
402,192,280063,1,0,0:0:0:0:
109,192,280149,1,0,0:0:0:0:
36,192,280149,1,0,0:0:0:40:snare.wav
402,192,280235,1,0,0:0:0:0:
475,192,280235,1,0,0:0:0:40:snare.wav
109,192,280320,1,0,0:0:0:0:
36,192,280320,1,0,0:0:0:40:snare.wav
402,192,280406,1,0,0:0:0:0:
475,192,280406,1,0,0:0:0:40:snare.wav
182,192,280492,1,0,0:0:0:40:snare.wav
109,192,280492,1,0,0:0:0:0:
329,192,280577,1,0,0:0:0:40:snare.wav
402,192,280577,1,0,0:0:0:0:
182,192,280663,1,0,0:0:0:40:snare.wav
109,192,280663,1,0,0:0:0:0:
329,192,280749,1,0,0:0:0:40:snare.wav
402,192,280749,1,0,0:0:0:0:
109,192,280835,1,0,0:0:0:0:
36,192,280835,1,0,0:0:0:40:snare.wav
475,192,280920,1,0,0:0:0:40:snare.wav
402,192,280920,1,0,0:0:0:0:
109,192,281006,1,0,0:0:0:0:
36,192,281006,1,0,0:0:0:40:snare.wav
402,192,281092,1,0,0:0:0:0:
475,192,281092,1,0,0:0:0:40:snare.wav
256,192,281177,5,0,0:0:0:40:snare.wav
329,192,281177,1,0,0:0:0:0:
182,192,281177,1,0,0:0:0:0:
329,192,282549,1,0,0:0:0:30:crash.wav
475,192,282549,1,0,0:0:0:50:kick.wav
36,192,282549,1,0,0:0:0:0:
109,192,282635,1,0,0:0:0:0:
256,192,282720,1,0,0:0:0:0:
36,192,282806,1,0,0:0:0:0:
182,192,282892,1,0,0:0:0:0:
402,192,282892,1,0,0:0:0:0:
475,192,282892,1,0,0:0:0:50:kick.wav
329,192,282977,1,0,0:0:0:0:
109,192,283063,1,0,0:0:0:0:
256,192,283149,1,0,0:0:0:0:
329,192,283235,1,0,0:0:0:0:
36,192,283235,1,0,0:0:0:50:kick.wav
182,192,283320,1,0,0:0:0:0:
256,192,283406,1,0,0:0:0:0:
402,192,283492,1,0,0:0:0:0:
475,192,283577,1,0,0:0:0:0:
109,192,283577,1,0,0:0:0:0:
36,192,283577,1,0,0:0:0:50:kick.wav
182,192,283663,1,0,0:0:0:0:
329,192,283749,1,0,0:0:0:0:
402,192,283835,1,0,0:0:0:0:
36,192,283920,1,0,0:0:0:50:kick.wav
256,192,283920,1,0,0:0:0:0:
329,192,284006,1,0,0:0:0:0:
475,192,284092,1,0,0:0:0:0:
182,192,284177,1,0,0:0:0:0:
109,192,284263,1,0,0:0:0:0:
36,192,284263,1,0,0:0:0:50:kick.wav
256,192,284263,1,0,0:0:0:0:
402,192,284349,1,0,0:0:0:0:
109,192,284435,1,0,0:0:0:0:
182,192,284520,1,0,0:0:0:0:
329,192,284606,1,0,0:0:0:0:
475,192,284606,1,0,0:0:0:50:kick.wav
109,192,284692,1,0,0:0:0:0:
182,192,284777,1,0,0:0:0:0:
256,192,284863,1,0,0:0:0:0:
402,192,284949,1,0,0:0:0:0:
475,192,284949,1,0,0:0:0:50:kick.wav
36,192,284949,1,0,0:0:0:0:
182,192,285035,1,0,0:0:0:0:
329,192,285120,1,0,0:0:0:0:
402,192,285206,1,0,0:0:0:0:
109,192,285292,1,0,0:0:0:0:
36,192,285292,1,0,0:0:0:50:kick.wav
182,192,285377,1,0,0:0:0:0:
329,192,285463,1,0,0:0:0:0:
109,192,285549,1,0,0:0:0:0:
256,192,285635,1,0,0:0:0:0:
402,192,285635,1,0,0:0:0:0:
475,192,285635,1,0,0:0:0:50:kick.wav
329,192,285720,1,0,0:0:0:0:
182,192,285806,1,0,0:0:0:0:
256,192,285892,1,0,0:0:0:0:
402,192,285977,1,0,0:0:0:0:
36,192,285977,1,0,0:0:0:50:kick.wav
109,192,286063,1,0,0:0:0:0:
256,192,286149,1,0,0:0:0:0:
329,192,286235,1,0,0:0:0:0:
475,192,286320,1,0,0:0:0:0:
109,192,286320,1,0,0:0:0:0:
36,192,286320,1,0,0:0:0:50:kick.wav
182,192,286406,1,0,0:0:0:0:
329,192,286492,1,0,0:0:0:0:
402,192,286577,1,0,0:0:0:0:
256,192,286663,1,0,0:0:0:0:
36,192,286663,1,0,0:0:0:50:kick.wav
329,192,286749,1,0,0:0:0:0:
475,192,286835,1,0,0:0:0:0:
182,192,286920,1,0,0:0:0:0:
256,192,287006,1,0,0:0:0:0:
109,192,287006,1,0,0:0:0:0:
36,192,287006,1,0,0:0:0:50:kick.wav
329,192,287092,1,0,0:0:0:0:
182,192,287177,1,0,0:0:0:0:
256,192,287263,1,0,0:0:0:0:
402,192,287349,1,0,0:0:0:50:kick.wav
36,192,287349,1,0,0:0:0:0:
182,192,287435,1,0,0:0:0:0:
256,192,287520,1,0,0:0:0:0:
475,192,287606,1,0,0:0:0:0:
329,192,287692,1,0,0:0:0:0:
109,192,287692,1,0,0:0:0:0:
36,192,287692,1,0,0:0:0:50:kick.wav
182,192,287777,1,0,0:0:0:0:
402,192,287863,1,0,0:0:0:0:
329,192,287949,1,0,0:0:0:0:
475,192,288035,1,0,0:0:0:0:
256,192,288035,1,0,0:0:0:50:kick.wav
36,192,288035,1,0,0:0:0:0:
182,192,288120,1,0,0:0:0:0:
329,192,288206,1,0,0:0:0:0:
109,192,288292,1,0,0:0:0:0:
256,192,288377,1,0,0:0:0:0:
475,192,288377,1,0,0:0:0:0:
36,192,288377,1,0,0:0:0:50:kick.wav
402,192,288463,1,0,0:0:0:0:
109,192,288549,1,0,0:0:0:0:
256,192,288635,1,0,0:0:0:0:
329,192,288720,1,0,0:0:0:0:
36,192,288720,1,0,0:0:0:50:kick.wav
182,192,288806,1,0,0:0:0:0:
256,192,288892,1,0,0:0:0:0:
402,192,288977,1,0,0:0:0:0:
475,192,289063,1,0,0:0:0:0:
109,192,289063,1,0,0:0:0:0:
36,192,289063,1,0,0:0:0:50:kick.wav
182,192,289149,1,0,0:0:0:0:
329,192,289235,1,0,0:0:0:0:
402,192,289320,1,0,0:0:0:0:
182,192,289406,1,0,0:0:0:0:
36,192,289406,1,0,0:0:0:50:kick.wav
256,192,289492,1,0,0:0:0:0:
475,192,289577,1,0,0:0:0:0:
109,192,289663,1,0,0:0:0:0:
36,192,289749,1,0,0:0:0:0:
256,192,289749,1,0,0:0:0:50:kick.wav
329,192,289749,1,0,0:0:0:0:
402,192,289835,1,0,0:0:0:0:
182,192,289920,1,0,0:0:0:0:
256,192,290006,1,0,0:0:0:0:
329,192,290092,1,0,0:0:0:0:
475,192,290092,1,0,0:0:0:50:kick.wav
109,192,290177,1,0,0:0:0:0:
256,192,290263,1,0,0:0:0:0:
402,192,290349,1,0,0:0:0:0:
182,192,290435,1,0,0:0:0:0:
109,192,290435,1,0,0:0:0:0:
36,192,290435,1,0,0:0:0:50:kick.wav
256,192,290520,1,0,0:0:0:0:
402,192,290606,1,0,0:0:0:0:
475,192,290692,1,0,0:0:0:0:
329,192,290777,1,0,0:0:0:50:kick.wav
36,192,290777,1,0,0:0:0:0:
109,192,290863,1,0,0:0:0:0:
182,192,290949,1,0,0:0:0:0:
109,192,291035,1,0,0:0:0:0:
256,192,291120,1,0,0:0:0:0:
402,192,291120,1,0,0:0:0:0:
475,192,291120,1,0,0:0:0:50:kick.wav
329,192,291206,1,0,0:0:0:0:
182,192,291292,1,0,0:0:0:0:
256,192,291377,1,0,0:0:0:0:
402,192,291463,1,0,0:0:0:50:kick.wav
36,192,291463,1,0,0:0:0:0:
109,192,291549,1,0,0:0:0:0:
182,192,291635,1,0,0:0:0:0:
329,192,291720,1,0,0:0:0:0:
256,192,291806,1,0,0:0:0:50:kick.wav
475,192,291806,1,0,0:0:0:0:
36,192,291806,1,0,0:0:0:0:
109,192,291892,1,0,0:0:0:0:
329,192,291977,1,0,0:0:0:0:
402,192,292063,1,0,0:0:0:0:
182,192,292149,1,0,0:0:0:0:
36,192,292149,1,0,0:0:0:50:kick.wav
256,192,292235,1,0,0:0:0:0:
329,192,292320,1,0,0:0:0:0:
109,192,292406,1,0,0:0:0:0:
182,192,292492,1,0,0:0:0:0:
256,192,292492,1,0,0:0:0:50:kick.wav
402,192,292492,1,0,0:0:0:0:
475,192,292577,1,0,0:0:0:0:
36,192,292663,1,0,0:0:0:0:
109,192,292749,1,0,0:0:0:0:
182,192,292835,1,0,0:0:0:0:
329,192,292835,1,0,0:0:0:50:kick.wav
109,192,292920,1,0,0:0:0:0:
256,192,293006,1,0,0:0:0:0:
402,192,293092,1,0,0:0:0:0:
329,192,293177,1,0,0:0:0:0:
182,192,293177,1,0,0:0:0:0:
36,192,293177,1,0,0:0:0:50:kick.wav
109,192,293263,1,0,0:0:0:0:
256,192,293349,1,0,0:0:0:50:kick.wav
475,192,293349,1,0,0:0:0:0:
256,192,293435,1,0,0:0:0:50:kick.wav
402,192,293435,1,0,0:0:0:0:
109,192,293520,1,0,0:0:0:0:
36,192,293520,1,0,0:0:0:50:kick.wav
182,192,293606,1,0,0:0:0:0:
329,192,293692,1,0,0:0:0:0:
109,192,293777,1,0,0:0:0:0:
256,192,293863,1,0,0:0:0:0:
402,192,293863,1,0,0:0:0:0:
475,192,293863,1,0,0:0:0:50:kick.wav
329,192,293949,1,0,0:0:0:0:
182,192,294035,1,0,0:0:0:0:
256,192,294120,1,0,0:0:0:0:
109,192,294206,1,0,0:0:0:0:
36,192,294206,1,0,0:0:0:50:kick.wav
329,192,294292,1,0,0:0:0:0:
182,192,294377,1,0,0:0:0:0:
256,192,294463,1,0,0:0:0:0:
402,192,294549,1,0,0:0:0:0:
475,192,294549,1,0,0:0:0:50:kick.wav
109,192,294549,1,0,0:0:0:0:
182,192,294635,1,0,0:0:0:0:
329,192,294720,1,0,0:0:0:0:
402,192,294806,1,0,0:0:0:0:
109,192,294892,1,0,0:0:0:0:
36,192,294892,1,0,0:0:0:50:kick.wav
182,192,294977,1,0,0:0:0:0:
329,192,295063,1,0,0:0:0:0:
256,192,295149,1,0,0:0:0:0:
109,192,295235,1,0,0:0:0:0:
402,192,295235,1,0,0:0:0:0:
475,192,295235,1,0,0:0:0:50:kick.wav
182,192,295320,1,0,0:0:0:0:
329,192,295406,1,0,0:0:0:0:
256,192,295492,1,0,0:0:0:0:
109,192,295577,1,0,0:0:0:0:
36,192,295577,1,0,0:0:0:50:kick.wav
182,192,295663,1,0,0:0:0:0:
329,192,295749,1,0,0:0:0:0:
256,192,295835,1,0,0:0:0:0:
109,192,295920,1,0,0:0:0:0:
402,192,295920,1,0,0:0:0:0:
475,192,295920,1,0,0:0:0:50:kick.wav
182,192,296006,1,0,0:0:0:0:
329,192,296092,1,0,0:0:0:0:
402,192,296177,1,0,0:0:0:0:
109,192,296263,1,0,0:0:0:0:
36,192,296263,1,0,0:0:0:50:kick.wav
182,192,296349,1,0,0:0:0:0:
329,192,296435,1,0,0:0:0:0:
109,192,296520,1,0,0:0:0:0:
256,192,296606,1,0,0:0:0:0:
402,192,296606,1,0,0:0:0:0:
475,192,296606,1,0,0:0:0:50:kick.wav
329,192,296692,1,0,0:0:0:0:
182,192,296777,1,0,0:0:0:0:
256,192,296863,1,0,0:0:0:0:
109,192,296949,1,0,0:0:0:0:
36,192,296949,1,0,0:0:0:50:kick.wav
329,192,297035,1,0,0:0:0:0:
182,192,297120,1,0,0:0:0:0:
256,192,297206,1,0,0:0:0:0:
109,192,297292,1,0,0:0:0:0:
402,192,297292,1,0,0:0:0:0:
475,192,297292,1,0,0:0:0:50:kick.wav
182,192,297377,1,0,0:0:0:0:
329,192,297463,1,0,0:0:0:0:
402,192,297549,1,0,0:0:0:0:
109,192,297635,1,0,0:0:0:0:
36,192,297635,1,0,0:0:0:50:kick.wav
182,192,297720,1,0,0:0:0:0:
329,192,297806,1,0,0:0:0:0:
109,192,297892,1,0,0:0:0:0:
256,192,297977,1,0,0:0:0:0:
402,192,297977,1,0,0:0:0:0:
475,192,297977,1,0,0:0:0:50:kick.wav
182,192,298063,1,0,0:0:0:0:
329,192,298149,1,0,0:0:0:0:
256,192,298235,1,0,0:0:0:0:
109,192,298320,1,0,0:0:0:0:
36,192,298320,1,0,0:0:0:50:kick.wav
182,192,298406,1,0,0:0:0:0:
329,192,298492,1,0,0:0:0:0:
256,192,298577,1,0,0:0:0:0:
109,192,298663,1,0,0:0:0:0:
402,192,298663,1,0,0:0:0:0:
475,192,298663,1,0,0:0:0:50:kick.wav
36,192,298749,1,0,0:0:0:0:
329,192,298835,1,0,0:0:0:0:
256,192,298920,1,0,0:0:0:0:
36,192,299006,1,0,0:0:0:0:
475,192,299006,1,0,0:0:0:50:kick.wav
109,192,299092,1,0,0:0:0:0:
182,192,299177,1,0,0:0:0:0:
329,192,299177,1,0,0:0:0:50:kick.wav
36,192,299263,1,0,0:0:0:0:
109,192,299349,1,0,0:0:0:0:
402,192,299349,1,0,0:0:0:0:
475,192,299349,1,0,0:0:0:50:kick.wav
256,192,299435,1,0,0:0:0:0:
329,192,299520,1,0,0:0:0:0:
36,192,299520,1,0,0:0:0:50:kick.wav
182,192,299606,1,0,0:0:0:0:
256,192,299692,1,0,0:0:0:0:
475,192,299692,1,0,0:0:0:50:kick.wav
36,192,299777,1,0,0:0:0:0:
109,192,299863,1,0,0:0:0:0:
329,192,299863,1,0,0:0:0:50:kick.wav
256,192,299949,1,0,0:0:0:0:
402,192,300035,1,0,0:0:0:0:
475,192,300035,1,0,0:0:0:50:kick.wav
36,192,300035,1,0,0:0:0:0:
109,192,300120,1,0,0:0:0:0:
182,192,300206,1,0,0:0:0:0:
329,192,300206,1,0,0:0:0:50:kick.wav
402,192,300292,1,0,0:0:0:0:
256,192,300377,1,0,0:0:0:0:
36,192,300377,1,0,0:0:0:50:kick.wav
329,192,300463,1,0,0:0:0:0:
475,192,300549,1,0,0:0:0:50:kick.wav
182,192,300549,1,0,0:0:0:0:
256,192,300635,1,0,0:0:0:0:
329,192,300720,1,0,0:0:0:0:
109,192,300720,1,0,0:0:0:0:
36,192,300720,1,0,0:0:0:50:kick.wav
402,192,300806,1,0,0:0:0:0:
256,192,300892,1,0,0:0:0:0:
182,192,300892,1,0,0:0:0:50:kick.wav
329,192,300977,1,0,0:0:0:0:
475,192,301063,1,0,0:0:0:0:
36,192,301063,1,0,0:0:0:50:kick.wav
256,192,301149,1,0,0:0:0:0:
182,192,301235,1,0,0:0:0:50:kick.wav
329,192,301235,1,0,0:0:0:0:
402,192,301320,1,0,0:0:0:0:
256,192,301406,1,0,0:0:0:0:
109,192,301406,1,0,0:0:0:0:
36,192,301406,1,0,0:0:0:50:kick.wav
329,192,301492,1,0,0:0:0:0:
402,192,301577,1,0,0:0:0:0:
182,192,301577,1,0,0:0:0:50:kick.wav
475,192,301663,1,0,0:0:0:0:
329,192,301749,1,0,0:0:0:0:
36,192,301749,1,0,0:0:0:50:kick.wav
109,192,301835,1,0,0:0:0:50:kick.wav
256,192,301835,1,0,0:0:0:0:
36,192,301920,1,0,0:0:0:50:kick.wav
402,192,301920,1,0,0:0:0:0:
329,192,302006,1,0,0:0:0:0:
182,192,302006,1,0,0:0:0:50:kick.wav
109,192,302092,1,0,0:0:0:50:kick.wav
475,192,302092,1,0,0:0:0:0:
402,192,302177,1,0,0:0:0:0:
256,192,302177,1,0,0:0:0:50:kick.wav
475,192,302263,1,0,0:0:0:0:
36,192,302263,1,0,0:0:0:50:kick.wav
182,192,302349,1,0,0:0:0:50:kick.wav
329,192,302349,1,0,0:0:0:0:
402,192,302435,1,0,0:0:0:0:
36,192,302435,1,0,0:0:0:50:kick.wav
109,192,302520,1,0,0:0:0:50:kick.wav
256,192,302520,1,0,0:0:0:0:kick.wav
36,192,302606,1,0,0:0:0:50:kick.wav
475,192,302606,1,0,0:0:0:0:
329,192,302692,1,0,0:0:0:0:
182,192,302692,1,0,0:0:0:50:kick.wav
109,192,302777,1,0,0:0:0:50:kick.wav
475,192,302777,1,0,0:0:0:0:
402,192,302863,1,0,0:0:0:0:
256,192,302863,1,0,0:0:0:50:kick.wav
475,192,302949,1,0,0:0:0:0:
36,192,302949,1,0,0:0:0:50:kick.wav
182,192,303035,1,0,0:0:0:50:kick.wav
329,192,303035,1,0,0:0:0:0:
109,192,303120,1,0,0:0:0:50:kick.wav
256,192,303163,1,0,0:0:0:0:
402,192,303206,1,0,0:0:0:0:
182,192,303249,1,0,0:0:0:0:
329,192,303292,1,0,0:0:0:0:
36,192,303292,1,0,0:0:0:0:
475,192,303335,1,0,0:0:0:0:
109,192,303377,1,0,0:0:0:0:
256,192,303420,1,0,0:0:0:0:
402,192,303463,1,0,0:0:0:0:
36,192,303463,1,0,0:0:0:0:
182,192,303506,1,0,0:0:0:0:
329,192,303549,1,0,0:0:0:0:
475,192,303592,1,0,0:0:0:0:
109,192,303635,1,0,0:0:0:0:
256,192,303677,1,0,0:0:0:0:
402,192,303720,1,0,0:0:0:0:
182,192,303763,1,0,0:0:0:0:
36,192,303806,1,0,0:0:0:0:
475,192,303806,1,0,0:0:0:0:
329,192,303849,1,0,0:0:0:0:
109,192,303892,1,0,0:0:0:0:
256,192,303935,1,0,0:0:0:0:
402,192,303977,1,0,0:0:0:0:
36,192,303977,1,0,0:0:0:0:
182,192,304020,1,0,0:0:0:0:
329,192,304063,1,0,0:0:0:0:
475,192,304106,1,0,0:0:0:0:
256,192,304149,1,0,0:0:0:0:
109,192,304149,1,0,0:0:0:0:
402,192,304192,1,0,0:0:0:0:
182,192,304235,1,0,0:0:0:0:
36,192,304235,1,0,0:0:0:0:
329,192,304277,1,0,0:0:0:0:
475,192,304320,1,0,0:0:0:0:
109,192,304320,1,0,0:0:0:0:
256,192,304363,1,0,0:0:0:0:
402,192,304406,1,0,0:0:0:0:
182,192,304449,1,0,0:0:0:0:
36,192,304492,1,0,0:0:0:0:kick.wav
329,192,304492,1,0,0:0:0:30:crash.wav
475,192,304492,1,0,0:0:0:50:kick.wav
109,192,304577,1,0,0:0:0:0:
256,192,304663,1,0,0:0:0:0:
36,192,304749,1,0,0:0:0:0:
182,192,304835,1,0,0:0:0:0:
402,192,304835,1,0,0:0:0:0:
475,192,304835,1,0,0:0:0:50:kick.wav
329,192,304920,1,0,0:0:0:0:
109,192,305006,1,0,0:0:0:0:
256,192,305092,1,0,0:0:0:0:
329,192,305177,1,0,0:0:0:50:kick.wav
36,192,305177,1,0,0:0:0:0:
182,192,305263,1,0,0:0:0:0:
256,192,305349,1,0,0:0:0:0:
402,192,305435,1,0,0:0:0:0:
475,192,305520,1,0,0:0:0:0:
109,192,305520,1,0,0:0:0:0:
36,192,305520,1,0,0:0:0:50:kick.wav
182,192,305606,1,0,0:0:0:0:
329,192,305692,1,0,0:0:0:0:
402,192,305777,1,0,0:0:0:0:
256,192,305863,1,0,0:0:0:0:
36,192,305863,1,0,0:0:0:50:kick.wav
329,192,305949,1,0,0:0:0:0:
475,192,306035,1,0,0:0:0:0:
182,192,306120,1,0,0:0:0:0:
256,192,306206,1,0,0:0:0:0:
109,192,306206,1,0,0:0:0:0:
36,192,306206,1,0,0:0:0:50:kick.wav
402,192,306292,1,0,0:0:0:0:
109,192,306377,1,0,0:0:0:0:
182,192,306463,1,0,0:0:0:0:
329,192,306549,1,0,0:0:0:0:
475,192,306549,1,0,0:0:0:50:kick.wav
109,192,306635,1,0,0:0:0:0:
182,192,306720,1,0,0:0:0:0:
256,192,306806,1,0,0:0:0:0:
402,192,306892,1,0,0:0:0:0:
475,192,306892,1,0,0:0:0:50:kick.wav
36,192,306892,1,0,0:0:0:0:
182,192,306977,1,0,0:0:0:0:
329,192,307063,1,0,0:0:0:0:
402,192,307149,1,0,0:0:0:0:
109,192,307235,1,0,0:0:0:0:
36,192,307235,1,0,0:0:0:50:kick.wav
182,192,307320,1,0,0:0:0:0:
329,192,307406,1,0,0:0:0:0:
109,192,307492,1,0,0:0:0:0:
256,192,307577,1,0,0:0:0:0:
402,192,307577,1,0,0:0:0:0:
475,192,307577,1,0,0:0:0:50:kick.wav
329,192,307663,1,0,0:0:0:0:
182,192,307749,1,0,0:0:0:0:
256,192,307835,1,0,0:0:0:0:
402,192,307920,1,0,0:0:0:50:kick.wav
36,192,307920,1,0,0:0:0:0:
109,192,308006,1,0,0:0:0:0:
256,192,308092,1,0,0:0:0:0:
329,192,308177,1,0,0:0:0:0:
475,192,308263,1,0,0:0:0:0:
109,192,308263,1,0,0:0:0:0:
36,192,308263,1,0,0:0:0:50:kick.wav
182,192,308349,1,0,0:0:0:0:
329,192,308435,1,0,0:0:0:0:
402,192,308520,1,0,0:0:0:0:
256,192,308606,1,0,0:0:0:0:
36,192,308606,1,0,0:0:0:50:kick.wav
329,192,308692,1,0,0:0:0:0:
475,192,308777,1,0,0:0:0:0:
182,192,308863,1,0,0:0:0:0:
256,192,308949,1,0,0:0:0:0:
109,192,308949,1,0,0:0:0:0:
36,192,308949,1,0,0:0:0:50:kick.wav
329,192,309035,1,0,0:0:0:0:
182,192,309120,1,0,0:0:0:0:
256,192,309206,1,0,0:0:0:0:
402,192,309292,1,0,0:0:0:0:
36,192,309292,1,0,0:0:0:50:kick.wav
182,192,309377,1,0,0:0:0:0:
256,192,309463,1,0,0:0:0:0:
475,192,309549,1,0,0:0:0:0:
329,192,309635,1,0,0:0:0:0:
109,192,309635,1,0,0:0:0:0:
36,192,309635,1,0,0:0:0:50:kick.wav
182,192,309720,1,0,0:0:0:0:
402,192,309806,1,0,0:0:0:0:
329,192,309892,1,0,0:0:0:0:
256,192,309977,1,0,0:0:0:50:kick.wav
475,192,309977,1,0,0:0:0:0:
36,192,309977,1,0,0:0:0:0:
182,192,310063,1,0,0:0:0:0:
329,192,310149,1,0,0:0:0:0:
109,192,310235,1,0,0:0:0:0:
36,192,310320,1,0,0:0:0:50:kick.wav
256,192,310320,1,0,0:0:0:0:
475,192,310320,1,0,0:0:0:0:
402,192,310406,1,0,0:0:0:0:
109,192,310492,1,0,0:0:0:0:
256,192,310577,1,0,0:0:0:0:
329,192,310663,1,0,0:0:0:0:
36,192,310663,1,0,0:0:0:50:kick.wav
182,192,310749,1,0,0:0:0:0:
256,192,310835,1,0,0:0:0:0:
402,192,310920,1,0,0:0:0:0:
475,192,311006,1,0,0:0:0:0:
36,192,311006,1,0,0:0:0:50:kick.wav
109,192,311006,1,0,0:0:0:0:
182,192,311092,1,0,0:0:0:0:
329,192,311177,1,0,0:0:0:0:
402,192,311263,1,0,0:0:0:0:
182,192,311349,1,0,0:0:0:0:
36,192,311349,1,0,0:0:0:50:kick.wav
256,192,311435,1,0,0:0:0:0:
475,192,311520,1,0,0:0:0:0:
109,192,311606,1,0,0:0:0:0:
36,192,311692,1,0,0:0:0:50:kick.wav
256,192,311692,1,0,0:0:0:0:
329,192,311692,1,0,0:0:0:0:
402,192,311777,1,0,0:0:0:0:
182,192,311863,1,0,0:0:0:0:
256,192,311949,1,0,0:0:0:0:
329,192,312035,1,0,0:0:0:0:
475,192,312035,1,0,0:0:0:50:kick.wav
109,192,312120,1,0,0:0:0:0:
256,192,312206,1,0,0:0:0:0:
402,192,312292,1,0,0:0:0:0:
182,192,312377,1,0,0:0:0:0:
109,192,312377,1,0,0:0:0:0:
36,192,312377,1,0,0:0:0:50:kick.wav
256,192,312463,1,0,0:0:0:0:
402,192,312549,1,0,0:0:0:0:
475,192,312635,1,0,0:0:0:0:
329,192,312720,1,0,0:0:0:50:kick.wav
36,192,312720,1,0,0:0:0:0:
109,192,312806,1,0,0:0:0:0:
182,192,312892,1,0,0:0:0:0:
109,192,312977,1,0,0:0:0:0:
256,192,313063,1,0,0:0:0:0:
402,192,313063,1,0,0:0:0:0:
475,192,313063,1,0,0:0:0:50:kick.wav
329,192,313149,1,0,0:0:0:0:
182,192,313235,1,0,0:0:0:0:
256,192,313320,1,0,0:0:0:0:
402,192,313406,1,0,0:0:0:0:
36,192,313406,1,0,0:0:0:50:kick.wav
109,192,313492,1,0,0:0:0:0:
182,192,313577,1,0,0:0:0:0:
329,192,313663,1,0,0:0:0:0:
256,192,313749,1,0,0:0:0:50:kick.wav
475,192,313749,1,0,0:0:0:0:
36,192,313749,1,0,0:0:0:0:
109,192,313835,1,0,0:0:0:0:
329,192,313920,1,0,0:0:0:0:
402,192,314006,1,0,0:0:0:0:
182,192,314092,1,0,0:0:0:0:
36,192,314092,1,0,0:0:0:50:kick.wav
256,192,314177,1,0,0:0:0:0:
329,192,314263,1,0,0:0:0:0:
109,192,314349,1,0,0:0:0:0:
182,192,314435,1,0,0:0:0:0:
256,192,314435,1,0,0:0:0:50:kick.wav
402,192,314435,1,0,0:0:0:0:
475,192,314520,1,0,0:0:0:0:
36,192,314606,1,0,0:0:0:0:
109,192,314692,1,0,0:0:0:0:
182,192,314777,1,0,0:0:0:0:
329,192,314777,1,0,0:0:0:50:kick.wav
109,192,314863,1,0,0:0:0:0:
256,192,314949,1,0,0:0:0:0:
402,192,315035,1,0,0:0:0:0:
182,192,315120,1,0,0:0:0:0:
109,192,315120,1,0,0:0:0:0:
36,192,315120,1,0,0:0:0:50:kick.wav
329,192,315206,1,0,0:0:0:0:
256,192,315292,1,0,0:0:0:50:kick.wav
475,192,315292,1,0,0:0:0:0:
256,192,315377,1,0,0:0:0:50:kick.wav
402,192,315377,1,0,0:0:0:0:
109,192,315463,1,0,0:0:0:0:
36,192,315463,1,0,0:0:0:50:kick.wav
182,192,315549,1,0,0:0:0:0:
329,192,315635,1,0,0:0:0:0:
109,192,315720,1,0,0:0:0:0:
256,192,315806,1,0,0:0:0:0:
402,192,315806,1,0,0:0:0:0:
475,192,315806,1,0,0:0:0:50:kick.wav
329,192,315892,1,0,0:0:0:0:
182,192,315977,1,0,0:0:0:0:
256,192,316063,1,0,0:0:0:0:
109,192,316149,1,0,0:0:0:0:
36,192,316149,1,0,0:0:0:50:kick.wav
329,192,316235,1,0,0:0:0:0:
182,192,316320,1,0,0:0:0:0:
256,192,316406,1,0,0:0:0:0:
402,192,316492,1,0,0:0:0:0:
475,192,316492,1,0,0:0:0:50:kick.wav
109,192,316492,1,0,0:0:0:0:
182,192,316577,1,0,0:0:0:0:
329,192,316663,1,0,0:0:0:0:
402,192,316749,1,0,0:0:0:0:
109,192,316835,1,0,0:0:0:0:
36,192,316835,1,0,0:0:0:50:kick.wav
182,192,316920,1,0,0:0:0:0:
329,192,317006,1,0,0:0:0:0:
256,192,317092,1,0,0:0:0:0:
402,192,317177,1,0,0:0:0:0:
475,192,317177,1,0,0:0:0:50:kick.wav
109,192,317177,1,0,0:0:0:0:
182,192,317263,1,0,0:0:0:0:
329,192,317349,1,0,0:0:0:0:
256,192,317435,1,0,0:0:0:0:
109,192,317520,1,0,0:0:0:0:
36,192,317520,1,0,0:0:0:50:kick.wav
182,192,317606,1,0,0:0:0:0:
329,192,317692,1,0,0:0:0:0:
256,192,317777,1,0,0:0:0:0:
402,192,317863,1,0,0:0:0:0:
475,192,317863,1,0,0:0:0:50:kick.wav
109,192,317863,1,0,0:0:0:0:
182,192,317949,1,0,0:0:0:0:
329,192,318035,1,0,0:0:0:0:
402,192,318120,1,0,0:0:0:0:
109,192,318206,1,0,0:0:0:0:
36,192,318206,1,0,0:0:0:50:kick.wav
182,192,318292,1,0,0:0:0:0:
329,192,318377,1,0,0:0:0:0:
109,192,318463,1,0,0:0:0:0:
256,192,318549,1,0,0:0:0:0:
402,192,318549,1,0,0:0:0:0:
475,192,318549,1,0,0:0:0:50:kick.wav
329,192,318635,1,0,0:0:0:0:
182,192,318720,1,0,0:0:0:0:
256,192,318806,1,0,0:0:0:0:
109,192,318892,1,0,0:0:0:0:
36,192,318892,1,0,0:0:0:50:kick.wav
329,192,318977,1,0,0:0:0:0:
182,192,319063,1,0,0:0:0:0:
256,192,319149,1,0,0:0:0:0:
402,192,319235,1,0,0:0:0:0:
475,192,319235,1,0,0:0:0:50:kick.wav
109,192,319235,1,0,0:0:0:0:
182,192,319320,1,0,0:0:0:0:
329,192,319406,1,0,0:0:0:0:
402,192,319492,1,0,0:0:0:0:
109,192,319577,1,0,0:0:0:0:
36,192,319577,1,0,0:0:0:50:kick.wav
182,192,319663,1,0,0:0:0:0:
329,192,319749,1,0,0:0:0:0:
109,192,319835,1,0,0:0:0:0:
256,192,319920,1,0,0:0:0:0:kick.wav
402,192,319920,1,0,0:0:0:0:
475,192,319920,1,0,0:0:0:50:kick.wav
182,192,320006,1,0,0:0:0:0:
329,192,320092,1,0,0:0:0:0:
256,192,320177,1,0,0:0:0:0:
109,192,320263,1,0,0:0:0:0:
36,192,320263,1,0,0:0:0:50:kick.wav
182,192,320349,1,0,0:0:0:0:
329,192,320435,1,0,0:0:0:0:
256,192,320520,1,0,0:0:0:0:
402,192,320606,1,0,0:0:0:0:
475,192,320606,1,0,0:0:0:50:kick.wav
109,192,320606,1,0,0:0:0:0:
36,192,320692,1,0,0:0:0:0:
329,192,320777,1,0,0:0:0:0:
256,192,320863,1,0,0:0:0:0:
475,192,320949,1,0,0:0:0:50:kick.wav
36,192,320949,1,0,0:0:0:0:
109,192,321035,1,0,0:0:0:0:
182,192,321120,1,0,0:0:0:0:
329,192,321120,1,0,0:0:0:50:kick.wav
36,192,321206,1,0,0:0:0:0:
109,192,321292,1,0,0:0:0:0:
402,192,321292,1,0,0:0:0:0:
475,192,321292,1,0,0:0:0:50:kick.wav
256,192,321377,1,0,0:0:0:0:
329,192,321463,1,0,0:0:0:0:
36,192,321463,1,0,0:0:0:50:kick.wav
182,192,321549,1,0,0:0:0:0:
256,192,321635,1,0,0:0:0:0:
475,192,321635,1,0,0:0:0:50:kick.wav
36,192,321720,1,0,0:0:0:0:
109,192,321806,1,0,0:0:0:0:
329,192,321806,1,0,0:0:0:50:kick.wav
256,192,321892,1,0,0:0:0:0:
402,192,321977,1,0,0:0:0:0:
475,192,321977,1,0,0:0:0:50:kick.wav
36,192,321977,1,0,0:0:0:0:
109,192,322063,1,0,0:0:0:0:
182,192,322149,1,0,0:0:0:0:
329,192,322149,1,0,0:0:0:50:kick.wav
402,192,322235,1,0,0:0:0:0:
256,192,322320,1,0,0:0:0:0:
36,192,322320,1,0,0:0:0:50:kick.wav
329,192,322406,1,0,0:0:0:0:
475,192,322492,1,0,0:0:0:50:kick.wav
182,192,322492,1,0,0:0:0:0:
256,192,322577,1,0,0:0:0:0:
329,192,322663,1,0,0:0:0:0:
109,192,322663,1,0,0:0:0:0:
36,192,322663,1,0,0:0:0:50:kick.wav
402,192,322749,1,0,0:0:0:0:
256,192,322835,1,0,0:0:0:0:
182,192,322835,1,0,0:0:0:50:kick.wav
329,192,322920,1,0,0:0:0:0:
475,192,323006,1,0,0:0:0:0:
36,192,323006,1,0,0:0:0:50:kick.wav
256,192,323092,1,0,0:0:0:0:
182,192,323177,1,0,0:0:0:50:kick.wav
329,192,323177,1,0,0:0:0:0:
402,192,323263,1,0,0:0:0:0:
256,192,323349,1,0,0:0:0:0:
109,192,323349,1,0,0:0:0:0:
36,192,323349,1,0,0:0:0:50:kick.wav
329,192,323435,1,0,0:0:0:0:
402,192,323520,1,0,0:0:0:0:
182,192,323520,1,0,0:0:0:50:kick.wav
475,192,323606,1,0,0:0:0:0:
329,192,323692,1,0,0:0:0:0:
36,192,323692,1,0,0:0:0:50:kick.wav
109,192,323777,1,0,0:0:0:50:kick.wav
256,192,323777,1,0,0:0:0:0:
402,192,323863,1,0,0:0:0:0:
36,192,323863,1,0,0:0:0:50:kick.wav
329,192,323949,1,0,0:0:0:0:
182,192,323949,1,0,0:0:0:50:kick.wav
109,192,324035,1,0,0:0:0:50:kick.wav
475,192,324035,1,0,0:0:0:0:
402,192,324120,1,0,0:0:0:0:
256,192,324120,1,0,0:0:0:50:kick.wav
475,192,324206,1,0,0:0:0:0:
36,192,324206,1,0,0:0:0:50:kick.wav
182,192,324292,1,0,0:0:0:50:kick.wav
329,192,324292,1,0,0:0:0:0:
402,192,324377,1,0,0:0:0:0:
36,192,324377,1,0,0:0:0:50:kick.wav
109,192,324463,1,0,0:0:0:50:kick.wav
256,192,324463,1,0,0:0:0:0:
36,192,324549,1,0,0:0:0:50:kick.wav
475,192,324549,1,0,0:0:0:0:
329,192,324635,1,0,0:0:0:0:
182,192,324635,1,0,0:0:0:50:kick.wav
109,192,324720,1,0,0:0:0:50:kick.wav
475,192,324720,1,0,0:0:0:0:
402,192,324806,1,0,0:0:0:0:
256,192,324806,1,0,0:0:0:50:kick.wav
475,192,324892,1,0,0:0:0:0:
36,192,324892,1,0,0:0:0:50:kick.wav
182,192,324977,1,0,0:0:0:50:kick.wav
329,192,324977,1,0,0:0:0:0:
109,192,325063,1,0,0:0:0:50:kick.wav
256,192,325106,1,0,0:0:0:0:
402,192,325149,1,0,0:0:0:0:
182,192,325192,1,0,0:0:0:0:
329,192,325235,1,0,0:0:0:0:
36,192,325235,1,0,0:0:0:0:
475,192,325277,1,0,0:0:0:0:
109,192,325320,1,0,0:0:0:0:
256,192,325363,1,0,0:0:0:0:
402,192,325406,1,0,0:0:0:0:
36,192,325406,1,0,0:0:0:0:
182,192,325449,1,0,0:0:0:0:
329,192,325492,1,0,0:0:0:0:
475,192,325535,1,0,0:0:0:0:
109,192,325577,1,0,0:0:0:0:
256,192,325620,1,0,0:0:0:0:
402,192,325663,1,0,0:0:0:0:
182,192,325706,1,0,0:0:0:0:
475,192,325749,1,0,0:0:0:0:
36,192,325749,1,0,0:0:0:0:
329,192,325792,1,0,0:0:0:0:
109,192,325835,1,0,0:0:0:0:
256,192,325877,1,0,0:0:0:0:
402,192,325920,1,0,0:0:0:0:
36,192,325920,1,0,0:0:0:0:
182,192,325963,1,0,0:0:0:0:
329,192,326006,1,0,0:0:0:0:
475,192,326049,1,0,0:0:0:0:
109,192,326092,1,0,0:0:0:0:
256,192,326092,1,0,0:0:0:0:
402,192,326135,1,0,0:0:0:0:
182,192,326177,1,0,0:0:0:0:
36,192,326177,1,0,0:0:0:0:
329,192,326220,1,0,0:0:0:0:
475,192,326263,1,0,0:0:0:0:
109,192,326263,1,0,0:0:0:0:
256,192,326306,1,0,0:0:0:0:
402,192,326349,1,0,0:0:0:0:
182,192,326392,1,0,0:0:0:0:
36,192,326435,1,0,0:0:0:50:kick.wav
475,192,326435,1,0,0:0:0:20:crash.wav
329,192,326606,128,0,326777:0:0:0:0:
109,192,326606,1,0,0:0:0:0:
36,192,326777,1,0,0:0:0:50:kick.wav
475,192,326777,1,0,0:0:0:0:
182,192,326949,1,0,0:0:0:0:
329,192,326949,128,0,327120:0:0:0:0:
36,192,327120,1,0,0:0:0:50:kick.wav
109,192,327206,1,0,0:0:0:0:
182,192,327292,1,0,0:0:0:0:
329,192,327292,128,0,327463:0:0:0:0:
475,192,327463,1,0,0:0:0:0:
36,192,327463,1,0,0:0:0:50:kick.wav
182,192,327635,1,0,0:0:0:0:
329,192,327635,128,0,327806:0:0:0:0:
36,192,327806,1,0,0:0:0:50:kick.wav
475,192,327806,128,0,328149:0:0:0:0:
329,192,327977,128,0,328149:0:0:0:0:
109,192,327977,1,0,0:0:0:0:
256,192,328149,1,0,0:0:0:0:
36,192,328149,1,0,0:0:0:50:kick.wav
182,192,328320,1,0,0:0:0:0:
475,192,328320,128,0,328663:0:0:0:0:
329,192,328320,128,0,328492:0:0:0:0:
36,192,328492,1,0,0:0:0:50:kick.wav
329,192,328663,128,0,328835:0:0:0:0:
182,192,328663,1,0,0:0:0:0:
109,192,328749,1,0,0:0:0:0:
475,192,328835,1,0,0:0:0:0:
36,192,328835,1,0,0:0:0:50:kick.wav
182,192,329006,1,0,0:0:0:0:
329,192,329006,128,0,329177:0:0:0:0:
36,192,329177,1,0,0:0:0:50:kick.wav
329,192,329349,128,0,329520:0:0:0:0:
109,192,329349,1,0,0:0:0:0:
475,192,329520,1,0,0:0:0:0:
36,192,329520,1,0,0:0:0:50:kick.wav
182,192,329692,1,0,0:0:0:0:
329,192,329692,128,0,329863:0:0:0:0:
36,192,329863,1,0,0:0:0:50:kick.wav
109,192,329949,1,0,0:0:0:0:
182,192,330035,1,0,0:0:0:0:
329,192,330035,128,0,330206:0:0:0:0:
475,192,330206,1,0,0:0:0:0:
36,192,330206,1,0,0:0:0:50:kick.wav
182,192,330377,1,0,0:0:0:0:
329,192,330377,128,0,330549:0:0:0:0:
36,192,330549,1,0,0:0:0:50:kick.wav
475,192,330549,128,0,330892:0:0:0:0:
329,192,330720,128,0,330892:0:0:0:0:
109,192,330720,1,0,0:0:0:0:
256,192,330892,1,0,0:0:0:0:
36,192,330892,1,0,0:0:0:50:kick.wav
329,192,331063,128,0,331235:0:0:0:0:
475,192,331063,128,0,331406:0:0:0:0:
182,192,331063,1,0,0:0:0:0:
36,192,331235,1,0,0:0:0:50:kick.wav
182,192,331320,1,0,0:0:0:0:
329,192,331406,128,0,331577:0:0:0:0:
182,192,331492,1,0,0:0:0:0:
36,192,331577,1,0,0:0:0:50:kick.wav
475,192,331577,1,0,0:0:0:0:
182,192,331749,1,0,0:0:0:0:
329,192,331749,128,0,331920:0:0:0:0:
36,192,331920,1,0,0:0:0:50:kick.wav
109,192,332092,1,0,0:0:0:0:
329,192,332092,128,0,332263:0:0:0:0:
36,192,332263,1,0,0:0:0:50:kick.wav
475,192,332263,1,0,0:0:0:0:
182,192,332435,1,0,0:0:0:0:
329,192,332435,128,0,332606:0:0:0:0:
36,192,332606,1,0,0:0:0:50:kick.wav
109,192,332692,1,0,0:0:0:0:
182,192,332777,1,0,0:0:0:0:
329,192,332777,128,0,332949:0:0:0:0:
36,192,332949,1,0,0:0:0:50:kick.wav
475,192,332949,1,0,0:0:0:0:
182,192,333120,1,0,0:0:0:0:
329,192,333120,128,0,333292:0:0:0:0:
36,192,333292,1,0,0:0:0:50:kick.wav
475,192,333292,128,0,333635:0:0:0:0:
329,192,333463,128,0,333635:0:0:0:0:
109,192,333463,1,0,0:0:0:0:
36,192,333635,1,0,0:0:0:50:kick.wav
256,192,333635,1,0,0:0:0:0:
475,192,333806,128,0,334149:0:0:0:0:
329,192,333806,128,0,333977:0:0:0:0:
182,192,333806,1,0,0:0:0:0:
36,192,333977,1,0,0:0:0:50:kick.wav
329,192,334149,128,0,334320:0:0:0:0:
182,192,334149,1,0,0:0:0:0:
109,192,334235,1,0,0:0:0:0:
475,192,334320,1,0,0:0:0:0:
36,192,334320,1,0,0:0:0:50:kick.wav
182,192,334492,1,0,0:0:0:0:
329,192,334492,128,0,334663:0:0:0:0:
36,192,334663,1,0,0:0:0:50:kick.wav
329,192,334835,128,0,335006:0:0:0:0:
109,192,334835,1,0,0:0:0:0:
475,192,335006,1,0,0:0:0:0:
36,192,335006,1,0,0:0:0:50:kick.wav
329,192,335177,128,0,335349:0:0:0:0:
182,192,335177,1,0,0:0:0:0:
36,192,335349,1,0,0:0:0:50:kick.wav
109,192,335435,1,0,0:0:0:0:
329,192,335520,128,0,335692:0:0:0:0:
182,192,335520,1,0,0:0:0:0:
36,192,335692,1,0,0:0:0:50:kick.wav
475,192,335692,1,0,0:0:0:0:
329,192,335863,128,0,336035:0:0:0:0:
182,192,335863,1,0,0:0:0:0:
36,192,336035,1,0,0:0:0:50:kick.wav
475,192,336035,128,0,336377:0:0:0:0:
329,192,336206,128,0,336377:0:0:0:0:
109,192,336206,1,0,0:0:0:0:
256,192,336377,1,0,0:0:0:0:
36,192,336377,1,0,0:0:0:50:kick.wav
182,192,336549,1,0,0:0:0:0:
329,192,336549,128,0,336720:0:0:0:0:
475,192,336549,128,0,336892:0:0:0:0:
36,192,336720,1,0,0:0:0:50:kick.wav
109,192,336806,1,0,0:0:0:0:
329,192,336892,128,0,337063:0:0:0:0:
256,192,336892,1,0,0:0:0:0:
182,192,336977,1,0,0:0:0:0:
475,192,337063,1,0,0:0:0:0:
36,192,337063,1,0,0:0:0:50:kick.wav
109,192,337063,1,0,0:0:0:0:
256,192,337235,1,0,0:0:0:50:kick.wav
256,192,337320,1,0,0:0:0:50:kick.wav
182,192,337406,1,0,0:0:0:50:kick.wav
36,192,337406,1,0,0:0:0:0:
109,192,337577,1,0,0:0:0:0:
256,192,337577,128,0,337749:0:0:0:0:
329,192,337749,1,0,0:0:0:0:
475,192,337749,1,0,0:0:0:50:kick.wav
402,192,337920,1,0,0:0:0:0:
256,192,337920,128,0,338092:0:0:0:0:
182,192,338092,1,0,0:0:0:0:
36,192,338092,1,0,0:0:0:50:kick.wav
109,192,338177,1,0,0:0:0:0:
256,192,338263,128,0,338435:0:0:0:0:
182,192,338263,1,0,0:0:0:0:
329,192,338435,1,0,0:0:0:0:
475,192,338435,1,0,0:0:0:50:kick.wav
402,192,338606,1,0,0:0:0:0:
256,192,338606,128,0,338777:0:0:0:0:
182,192,338777,1,0,0:0:0:0:
36,192,338777,1,0,0:0:0:50:kick.wav
475,192,338777,128,0,339120:0:0:0:0:
109,192,338949,1,0,0:0:0:0:
256,192,338949,128,0,339120:0:0:0:0:
36,192,339120,1,0,0:0:0:50:kick.wav
329,192,339120,1,0,0:0:0:0:
475,192,339292,128,0,339635:0:0:0:0:
256,192,339292,128,0,339463:0:0:0:0:
109,192,339292,1,0,0:0:0:0:
182,192,339463,1,0,0:0:0:0:
36,192,339463,1,0,0:0:0:50:kick.wav
256,192,339635,128,0,339806:0:0:0:0:
109,192,339635,1,0,0:0:0:0:
182,192,339720,1,0,0:0:0:0:
475,192,339806,1,0,0:0:0:50:kick.wav
36,192,339806,1,0,0:0:0:0:
256,192,339977,128,0,340149:0:0:0:0:
109,192,339977,1,0,0:0:0:0:
402,192,339977,128,0,340320:0:0:0:0:
182,192,340149,1,0,0:0:0:0:
36,192,340149,1,0,0:0:0:50:kick.wav
109,192,340320,128,0,340492:0:0:0:0:
256,192,340320,128,0,340492:0:0:0:0:
329,192,340492,1,0,0:0:0:0:
475,192,340492,1,0,0:0:0:50:kick.wav
36,192,340492,128,0,340663:0:0:0:0:
402,192,340663,1,0,0:0:0:0:
256,192,340663,128,0,340835:0:0:0:0:
182,192,340835,1,0,0:0:0:50:kick.wav
36,192,340835,1,0,0:0:0:0:
109,192,340920,1,0,0:0:0:0:
182,192,341006,1,0,0:0:0:0:
256,192,341006,128,0,341177:0:0:0:0:
329,192,341177,1,0,0:0:0:0:
475,192,341177,1,0,0:0:0:50:kick.wav
402,192,341349,1,0,0:0:0:0:
256,192,341349,128,0,341520:0:0:0:0:
182,192,341520,1,0,0:0:0:0:
36,192,341520,1,0,0:0:0:50:kick.wav
475,192,341520,128,0,341863:0:0:0:0:
109,192,341692,1,0,0:0:0:0:
256,192,341692,128,0,341863:0:0:0:0:
36,192,341863,1,0,0:0:0:50:kick.wav
329,192,341863,1,0,0:0:0:0:
402,192,341863,1,0,0:0:0:0:
256,192,342035,128,0,342206:0:0:0:0:
475,192,342035,128,0,342377:0:0:0:0:
182,192,342206,1,0,0:0:0:50:kick.wav
36,192,342206,1,0,0:0:0:0:
109,192,342292,1,0,0:0:0:0:
329,192,342377,1,0,0:0:0:0:
256,192,342377,128,0,342549:0:0:0:0:
182,192,342463,1,0,0:0:0:0:
36,192,342549,1,0,0:0:0:0:
402,192,342549,1,0,0:0:0:0:
475,192,342549,1,0,0:0:0:50:kick.wav
256,192,342720,128,0,342892:0:0:0:0:
109,192,342720,1,0,0:0:0:0:
329,192,342720,1,0,0:0:0:0:
402,192,342892,1,0,0:0:0:0:
36,192,342892,1,0,0:0:0:50:kick.wav
329,192,343063,1,0,0:0:0:0:
109,192,343063,1,0,0:0:0:50:kick.wav
256,192,343235,1,0,0:0:0:0:
475,192,343235,1,0,0:0:0:0:
36,192,343235,1,0,0:0:0:50:kick.wav
402,192,343406,1,0,0:0:0:0:
182,192,343406,1,0,0:0:0:50:kick.wav
329,192,343577,1,0,0:0:0:0:
109,192,343577,1,0,0:0:0:50:kick.wav
182,192,343749,1,0,0:0:0:50:kick.wav
402,192,343749,1,0,0:0:0:0:
475,192,343920,1,0,0:0:0:0:
256,192,343920,1,0,0:0:0:0:
36,192,343920,1,0,0:0:0:50:kick.wav
329,192,344092,1,0,0:0:0:0:
109,192,344092,1,0,0:0:0:50:kick.wav
182,192,344263,1,0,0:0:0:0:
36,192,344263,1,0,0:0:0:50:kick.wav
475,192,344263,128,0,344606:0:0:0:0:
109,192,344435,1,0,0:0:0:50:kick.wav
256,192,344435,1,0,0:0:0:0:
36,192,344606,1,0,0:0:0:50:kick.wav
182,192,344606,1,0,0:0:0:0:
329,192,344606,1,0,0:0:0:0:
475,192,344777,128,0,345120:0:0:0:0:
256,192,344777,1,0,0:0:0:0:
109,192,344777,1,0,0:0:0:50:kick.wav
182,192,344949,1,0,0:0:0:0:
36,192,344949,1,0,0:0:0:50:kick.wav
329,192,344949,1,0,0:0:0:0:
256,192,345120,1,0,0:0:0:0:
109,192,345120,1,0,0:0:0:50:kick.wav
36,192,345292,1,0,0:0:0:50:kick.wav
182,192,345292,1,0,0:0:0:0:
329,192,345292,1,0,0:0:0:0:
475,192,345292,1,0,0:0:0:0:
109,192,345463,1,0,0:0:0:50:kick.wav
256,192,345463,1,0,0:0:0:0:
402,192,345463,1,0,0:0:0:0:
475,192,345635,1,0,0:0:0:0:
36,192,345635,1,0,0:0:0:50:kick.wav
182,192,345720,1,0,0:0:0:50:kick.wav
329,192,345720,1,0,0:0:0:0:
402,192,345806,1,0,0:0:0:0:
36,192,345806,1,0,0:0:0:50:kick.wav
109,192,345892,1,0,0:0:0:50:kick.wav
256,192,345892,1,0,0:0:0:0:
475,192,345977,1,0,0:0:0:0:
36,192,345977,1,0,0:0:0:50:kick.wav
182,192,346063,1,0,0:0:0:50:kick.wav
329,192,346063,1,0,0:0:0:0:
475,192,346149,1,0,0:0:0:0:
109,192,346149,1,0,0:0:0:50:kick.wav
256,192,346235,1,0,0:0:0:50:kick.wav
402,192,346235,1,0,0:0:0:0:
475,192,346320,1,0,0:0:0:0:
36,192,346320,1,0,0:0:0:50:kick.wav
182,192,346406,1,0,0:0:0:50:kick.wav
329,192,346406,1,0,0:0:0:0:
402,192,346492,1,0,0:0:0:0:
36,192,346492,1,0,0:0:0:50:kick.wav
109,192,346577,1,0,0:0:0:50:kick.wav
256,192,346577,1,0,0:0:0:0:
475,192,346663,1,0,0:0:0:0:
36,192,346663,1,0,0:0:0:50:kick.wav
182,192,346749,1,0,0:0:0:50:kick.wav
329,192,346749,1,0,0:0:0:0:
475,192,346835,1,0,0:0:0:0:
36,192,346835,1,0,0:0:0:50:kick.wav
256,192,346920,1,0,0:0:0:50:kick.wav
402,192,346920,1,0,0:0:0:0:
109,192,347006,1,0,0:0:0:50:kick.wav
329,192,347049,1,0,0:0:0:0:
475,192,347092,1,0,0:0:0:0:
182,192,347135,1,0,0:0:0:0:
36,192,347177,1,0,0:0:0:0:
402,192,347177,1,0,0:0:0:0:
256,192,347220,1,0,0:0:0:0:
109,192,347263,1,0,0:0:0:0:
329,192,347306,1,0,0:0:0:0:
475,192,347349,1,0,0:0:0:0:
36,192,347349,1,0,0:0:0:0:
182,192,347392,1,0,0:0:0:0:
402,192,347435,1,0,0:0:0:0:
256,192,347477,1,0,0:0:0:0:
109,192,347520,1,0,0:0:0:0:
329,192,347563,1,0,0:0:0:0:
475,192,347606,1,0,0:0:0:0:
182,192,347649,1,0,0:0:0:0:
36,192,347692,1,0,0:0:0:0:
402,192,347692,1,0,0:0:0:0:
256,192,347735,1,0,0:0:0:0:
109,192,347777,1,0,0:0:0:0:
329,192,347820,1,0,0:0:0:0:
475,192,347863,1,0,0:0:0:0:
36,192,347863,1,0,0:0:0:0:
182,192,347906,1,0,0:0:0:0:
402,192,347949,1,0,0:0:0:0:
256,192,347992,1,0,0:0:0:0:
475,192,348035,1,0,0:0:0:0:
109,192,348035,1,0,0:0:0:0:
329,192,348077,1,0,0:0:0:0:
36,192,348120,1,0,0:0:0:0:
182,192,348120,1,0,0:0:0:0:
402,192,348163,1,0,0:0:0:0:
256,192,348206,1,0,0:0:0:0:
109,192,348206,1,0,0:0:0:0:
475,192,348249,1,0,0:0:0:0:
329,192,348292,1,0,0:0:0:0:
182,192,348335,1,0,0:0:0:0:
36,192,348377,1,0,0:0:0:30:snare.wav
402,192,348377,1,0,0:0:0:20:crash.wav
109,192,348463,1,0,0:0:0:0:
475,192,348549,1,0,0:0:0:0:
256,192,348549,1,0,0:0:0:0:
36,192,348635,1,0,0:0:0:0:
329,192,348720,1,0,0:0:0:30:snare.wav
182,192,348720,128,0,348892:0:0:0:0:
402,192,348892,1,0,0:0:0:0:
109,192,349063,1,0,0:0:0:30:snare.wav
256,192,349235,1,0,0:0:0:0:
402,192,349320,1,0,0:0:0:0:
36,192,349406,1,0,0:0:0:30:snare.wav
329,192,349577,1,0,0:0:0:0:
109,192,349749,1,0,0:0:0:30:snare.wav
475,192,349749,128,0,350092:0:0:0:0:
402,192,349920,1,0,0:0:0:0:
256,192,349920,1,0,0:0:0:0:
36,192,350092,1,0,0:0:0:30:snare.wav
329,192,350263,1,0,0:0:0:0:
475,192,350263,128,0,350606:0:0:0:0:
109,192,350435,1,0,0:0:0:30:snare.wav
256,192,350606,1,0,0:0:0:0:
402,192,350692,1,0,0:0:0:0:
36,192,350777,1,0,0:0:0:30:snare.wav
256,192,350949,1,0,0:0:0:0:
475,192,350949,1,0,0:0:0:0:
256,192,351035,128,0,351206:0:0:0:0:
109,192,351120,1,0,0:0:0:30:snare.wav
182,192,351206,1,0,0:0:0:0:
329,192,351292,1,0,0:0:0:0:
475,192,351292,1,0,0:0:0:0:
36,192,351377,1,0,0:0:0:0:
256,192,351463,1,0,0:0:0:30:snare.wav
109,192,351463,128,0,351635:0:0:0:0:
402,192,351635,1,0,0:0:0:0:
182,192,351806,1,0,0:0:0:30:snare.wav
256,192,351977,1,0,0:0:0:0:
402,192,352063,1,0,0:0:0:0:
109,192,352149,1,0,0:0:0:30:snare.wav
329,192,352320,1,0,0:0:0:0:
182,192,352492,1,0,0:0:0:30:snare.wav
475,192,352492,128,0,352835:0:0:0:0:
256,192,352663,1,0,0:0:0:0:
402,192,352663,1,0,0:0:0:0:
36,192,352835,1,0,0:0:0:30:snare.wav
329,192,353006,1,0,0:0:0:0:
475,192,353006,128,0,353349:0:0:0:0:
109,192,353177,1,0,0:0:0:30:snare.wav
256,192,353349,1,0,0:0:0:0:
402,192,353435,1,0,0:0:0:0:
36,192,353520,1,0,0:0:0:30:snare.wav
256,192,353692,1,0,0:0:0:0:
475,192,353692,1,0,0:0:0:0:
256,192,353777,128,0,353949:0:0:0:0:
109,192,353863,1,0,0:0:0:30:snare.wav
182,192,353949,1,0,0:0:0:0:
329,192,354035,1,0,0:0:0:0:
475,192,354035,1,0,0:0:0:0:
36,192,354120,1,0,0:0:0:0:
256,192,354206,1,0,0:0:0:30:snare.wav
109,192,354206,128,0,354377:0:0:0:0:
402,192,354377,1,0,0:0:0:0:
182,192,354549,1,0,0:0:0:30:snare.wav
256,192,354720,1,0,0:0:0:0:
402,192,354806,1,0,0:0:0:0:
109,192,354892,1,0,0:0:0:30:snare.wav
329,192,355063,1,0,0:0:0:0:
182,192,355235,1,0,0:0:0:30:snare.wav
475,192,355235,128,0,355577:0:0:0:0:
256,192,355406,1,0,0:0:0:0:
402,192,355406,1,0,0:0:0:0:
36,192,355577,1,0,0:0:0:30:snare.wav
329,192,355749,1,0,0:0:0:0:
475,192,355749,128,0,356092:0:0:0:0:
109,192,355920,1,0,0:0:0:30:snare.wav
256,192,356092,1,0,0:0:0:0:
402,192,356177,1,0,0:0:0:0:
36,192,356263,1,0,0:0:0:30:snare.wav
256,192,356435,1,0,0:0:0:0:
475,192,356435,1,0,0:0:0:0:
256,192,356520,128,0,356692:0:0:0:0:
109,192,356606,1,0,0:0:0:30:snare.wav
182,192,356692,1,0,0:0:0:0:
329,192,356777,1,0,0:0:0:0:
475,192,356777,1,0,0:0:0:0:
36,192,356863,1,0,0:0:0:0:
256,192,356949,1,0,0:0:0:30:snare.wav
109,192,356949,128,0,357120:0:0:0:0:
402,192,357120,1,0,0:0:0:0:
182,192,357292,1,0,0:0:0:30:snare.wav
256,192,357463,1,0,0:0:0:0:
402,192,357549,1,0,0:0:0:0:
109,192,357635,1,0,0:0:0:30:snare.wav
256,192,357806,1,0,0:0:0:0:
256,192,357892,128,0,358063:0:0:0:0:
109,192,358063,1,0,0:0:0:0:
402,192,358149,1,0,0:0:0:0:
36,192,358235,1,0,0:0:0:0:
329,192,358320,1,0,0:0:0:30:snare.wav
182,192,358320,128,0,358492:0:0:0:0:
475,192,358492,1,0,0:0:0:0:
182,192,358577,128,0,358749:0:0:0:0:
36,192,358663,1,0,0:0:0:30:snare.wav
329,192,358749,1,0,0:0:0:0:
182,192,358835,1,0,0:0:0:0:
475,192,358835,128,0,359006:0:0:0:0:
36,192,359006,1,0,0:0:0:30:snare.wav
109,192,359092,1,0,0:0:0:0:
256,192,359177,1,0,0:0:0:0:
256,192,359263,128,0,359435:0:0:0:0:
109,192,359349,1,0,0:0:0:0:
402,192,359349,1,0,0:0:0:40:snare.wav
182,192,359435,1,0,0:0:0:0:
329,192,359520,1,0,0:0:0:0:
36,192,359606,1,0,0:0:0:0:
109,192,359692,1,0,0:0:0:0:
402,192,359692,1,0,0:0:0:40:snare.wav
182,192,359692,128,0,359863:0:0:0:0:
256,192,359863,1,0,0:0:0:0:
402,192,360035,1,0,0:0:0:40:snare.wav
109,192,360035,1,0,0:0:0:0:
182,192,360206,1,0,0:0:0:0:
329,192,360292,1,0,0:0:0:0:
402,192,360377,1,0,0:0:0:40:snare.wav
109,192,360377,1,0,0:0:0:0:
256,192,360549,1,0,0:0:0:0:
402,192,360720,1,0,0:0:0:40:snare.wav
109,192,360720,1,0,0:0:0:0:
36,192,360720,128,0,361063:0:0:0:0:
475,192,360720,128,0,361063:0:0:0:0:
256,192,360892,1,0,0:0:0:0:
402,192,361063,1,0,0:0:0:40:snare.wav
109,192,361063,1,0,0:0:0:0:
256,192,361235,1,0,0:0:0:0:
475,192,361235,128,0,361577:0:0:0:0:
36,192,361235,128,0,361577:0:0:0:0:
109,192,361406,1,0,0:0:0:0:
402,192,361406,1,0,0:0:0:40:snare.wav
182,192,361577,1,0,0:0:0:0:
329,192,361663,1,0,0:0:0:0:
402,192,361749,1,0,0:0:0:40:snare.wav
109,192,361749,1,0,0:0:0:0:
256,192,361920,1,0,0:0:0:0:
256,192,362006,128,0,362177:0:0:0:0:
109,192,362092,1,0,0:0:0:0:
402,192,362092,1,0,0:0:0:40:snare.wav
182,192,362177,1,0,0:0:0:0:
329,192,362263,1,0,0:0:0:0:
36,192,362349,1,0,0:0:0:0:
109,192,362435,1,0,0:0:0:0:
402,192,362435,1,0,0:0:0:40:snare.wav
182,192,362435,128,0,362606:0:0:0:0:
256,192,362606,1,0,0:0:0:0:
402,192,362777,1,0,0:0:0:40:snare.wav
109,192,362777,1,0,0:0:0:0:
182,192,362949,1,0,0:0:0:0:
329,192,363035,1,0,0:0:0:0:
402,192,363120,1,0,0:0:0:40:snare.wav
109,192,363120,1,0,0:0:0:0:
256,192,363292,1,0,0:0:0:0:
402,192,363463,1,0,0:0:0:40:snare.wav
109,192,363463,1,0,0:0:0:0:
36,192,363463,128,0,363806:0:0:0:0:
475,192,363463,128,0,363806:0:0:0:0:
256,192,363635,1,0,0:0:0:0:
402,192,363806,1,0,0:0:0:40:snare.wav
109,192,363806,1,0,0:0:0:0:
475,192,363977,128,0,364320:0:0:0:0:
36,192,363977,128,0,364320:0:0:0:0:
256,192,363977,1,0,0:0:0:0:
109,192,364149,1,0,0:0:0:0:
402,192,364149,1,0,0:0:0:40:snare.wav
182,192,364320,1,0,0:0:0:0:
329,192,364406,1,0,0:0:0:0:
402,192,364492,1,0,0:0:0:40:snare.wav
109,192,364492,1,0,0:0:0:0:
256,192,364663,1,0,0:0:0:0:
256,192,364749,128,0,364920:0:0:0:0:
36,192,364835,1,0,0:0:0:40:snare.wav
402,192,364920,1,0,0:0:0:0:
475,192,365006,1,0,0:0:0:0:
109,192,365006,1,0,0:0:0:40:snare.wav
329,192,365092,1,0,0:0:0:0:
36,192,365177,1,0,0:0:0:40:snare.wav
182,192,365177,128,0,365349:0:0:0:0:
402,192,365349,1,0,0:0:0:0:
475,192,365349,1,0,0:0:0:40:snare.wav
36,192,365520,1,0,0:0:0:40:snare.wav
182,192,365692,1,0,0:0:0:40:snare.wav
475,192,365692,1,0,0:0:0:0:
329,192,365777,1,0,0:0:0:0:
36,192,365863,1,0,0:0:0:40:snare.wav
256,192,366035,1,0,0:0:0:40:snare.wav
475,192,366035,1,0,0:0:0:0:
36,192,366206,1,0,0:0:0:40:snare.wav
256,192,366206,128,0,366549:0:0:0:0:
109,192,366377,1,0,0:0:0:40:snare.wav
475,192,366377,1,0,0:0:0:0:
36,192,366549,1,0,0:0:0:40:snare.wav
256,192,366720,128,0,367063:0:0:0:0:
402,192,366720,1,0,0:0:0:0:
475,192,366720,1,0,0:0:0:40:snare.wav
36,192,366892,1,0,0:0:0:40:snare.wav
109,192,367063,1,0,0:0:0:40:snare.wav
475,192,367063,1,0,0:0:0:0:
329,192,367149,1,0,0:0:0:0:
36,192,367235,1,0,0:0:0:40:snare.wav
256,192,367406,1,0,0:0:0:0:
475,192,367406,1,0,0:0:0:0:
109,192,367406,1,0,0:0:0:40:snare.wav
256,192,367492,128,0,367663:0:0:0:0:
402,192,367577,1,0,0:0:0:40:snare.wav
475,192,367663,1,0,0:0:0:40:snare.wav
109,192,367663,1,0,0:0:0:0:
182,192,367749,1,0,0:0:0:0:
329,192,367749,1,0,0:0:0:40:snare.wav
402,192,367835,1,0,0:0:0:40:snare.wav
36,192,367835,1,0,0:0:0:0:
256,192,367920,1,0,0:0:0:40:snare.wav
182,192,367920,128,0,368092:0:0:0:0:
475,192,368006,1,0,0:0:0:40:snare.wav
109,192,368092,1,0,0:0:0:40:snare.wav
329,192,368177,1,0,0:0:0:40:snare.wav
36,192,368263,1,0,0:0:0:40:snare.wav
402,192,368349,1,0,0:0:0:40:snare.wav
182,192,368435,1,0,0:0:0:40:snare.wav
329,192,368520,1,0,0:0:0:40:snare.wav
109,192,368606,1,0,0:0:0:40:snare.wav
256,192,368692,1,0,0:0:0:40:snare.wav
402,192,368777,1,0,0:0:0:0:
36,192,368777,1,0,0:0:0:40:snare.wav
329,192,368863,1,0,0:0:0:0:
182,192,368863,1,0,0:0:0:40:snare.wav
256,192,368949,1,0,0:0:0:30:snare.wav
475,192,368949,128,0,369292:0:0:0:0:
109,192,369035,1,0,0:0:0:0:
329,192,369120,1,0,0:0:0:0:
36,192,369206,1,0,0:0:0:0:
182,192,369292,1,0,0:0:0:0:
475,192,369463,128,0,369720:0:0:0:0:
256,192,369463,1,0,0:0:0:0:
36,192,369635,1,0,0:0:0:0:
402,192,369720,1,0,0:0:0:0:
109,192,369720,1,0,0:0:0:0:
182,192,369806,1,0,0:0:0:0:
475,192,369806,1,0,0:0:0:0:
109,192,369892,1,0,0:0:0:0:
36,192,369977,1,0,0:0:0:0:
256,192,369977,1,0,0:0:0:0:
109,192,370063,1,0,0:0:0:0:
329,192,370063,1,0,0:0:0:0:
182,192,370149,1,0,0:0:0:0:
402,192,370149,1,0,0:0:0:0:
