osu file format v7

[General]
AudioFilename: ROADDOGGZ.mp3
AudioLeadIn: 0
PreviewTime: 25465
Countdown: 0
SampleSet: Soft
StackLeniency: 0.7
Mode: 0
LetterboxInBreaks: 1

[Editor]
DistanceSpacing: 1.21000003814697
BeatDivisor: 4
GridSize: 8

[Metadata]
Title:Roaddoggz
Artist:Amane
Creator:Crazy Jay
Version:Kiou2
Source:Touhou
Tags:Awesome Night!! Saigetsu Broken Moon Rolling Contact tieff alace kiou ignorethis

[Difficulty]
HPDrainRate:2
CircleSize:3
OverallDifficulty:4
SliderMultiplier:0.8
SliderTickRate:1

[Events]
//Background and Video events
0,0,"bg1.jpg"
//Break Periods
//Storyboard Layer 0 (Background)
//Storyboard Layer 1 (Fail)
//Storyboard Layer 2 (Pass)
//Storyboard Layer 3 (Foreground)
//Storyboard Sound Samples
//Background Colour Transformations
3,100,12,17,52

[TimingPoints]
2919.85283785852,363.636363636364,4,2,1,54,1,0
26192,-100,4,2,1,80,0,0
49647,-100,4,2,1,70,0,0
118919,-100,4,2,1,80,0,0

[Colours]
Combo1 : 236,19,182
Combo2 : 255,255,255
Combo3 : 255,0,0
Combo4 : 148,40,255

[HitObjects]
168,96,2919,2,0,B|88:40|8:104,2,160,4|0|0
264,96,4738,1,8
360,96,5101,1,0
360,96,5465,1,8
360,192,5828,6,0,B|440:248|520:184,2,160,4|0|0
264,192,7647,1,8
168,192,8010,1,0
168,192,8374,1,8
160,288,8738,6,0,B|88:352,2,80,4|8|0
256,296,9828,1,8
352,288,10192,2,0,B|424:352,2,80,0|8|0
256,296,11283,1,8
192,224,11647,6,0,B|128:152|200:72,2,160,4|0|4
256,152,13465,1,8
320,224,13828,2,0,B|384:152|312:72,2,160,4|4|0
256,152,15647,1,8
256,248,16010,6,0,B|256:344,2,80,0|8|0
256,152,17101,1,8
160,152,17465,5,0
208,72,17828,1,8
304,72,18192,1,0
352,152,18556,1,8
304,232,18919,6,0,B|304:320,1,80,0|8
208,232,19647,2,0,B|208:320,1,80,0|8
120,344,20374,6,0,B|40:104,1,240,4|0
112,48,21828,2,0,B|192:288,1,240,4|0
256,352,23283,5,4
352,336,23647,1,0
432,280,24010,1,4
480,192,24374,1,0
480,96,24738,1,4
192,80,26192,6,0,B|96:80,2,80,4|8|0
288,80,27283,1,8
288,80,27647,1,0
384,80,28010,1,8
384,80,28374,1,0
440,160,28738,5,2
344,160,29101,1,4
248,160,29465,1,2
152,160,29828,1,4
72,208,30192,6,0,B|56:304,1,80,0|4
152,272,30919,2,0,B|152:368,1,80,0|4
248,328,31647,6,0,L|328:304|416:336,1,160,8|8
376,240,32738,1,0
280,240,33101,1,8
328,152,33465,2,0,L|328:64,2,80,0|8|0
232,152,34556,5,8
176,80,34919,1,0
80,80,35283,1,8
32,160,35647,1,0
128,160,36010,2,0,L|128:336,2,160,8|8|8
208,208,37828,5,4
296,160,38192,1,8
384,208,38556,1,0
296,160,38919,2,0,B|240:104|360:88|296:16,2,160,8|8|8
296,256,40738,6,0,L|296:344,2,80,4|8|0
208,296,41828,1,8
208,296,42192,1,0
120,256,42556,2,0,L|120:336,2,80,8|0|8
208,208,43647,6,0,L|176:136|216:48,1,160,4|0
272,136,44738,1,0
368,136,45101,1,4
432,64,45465,2,0,L|465:137|433:209,1,160
400,296,46556,5,4
312,256,46919,1,0
224,296,47283,1,4
136,256,47647,1,0
256,192,48010,12,4,49465
120,80,49828,5,8
216,80,50192,1,0
312,80,50556,2,8,L|408:80,2,80,8|0|8
352,168,51647,5,0
256,168,52010,1,8
160,168,52374,2,0,L|72:168,2,80,0|8|0
208,256,53465,5,8
304,256,53828,1,0
400,256,54192,2,0,L|488:256,2,80,8|0|8
352,336,55283,5,0
264,296,55647,1,8
176,336,56010,1,0
88,296,56374,1,8
176,248,56738,6,0,L|176:160,1,80,0|8
256,120,57465,2,0,L|256:216,1,80,0|8
336,152,58192,2,0,L|336:56,1,80,0|8
416,24,58919,2,0,L|416:120,1,80,0|8
464,192,59647,5,0
416,280,60010,1,8
464,192,60374,1,0
416,104,60738,1,8
368,192,61101,6,0,L|120:192,1,240,4|8
128,96,62556,5,0
48,144,62919,1,8
48,240,63283,1,0
128,288,63647,1,8
128,192,64010,6,0,L|368:192,1,240,4|8
448,240,65465,5,0
448,240,65828,1,8
448,144,66192,1,0
448,144,66556,1,8
368,96,66919,6,0,B|320:112|264:72|200:104,1,160,4|0
128,48,68010,1,8
48,104,68374,1,0
128,152,68738,1,8
128,248,69101,6,0,B|128:344,2,80,0|8|4
208,192,70192,1,8
288,144,70556,2,0,B|288:56,2,80,0|8|0
208,192,71647,1,8
288,248,72010,5,0
384,248,72374,1,0
480,248,72738,1,4
480,152,73101,6,0,B|480:64,2,80,8|0|8
384,152,74192,5,0
288,152,74556,1,8
192,152,74919,1,0
240,240,75283,6,0,B|256:288|232:328,2,80,8|0|8
152,280,76374,1,0
152,280,76738,1,8
64,240,77101,2,0,B|48:288|72:328,2,80,0|8|0
64,144,78192,6,0,B|48:56,1,80,8|0
144,96,78919,2,0,B|136:8,1,80,8|0
224,56,79647,2,0,B|232:144,1,80,8|0
320,104,80374,2,0,B|328:192,1,80,8|0
352,280,81101,6,0,B|376:320|344:368,1,80,8|0
256,320,81828,1,8
160,280,82192,2,0,B|136:320|168:368,1,80,0|8
256,192,82919,12,4,84374
424,64,84738,5,8
464,152,85101,1,0
368,152,85465,2,0,B|368:320,1,160,8|8
272,320,86556,1,0
176,320,86919,1,8
80,320,87283,5,0
40,232,87647,1,8
136,232,88010,2,0,B|136:64,1,160
232,64,89101,1,8
328,64,89465,1,0
392,136,89828,6,8,B|480:136,2,80,8|0|8
296,136,90919,1,0
200,136,91283,2,0,B|112:136,2,80,8|0|8
296,136,92374,1,0
296,232,92738,1,8
384,272,93101,6,0,B|400:320|376:368,2,80,0|8|0
296,312,94192,1,8
208,272,94556,2,0,B|192:320|216:368,2,80,0|8|0
296,312,95647,1,8
296,216,96010,6,0,B|360:136|288:64,1,160,4|0
232,144,97101,1,0
160,80,97465,2,0,B|72:80,1,80,2|2
32,168,98192,2,0,B|120:168,1,80,2|0
192,216,98919,6,0,B|128:296|200:368,1,160,4|0
256,288,100010,1,0
328,352,100374,2,0,B|416:352,1,80,2|2
456,264,101101,2,0,B|368:264,1,80,2|0
256,192,101828,12,0,103283
64,104,103647,5,8
152,64,104010,1,0
240,104,104374,1,8
152,152,104738,2,0,B|152:328,2,160,0|0|0
240,192,106556,1,8
328,144,106919,1,0
416,192,107283,1,8
416,288,107647,6,0,B|432:336|488:352,2,80,4|8|0
496,240,108738,1,8
496,144,109101,1,0
416,96,109465,2,0,B|432:48|488:32,2,80,8|0|8
408,192,110556,6,0,B|288:128|168:192,1,240,0|8
177,283,112010,1,0
177,283,112374,2,0,B|177:35,1,240,8|4
272,48,113828,5,8
272,144,114192,1,0
360,96,114556,1,8
360,192,114919,1,4
272,240,115283,5,8
272,336,115647,1,0
192,288,116010,1,8
192,192,116374,1,4
360,192,117101,5,4
192,192,117828,5,4
480,40,119283,6,0,B|480:136,1,80,4|8
384,120,120010,2,0,B|384:216,1,80,0|8
288,200,120738,2,0,B|288:368,1,160
32,344,122192,6,0,B|32:248,1,80,4|8
128,264,122919,2,0,B|128:168,1,80,0|8
224,184,123647,2,0,B|224:16,1,160
376,112,125101,6,0,B|432:192|367:271,1,160,4|0
304,192,126192,1,8
208,192,126556,1,0
136,112,126919,6,0,B|80:192|145:271,1,160,8|8
208,192,128010,1,0
304,192,128374,1,8
256,112,128738,6,0,B|256:16,2,80,0|8|0
256,208,129828,1,8
256,304,130192,1,0
256,304,130374,1,0
256,304,130556,1,8
336,256,130919,6,0,B|432:256,2,80,4|8|0
256,208,132010,1,8
168,160,132374,2,0,B|80:160,2,80,0|8|0
256,120,133465,5,8
352,120,133828,1,0
448,120,134192,2,0,B|472:80|520:80,2,80,8|0|8
448,216,135283,1,0
352,216,135647,1,8
256,216,136010,2,0,B|232:256|184:256,2,80,0|8|4
256,120,137101,5,8
256,120,137465,1,0
168,72,137828,1,8
168,72,138192,1,0
88,128,138556,1,8
88,128,138919,1,0
168,176,139283,2,0,B|168:344,2,160,8|8|8
256,192,141101,12,4,142556
