osu file format v6

[General]
AudioFilename: 14. End of Dream.mp3
AudioLeadIn: 1445
PreviewTime: 130874
Countdown: 0
SampleSet: Soft
StackLeniency: 1
Mode: 0
LetterboxInBreaks: 1

[Editor]
Bookmarks: 169702,215924,231659
DistanceSpacing: 2
BeatDivisor: 4
GridSize: 8

[Metadata]
Title:End of Dream
Artist:Amane
Creator:tsukamaete
Version:Insane
Source:Dream Blossom
Tags:

[Difficulty]
HPDrainRate:5
CircleSize:5
OverallDifficulty:7
SliderMultiplier:2
SliderTickRate:1

[Events]
//Background and Video events
0,0,"323ec961a47bc26cebf8f8e9.jpg"
//Break Periods
2,68615,71449
2,170910,184564
//Storyboard Layer 0 (Background)
//Storyboard Layer 1 (Fail)
//Storyboard Layer 2 (Pass)
//Storyboard Layer 3 (Foreground)
//Storyboard Sound Samples
//Background Colour Transformations
3,100,163,162,255

[TimingPoints]
1530,491.803278688525,4,2,0,100,1,0
4849,-100,4,2,0,70,0,0
7800,-200,4,2,0,80,0,0
8661,-100,4,2,0,70,0,0
10259,-200,4,2,0,80,0,0
11120,-100,4,2,0,70,0,0
19111,-100,4,2,0,70,0,0
20587,-100,4,2,0,100,0,0
21079,-100,4,2,0,70,0,0
24030,-100,4,2,0,80,0,0
27964,-100,4,2,0,90,0,0
31898,-100,4,2,0,100,0,0
33374,-200,4,2,0,100,0,0
33989,-100,4,2,0,100,0,0
34357,-200,4,2,0,100,0,0
34972,-100,4,2,0,100,0,0
35341,-200,4,2,0,100,0,0
35710,-100,4,2,0,100,0,0
44009,-100,4,2,1,100,0,0
52062,-100,4,2,1,89,0,0
68353,-200,4,2,1,81,0,0
72226,-200,4,2,1,84,0,0
76161,-200,4,2,0,100,0,0
80034,-200,4,2,0,100,0,0
84030,-100,4,2,0,80,0,0
84275,-100,4,2,0,90,0,0
87657,-100,4,1,0,60,0,0
87964,-100,4,2,0,90,0,0
90607,-100,4,1,0,60,0,0
90915,-100,4,2,0,100,0,0
91099,-100,4,2,0,0,0,0
91222,-100,4,2,0,100,0,0
93374,-200,4,2,0,100,0,0
93743,-100,4,2,0,100,0,0
95525,-100,4,1,0,60,0,0
95833,-100,4,2,0,100,0,0
97554,-100,4,1,0,60,0,0
97861,-100,4,2,0,100,0,0
98784,-200,4,2,1,100,0,0
99767,-100,4,2,0,100,0,0
116120,-100,4,2,0,80,0,0
122144,-100,4,2,1,100,0,0
123497,-100,4,2,0,79,0,0
126079,-100,4,1,0,61,0,0
126448,-100,4,2,0,80,0,0
126816,-100,4,2,0,100,0,0
127554,-100,4,2,0,100,0,0
129275,-100,4,2,0,70,0,0
130259,-100,4,2,0,60,0,0
130628,-100,4,2,1,100,0,0
137636,-200,4,2,0,100,0,0
138620,-100,4,2,1,100,0,0
138866,-100,4,2,0,100,0,0
145013,-200,4,2,0,100,0,0
145628,-100,4,2,0,100,0,0
153374,-200,4,2,0,100,0,0
154234,-100,4,2,0,100,0,0
160751,-200,4,2,0,100,0,0
162103,-100,4,2,0,100,0,0
166652,-100,4,1,0,60,0,0
168681,-100,4,2,0,71,0,0
185464,-100,4,2,0,100,0,0
200095,-200,4,2,0,100,0,0
200956,-100,4,2,0,100,0,1
201570,-100,4,2,0,70,0,0
202185,-100,4,2,0,100,0,0
212267,-100,4,1,0,61,0,0
213251,-100,4,2,0,100,0,0
214111,-100,4,1,0,60,0,0
215218,-100,4,2,0,100,0,0
215894,-100,4,2,0,70,0,0
217431,-100,4,2,0,100,0,0
221796,-100,4,2,0,80,0,0
222718,-100,4,2,0,100,0,0
223456,-100,4,1,0,70,0,0
224009,-100,4,1,0,70,0,0
224132,-100,4,2,0,70,0,0
224378,-100,4,1,0,70,0,0
224501,-100,4,2,0,70,0,0
224747,-100,4,1,0,70,0,0
224870,-100,4,2,0,70,0,0
225116,-100,4,1,0,70,0,0
225239,-100,4,2,0,70,0,0
225361,-100,4,1,0,70,0,0
225792,-100,4,2,0,89,0,0
228005,-100,4,1,0,69,0,0
228989,-100,4,2,0,100,0,0
229665,-100,4,1,0,63,0,0
231140,-100,4,2,0,100,0,0
231632,-100,4,2,1,100,0,0

[Colours]
Combo1 : 255,255,128
Combo2 : 255,128,255
Combo3 : 128,255,255
Combo4 : 255,128,64

[HitObjects]
64,96,1529,1,2
64,192,1775,1,0
160,128,2021,1,0
160,224,2267,1,0
256,160,2513,5,2
352,192,2759,1,0
256,256,3005,1,0
352,288,3251,1,0
448,224,3497,1,2
448,224,4480,5,2
272,88,4972,6,0,C|216:72|152:128,1,100,0|0
256,168,5464,1,0
256,168,5710,1,0
232,264,5956,2,0,C|288:280|352:224,2,100,0|0|2
416,192,6939,6,0,C|416:320,1,100,0|0
336,232,7431,1,0
248,176,7677,1,0
176,104,7923,2,0,C|152:176|184:272,1,150,0|0
173,245,8907,5,0
200,336,9152,2,0,C|320:336,1,100,0|2
368,256,9644,1,0
424,176,9890,2,0,C|339:91,1,100,0|0
264,152,10382,2,0,C|192:176|96:144,1,150,2|0
48,80,11366,6,0,C|48:208,1,100,0|0
136,224,11857,2,0,B|134:335|250:218|294:365,2,200,0|0|0
256,192,13087,5,0
376,160,13333,2,0,B|377:48|261:165|217:18,2,200,0|0|2
120,56,15054,5,0
216,72,15300,2,0,C|216:192,1,100,0|0
312,136,15792,2,0,C|312:240,1,100
384,304,16284,2,0,C|432:272|432:176|480:136,1,200,2|0
376,96,17021,1,0
312,176,17267,2,0,C|192:176,1,100,0|0
232,80,17759,2,0,C|132:80,1,100
56,144,18251,2,0,C|56:192|56:256,3,100,2|0|0|0
144,192,19234,6,0,B|175:137|238:175,1,100,2|0
267,202,19603,2,0,B|315:243|362:186,1,100
392,160,19972,1,0
416,64,20218,1,0
104,56,20710,5,2
104,56,21202,6,0,B|152:96|104:152,1,100,2|0
64,152,21570,2,0,B|16:240|136:304,1,150
192,328,22185,6,0,B|240:288|192:232,1,100,2|0
152,232,22554,2,0,B|104:144|224:80,1,150
280,56,23169,6,0,B|328:96|280:152,1,100,2|0
240,152,23538,2,0,B|192:240|312:304,1,150
376,256,24152,6,0,B|376:312,3,50
376,256,24644,2,0,C|376:128,1,100
352,56,25136,6,0,C|304:32|256:64,1,100,2|0
248,104,25505,2,0,C|200:128|152:96,1,100
128,72,25874,1,0
48,192,26120,6,0,C|96:168|144:200,1,100,2|0
152,240,26489,2,0,C|200:264|248:232,1,100
272,208,26857,1,0
496,280,27103,6,0,C|448:256|400:288,1,100,2|0
392,328,27472,2,0,C|344:352|296:320,1,100
272,296,27841,1,0
136,152,28087,5,2
136,152,28210,1,0
136,152,28333,1,0
136,152,28456,1,0
136,152,28579,1,0
136,152,28702,1,0
136,152,28825,1,0
216,96,29070,6,0,B|216:216,1,100,2|0
216,296,29562,2,0,B|216:376,2,50
304,240,30054,2,0,B|352:240|416:240,1,100,2|0
432,200,30423,1,0
408,152,30546,2,0,B|280:152,1,100
256,64,31038,2,0,B|200:152,1,100,2|0
104,152,31530,2,0,B|24:152,2,50
56,152,32021,5,4
80,192,32144,1,0
128,192,32267,1,0
168,160,32390,1,0
208,128,32513,1,0
248,96,32636,1,0
288,72,32759,1,0
336,80,32882,1,0
376,112,33005,6,0,C|376:232,1,100,2|0
376,240,33374,2,0,C|352:264|304:264,1,66.6666666666667
200,264,33989,6,0,C|96:264,1,100,2|0
72,264,34357,2,0,C|48:240|48:192,1,66.6666666666667
312,120,34972,6,0,C|416:120,1,100,2|0
440,120,35341,2,0,C|464:144|464:192,1,66.6666666666667
424,288,35956,6,0,B|488:248,2,50
328,256,36448,2,0,C|272:256|224:312,2,100,0|0|4
48,72,37677,5,0
136,112,37923,1,0
48,160,38169,1,0
136,200,38415,1,2
136,200,38661,1,0
48,248,38907,1,2
224,336,39398,2,0,B|336:336,2,100,2|0|0
264,136,40382,5,2
336,72,40628,1,0
336,176,40874,2,0,C|336:221|336:291,2,100,0|0|2
296,80,41611,2,0,B|350:91|350:155,1,100,0|2
254,179,42103,1,0
213,279,42349,2,0,B|158:267|158:203,2,100,2|2|0
158,206,43333,1,2
72,256,43579,5,0
72,208,43702,1,0
72,160,43825,1,2
24,72,44070,2,0,C|136:72,1,100,8|8
224,72,44562,1,2
160,152,44808,2,0,C|264:152,2,100,0|0|2
104,72,45546,6,0,B|72:184,1,100,0|2
176,136,46038,2,0,B|184:272,1,100,0|0
272,184,46530,2,0,B|336:280,3,100,0|2|2|2
216,208,47513,1,0
136,152,47759,2,0,B|32:192|40:320,1,200,4|0
160,256,48497,5,0
192,352,48743,2,0,B|248:328|240:248,1,100,2|0
336,248,49234,1,0
432,216,49480,2,0,B|432:112,1,100,0|2
336,80,49972,2,0,B|304:32|216:56,1,100,0|2
246,49,50464,5,0
168,112,50710,2,0,B|200:160|288:136,2,100,2|0|0
256,144,51448,6,0,C|320:144,1,50
360,144,51693,1,2
192,56,52185,1,8
64,40,52431,1,0
64,40,52554,1,0
64,40,52677,6,0,B|152:88|152:240,1,200,4|8
152,312,53415,1,0
256,312,53661,2,0,B|320:232|432:216,1,200,2|8
440,104,54398,1,2
344,80,54644,2,0,B|280:160|168:176,1,200,2|8
72,176,55382,1,0
72,176,55628,2,0,B|136:256|248:280,1,200,2|8
344,280,56366,6,0,C|344:176,1,100,0|2
248,152,56857,1,0
344,180,57103,1,8
248,152,57349,2,0,C|248:32,1,100,0|2
168,112,57841,1,0
168,112,57964,1,0
168,112,58087,2,0,C|168:224,1,100,8|0
168,312,58579,5,2
256,272,58825,2,0,C|352:216,1,100,0|8
432,272,59316,1,0
432,272,59439,1,0
432,272,59562,2,0,C|344:328,1,100,2|8
304,240,60054,1,8
256,152,60300,6,0,C|206:152,2,50,0|0|2
356,152,60792,2,0,C|256:152,1,100,0|8
256,152,61284,6,0,C|240:104|272:64,1,100,0|2
296,192,61775,2,0,C|344:176|384:208,1,100,0|10
256,232,62267,2,0,C|272:280|240:320,1,100,0|2
216,192,62759,2,0,C|168:208|128:176,1,100,2|10
130,177,63251,5,2
216,192,63497,1,2
381,177,64234,5,0
296,192,64480,1,2
384,176,65218,6,0,B|408:248|336:264,1,100,0|2
205,310,65710,2,0,B|131:295|153:225,1,100
178,89,66202,2,0,B|228:32|278:86,1,100,0|0
456,336,67185,5,0
408,336,67308,1,0
360,336,67431,1,0
88,72,68415,5,8
439,156,72349,5,0
352,112,72841,1,0
352,216,73333,2,0,C|352:312,2,50
352,112,74316,2,0,C|224:112,1,100
160,72,75300,2,0,B|112:120|208:120|136:200,1,100
104,248,76284,5,0
152,248,76530,2,0,C|208:248,1,50,0|2
304,248,77267,1,0
264,216,77513,2,0,C|184:216,1,50,0|2
176,312,78251,1,0
216,280,78497,2,0,C|280:280,1,50,0|2
320,280,78989,1,2
368,280,79234,2,0,C|418:280,3,50
416,280,80218,5,2
392,184,80464,2,2,C|392:96,1,50,0|0
296,168,80956,1,0
208,216,81202,5,2
112,240,81448,2,2,C|112:190,1,50,0|0
112,190,81939,1,2
184,120,82185,5,0
256,192,82431,1,0
320,120,82677,2,2,B|344:96,2,25
256,192,83169,5,2
328,264,83415,1,0
192,264,83661,2,2,B|168:288,2,25
240,80,84152,5,4
144,104,84398,1,0
104,192,84644,2,0,C|80:240|112:288,1,100,8|0
144,248,85013,1,0
184,224,85136,2,0,C|208:272|176:320,1,100,2|0
272,256,85628,1,8
360,296,85874,2,0,C|336:248|368:200,1,100,0|2
448,168,86366,2,0,C|472:216|440:264,1,100,0|8
360,210,86857,1,0
360,210,87103,2,0,C|248:154,1,90,2|0
64,136,87595,5,8
64,184,87718,1,0
64,232,87841,1,0
128,296,88087,6,0,C|224:224,1,100,6|0
280,304,88579,2,0,C|376:232,1,100,8|0
440,304,89070,1,2
359,243,89316,2,0,C|263:171,1,100,0|8
128,64,89808,6,0,C|88:32,2,50,0|0|2
128,168,90300,2,0,C|128:288,1,100,0|8
176,288,90669,1,0
216,312,90792,1,0
320,312,91038,2,0,C|376:272,1,50,2|0
408,256,91284,2,0,C|408:128,1,100,0|8
368,128,91652,1,0
328,104,91775,1,2
64,128,92021,5,6
144,72,92267,1,0
232,128,92513,1,8
144,184,92759,2,0,C|200:216,1,50
240,216,93005,2,0,C|376:216,1,100,2|0
440,224,93497,2,0,C|440:280,1,50,8|0
440,272,93989,5,2
360,328,94234,2,0,C|312:352|264:320,1,100,0|8
216,248,94726,1,0
152,176,94972,2,0,C|104:152|56:184,1,100,2|0
248,336,95464,5,8
270,293,95587,1,0
293,251,95710,1,0
344,160,95956,6,0,C|256:112,1,100,6|0
256,112,96448,1,8
256,200,96693,1,0
168,152,96939,2,0,C|256:200,1,100,2|0
256,304,97431,1,8
256,200,97677,1,0
256,200,97800,1,0
256,200,97923,1,2
344,152,98169,2,0,C|368:200|336:248,1,100,0|8
256,200,98661,1,0
168,152,98907,6,0,C|144:200|176:248,1,100,2|4
368,192,99890,5,2
96,320,100628,1,0
96,216,100874,1,2
280,296,101366,2,0,C|256:232|384:136|352:64,1,300
362,79,102349,5,0
168,136,102841,1,2
360,184,103333,1,0
168,248,103825,6,0,C|128:256|88:200|32:200,2,150,2|0|0
168,248,104808,1,2
432,96,105546,5,0
336,64,105792,1,2
352,160,106038,2,0,C|304:176|248:160,1,100
256,64,106529,2,0,C|208:48|152:64,1,100,0|2
184,160,107021,2,0,C|136:176|80:160,1,100,0|4
264,264,107759,5,2
264,112,108128,1,0
264,264,108497,1,0
264,160,108743,1,0
96,48,109234,6,0,C|74:104|202:200|178:264,1,300
178,263,110218,1,0
456,112,111202,2,0,C|256:40,1,200,0|2
256,192,112062,1,0
256,192,112431,1,0
240,344,112677,2,0,C|51:276,2,200,2|0|2
440,344,114152,5,0
240,344,114644,1,2
40,336,115136,1,2
40,336,115628,5,2
88,248,115874,2,0,C|88:136,1,100,0|8
40,64,116366,1,0
136,64,116611,2,0,C|190:84|248:41,1,100,2|0
328,64,117103,2,0,C|382:43|440:86,1,100,8|0
368,152,117595,1,2
368,256,117841,1,0
336,352,118087,2,0,C|390:373|448:330,2,100,8|0|2
232,352,118825,5,8
184,352,118948,1,0
136,352,119070,1,8
40,352,119316,2,0,B|40:224,1,100,2|2
128,208,119808,1,0
40,160,120054,2,0,B|40:40,2,100,8|2|2
120,96,120792,1,0
200,160,121038,6,0,B|336:160,1,100,8|0
376,96,121529,2,0,C|408:64|488:64,2,100,2|0|8
376,200,122267,1,8
376,200,122390,1,8
376,304,122636,1,8
376,304,122759,1,8
376,304,123005,6,0,C|408:336|496:336,2,100,2|0|8
272,304,123743,1,0
176,304,123989,1,2
80,344,124234,2,0,L|80:224,1,100,0|8
80,144,124726,2,0,C|184:56,1,100,0|2
256,64,125218,5,2
336,104,125464,1,8
256,160,125710,1,2
176,216,125956,1,10
256,272,126202,2,8,C|384:272,1,100,0|10
164,162,126939,5,0
255,96,127185,1,0
347,162,127431,1,2
312,269,127677,1,0
199,269,127923,1,0
256,184,128169,1,0
448,144,128415,5,2
64,144,128661,1,0
64,144,128784,1,0
64,144,128907,1,4
256,184,129152,1,0
154,32,129398,6,0,B|152:96|224:120,1,100,2|0
444,183,129890,2,0,B|384:152|333:200,1,100
169,359,130382,2,0,B|224:328|209:255,1,100,2|2
240,176,130874,5,0
168,112,131120,1,0
96,40,131366,2,0,C|48:144,1,100,4|0
120,208,131857,2,0,C|24:256,2,100,0|0|2
272,208,132841,5,0
344,272,133087,1,0
416,344,133333,2,0,C|464:240,1,100,2|0
392,176,133825,1,0
432,152,133948,1,0
472,128,134070,1,0
472,128,134316,1,2
296,32,134808,6,0,C|184:32,1,100
272,96,135300,2,0,C|392:96,1,100,10|0
248,160,135792,2,0,C|112:160,2,100,0|0|2
312,352,136775,6,0,C|200:352,1,100
288,288,137267,2,0,C|408:288,1,100,2|0
264,224,137759,2,0,C|128:224,1,100,0|2
216,32,138743,5,8
144,96,138989,1,0
48,104,139234,1,2
296,352,139726,5,0
368,288,139972,1,0
464,280,140218,1,2
296,352,140710,1,0
248,264,140956,6,0,B|192:240|192:168,1,100,0|2
256,96,141448,2,0,B|312:112|320:200,2,100,0|2|2
256,96,142185,1,2
96,192,142677,6,0,B|148:282,1,100
416,192,143169,2,0,B|364:101,1,100,2|0
336,330,143661,6,0,B|388:240,1,100,2|2
176,53,144152,2,0,B|124:143,1,100,2|0
336,330,144644,2,0,B|388:240,1,100,2|0
208,192,145136,6,0,B|336:192,2,100,2|0|2
360,56,146611,6,0,B|416:104|352:176,1,100
288,104,147103,1,2
200,152,147349,1,0
104,184,147595,2,0,B|48:136|112:64,2,100,0|0|2
200,224,148333,5,0
288,264,148579,1,0
384,288,148825,2,0,B|440:336|376:408,2,100,0|2|0
352,192,149562,1,0
352,192,149685,1,0
352,192,149808,2,0,B|400:136|472:200,1,100,0|2
16,80,150546,6,0,B|16:192,1,100
120,184,151038,1,2
224,184,151284,2,0,B|224:304,2,100
328,176,152021,2,0,B|328:40,1,100,2|0
408,128,152513,5,0
408,128,152759,1,0
408,232,153005,1,2
328,176,153251,1,2
328,280,153497,2,0,C|256:304|160:272,1,150,0|0
208,184,154480,6,0,B|208:96|72:144|72:40,1,200,2|4
296,240,155464,2,0,B|296:328|432:280|432:384,1,200,4|2
296,240,156448,5,0
200,248,156693,1,0
200,248,156939,1,2
312,136,157185,1,0
312,136,157431,1,0
216,144,157677,1,0
136,88,157923,1,2
200,248,158415,5,0
296,240,158661,1,0
376,296,158907,1,2
184,344,159398,6,0,B|216:280|160:256,1,100
120,176,159890,2,0,B|152:112|240:168,1,100,2|0
296,192,160382,2,0,B|359:224|397:127,1,100
424,72,160874,2,0,B|496:120|496:216|448:280,1,200,2|2
256,64,162103,5,2
128,192,162349,1,0
256,320,162595,1,2
384,192,162841,1,0
384,192,163087,1,2
384,192,163333,5,0
200,272,163825,6,0,B|256:240|256:176,1,100,2|0
336,248,164316,2,0,B|304:192|240:192,1,100
312,112,164808,2,0,B|256:144|256:208,1,100,2|0
176,136,165300,2,0,B|208:192|272:192,1,100
176,136,165792,5,2
312,112,166038,1,0
336,248,166284,1,0
200,272,166530,1,0
144,192,166775,6,0,C|80:192,2,50,0|0|4
256,80,167267,2,0,C|256:16,2,50,0|0|4
368,192,167759,2,0,C|432:192,2,50,0|0|4
256,304,168251,2,0,C|256:368,2,50,0|0|4
256,256,168620,1,0
256,208,168743,5,4
256,192,169234,12,0,170710
152,328,185464,6,0,B|96:280|160:208,1,100,2|0
224,280,185956,1,0
312,232,186202,1,0
392,176,186448,2,0,B|448:224|384:296,1,100,2|0
312,232,186939,5,0
224,176,187185,1,0
136,136,187431,2,0,B|80:88|144:16,1,100,2|0
216,80,187923,1,0
216,80,188169,1,0
296,24,188415,2,0,B|352:72|288:144,1,100,2|0
240,184,188907,1,0
168,248,189152,2,0,B|128:312|216:360,1,100,2|2
416,192,189890,5,0
312,192,190136,2,0,B|312:72,2,100,0|2|0
208,192,190874,1,0
104,192,191120,2,0,B|104:312,2,100,0|2|0
208,192,191857,5,0
208,88,192103,2,0,B|216:32|288:24,1,100,0|2
304,120,192595,2,0,B|338:75|405:104,1,100,0|2
360,192,193087,2,0,B|412:170|455:229,1,100,0|2
216,240,193825,6,0,B|216:328|80:280|80:384,1,200,4|2
296,240,194808,2,0,B|296:328|432:280|432:384,1,200,2|2
296,240,195792,5,0
194,202,196038,1,0
277,133,196284,1,2
392,40,196652,5,0
432,72,196775,1,0
432,120,196898,1,0
472,152,197021,1,0
472,256,197267,1,2
184,40,197759,6,0,B|216:104|160:128,1,100
120,208,198251,2,0,B|152:272|240:216,1,100,2|0
240,200,198620,2,0,B|328:216,1,50
392,208,198989,1,0
488,224,199234,2,0,B|448:336,1,100,2|0
360,296,199726,2,0,B|264:328,1,100,4|0
200,248,200218,6,0,C|128:272|32:240,1,150,2|0
136,184,201202,5,2
328,120,201693,1,4
112,88,202308,6,0,B|56:64,5,50,0|0|0|2|0|0
112,264,203169,5,2
160,280,203292,1,0
200,248,203415,1,0
240,216,203538,1,0
288,216,203661,1,2
328,240,203784,1,0
376,256,203907,2,0,B|440:248|448:176,1,100,0|2
392,184,204275,1,0
344,168,204398,2,0,B|352:104|424:96,1,100,0|2
456,96,204767,1,0
256,136,205013,6,0,B|256:64,2,50,0|2|0
256,240,205505,2,0,B|256:304,1,50,0|2
256,192,205874,1,0
256,192,205997,1,0
256,192,206120,1,4
144,64,206857,5,0
240,56,207103,1,2
281,90,207226,1,0
288,136,207349,1,0
259,183,207472,1,0
233,226,207595,1,2
232,280,207718,1,0
272,312,207841,1,0
320,320,207964,1,0
368,312,208087,1,2
456,272,208333,6,0,B|416:232,1,50
400,136,208702,2,0,B|364:171,1,50
288,240,209070,2,0,B|248:200,1,50,2|0
184,128,209439,2,0,B|148:163,3,50,0|2|0|0
96,320,210177,5,0
144,336,210300,1,0
192,336,210423,1,0
240,320,210546,1,2
280,296,210669,1,0
200,232,210915,5,0
240,208,211038,1,2
288,200,211161,1,0
336,216,211284,1,0
384,232,211407,2,0,B|432:184,4,50,0|2|0|0|0
424,264,212021,1,2
472,256,212144,1,0
472,152,212390,5,0
400,80,212636,1,0
304,112,212882,1,0
208,80,213128,1,0
112,96,213374,1,0
72,128,213497,1,2
56,176,213620,1,0
56,224,213743,1,0
80,264,213866,1,0
128,280,213989,5,2
224,256,214234,1,0
312,304,214480,1,0
400,256,214726,1,0
448,272,214849,1,0
448,168,215095,1,0
448,64,215341,2,0,B|376:16,4,50,0|2|0|0|0
488,40,215956,5,4
256,192,216448,12,4,217431
408,280,218046,6,0,B|464:304,2,50
360,256,218415,2,0,B|384:200,2,50,2|0|0
400,168,218907,6,0,B|344:112,1,50,2|0
312,136,219152,2,0,B|256:192,1,50
224,168,219398,1,2
184,136,219521,1,0
136,128,219644,2,0,B|72:136|64:208,1,100,0|2
120,200,220013,1,0
168,216,220136,2,0,B|160:280|88:288,1,100,0|2
56,288,220505,1,0
256,328,220751,6,0,B|256:248,1,50,0|2
256,224,220997,1,0
256,120,221243,2,0,B|256:184,1,50,0|2
216,96,221611,5,0
256,72,221734,1,0
296,96,221857,1,6
368,328,222595,5,6
264,328,222841,2,0,B|200:328,3,50,2|0|0|0
184,288,223333,2,0,B|320:288,1,100,2|0
256,248,223702,2,0,B|376:248,1,100
392,208,224070,1,0
424,168,224193,1,2
328,160,224439,5,0
280,160,224562,1,2
176,160,224808,1,0
144,128,224931,1,2
48,160,225177,1,0
8,192,225300,1,2
48,224,225423,1,0
88,192,225546,1,4
480,72,225915,5,0
434,50,226038,1,0
386,44,226161,1,0
337,54,226284,1,2
294,73,226407,1,0
360,144,226652,5,0
320,168,226775,1,2
272,176,226898,1,0
224,160,227021,1,0
176,144,227144,2,0,B|128:192,4,50
136,112,227759,1,2
88,120,227882,1,0
56,216,228128,1,0
144,264,228374,5,0
240,248,228620,1,0
336,288,228866,1,0
432,256,229111,1,0
400,216,229234,1,2
432,176,229357,1,0
472,144,229480,1,0
472,96,229603,1,0
432,64,229726,5,4
336,104,229972,1,0
240,96,230218,1,0
136,72,230464,1,0
136,72,230587,1,0
72,144,230833,1,4
160,192,231079,2,0,B|176:264,3,50,0|2|0|0
160,192,231693,5,4
256,192,232185,12,8,233661
