osu file format v9

[General]
AudioFilename: Clearview -original mix-.mp3
AudioLeadIn: 0
PreviewTime: 68301
Countdown: 0
SampleSet: Soft
StackLeniency: 0.7
Mode: 0
LetterboxInBreaks: 0

[Editor]
Bookmarks: 26722,69587,103865,145008,151865,165579,196444,223865,251301,278722,292444,306150
DistanceSpacing: 0
BeatDivisor: 4
GridSize: 8

[Metadata]
Title:Clearview -original mix-
Artist:Amane
Creator:yeahyeahyeahhh
Version:Yeahteke
Source:Touhou
Tags:Natteke Collab The Primal Scene of Japan the Girl Watched Sanae Mountain of Faith TH10

[Difficulty]
HPDrainRate:5
CircleSize:4
OverallDifficulty:7
ApproachRate:7
SliderMultiplier:1.4
SliderTickRate:0.5

[Events]
//Background and Video events
0,0,"mypenisbig.jpg"
//Break Periods
2,97299,103057
2,138442,144200
2,193300,195628
//Storyboard Layer 0 (Background)
//Storyboard Layer 1 (Fail)
//Storyboard Layer 2 (Pass)
//Storyboard Layer 3 (Foreground)
//Storyboard Sound Samples
//Background Colour Transformations
3,100,163,162,255

[TimingPoints]
1100,428.571428571429,4,2,1,60,1,0
27457,-100,4,1,1,29,0,0
28528,-100,4,2,1,60,0,0
61100,-200,4,2,1,60,0,0
61957,-100,4,2,1,0,0,0
62385,-100,4,2,1,60,0,0
67957,-200,4,2,1,60,0,0
68814,-100,4,2,1,0,0,0
69028,-100,4,2,1,60,0,0
75564,-100,4,1,1,36,0,0
76742,-100,4,2,1,61,0,0
82421,-100,4,1,1,35,0,0
83385,-100,4,2,1,61,0,0
89278,-100,4,1,1,35,0,0
90350,-100,4,2,1,61,0,0
96242,-100,4,1,1,41,0,0
103528,-100,4,2,1,60,0,0
109850,-100,4,1,1,50,0,0
110760,-100,4,1,1,40,0,0
110867,-100,4,2,1,71,0,0
111564,-100,4,1,1,40,0,0
111778,-100,4,2,1,71,0,0
112421,-100,4,1,1,40,0,0
112635,-100,4,2,1,71,0,0
113278,-100,4,1,1,41,0,0
113492,-100,4,2,1,71,0,0
114135,-100,4,1,1,41,0,0
114349,-100,4,2,1,71,0,0
114992,-100,4,1,1,41,0,0
115206,-100,4,2,1,71,0,0
115850,-100,4,1,1,39,0,0
116064,-100,4,2,1,71,0,0
116278,-100,4,1,1,40,0,0
116492,-100,4,2,1,71,0,0
116706,-100,4,1,1,40,0,0
117350,-100,4,2,1,71,0,0
117564,-100,4,1,1,40,0,0
117778,-100,4,2,1,69,0,0
118421,-100,4,1,1,40,0,0
118635,-100,4,2,1,69,0,0
119278,-100,4,1,1,41,0,0
119492,-100,4,2,1,69,0,0
120135,-100,4,1,1,39,0,0
120349,-100,4,2,1,69,0,0
120992,-100,4,1,1,41,0,0
121206,-100,4,2,1,69,0,0
121848,-100,4,1,1,41,0,0
122062,-100,4,2,1,69,0,0
122707,-100,4,1,1,41,0,0
122921,-100,4,2,1,69,0,0
123135,-100,4,1,1,39,0,0
123349,-100,4,2,1,69,0,0
123563,-100,4,1,1,41,0,0
124205,-100,4,2,1,69,0,0
124419,-100,4,1,1,39,0,0
124633,-100,4,2,1,69,0,0
125278,-100,4,1,1,40,0,0
125492,-100,4,2,1,69,0,0
126135,-100,4,1,1,40,0,0
126349,-100,4,2,1,69,0,0
126992,-100,4,1,1,39,0,0
127206,-100,4,2,1,69,0,0
127850,-100,4,1,1,39,0,0
128064,-100,4,2,1,69,0,0
128706,-100,4,1,1,39,0,0
128920,-100,4,2,1,69,0,0
129562,-100,4,1,1,39,0,0
129776,-100,4,2,1,69,0,0
129990,-100,4,1,1,41,0,0
130204,-100,4,2,1,69,0,0
130418,-100,4,1,1,40,0,0
131060,-100,4,2,1,69,0,0
131278,-100,4,1,1,40,0,0
131492,-100,4,2,1,69,0,0
132135,-100,4,1,1,40,0,0
132349,-100,4,2,1,69,0,0
132992,-100,4,1,1,39,0,0
133206,-100,4,2,1,69,0,0
133848,-100,4,1,1,41,0,0
134062,-100,4,2,1,69,0,0
134704,-100,4,1,1,39,0,0
134918,-100,4,2,1,69,0,0
135560,-100,4,1,1,39,0,0
135774,-100,4,2,1,69,0,0
136416,-100,4,1,1,41,0,0
136630,-100,4,2,1,69,0,0
138135,-100,4,2,1,41,0,0
144992,-100,4,1,1,25,0,0
145207,-100,4,2,1,41,0,0
147564,-100,4,1,1,25,0,0
147778,-100,4,2,1,41,0,0
148314,-100,4,1,1,25,0,0
148635,-100,4,2,1,41,0,0
150992,-100,4,1,1,41,0,0
151957,-100,4,2,1,41,0,0
152707,-100,4,1,1,25,0,0
152921,-100,4,2,1,41,0,0
153564,-100,4,1,1,25,0,0
153778,-100,4,2,1,41,0,0
154421,-100,4,1,1,25,0,0
154635,-100,4,2,1,41,0,0
155064,-100,4,1,1,25,0,0
155492,-100,4,2,1,41,0,0
156135,-100,4,1,1,25,0,0
156350,-100,4,2,1,41,0,0
156992,-100,4,1,1,25,0,0
157207,-100,4,2,1,41,0,0
157850,-100,4,1,1,41,0,0
158707,-100,4,1,1,25,0,0
159242,-100,4,2,1,41,0,0
159671,-100,4,1,1,25,0,0
159778,-100,4,2,1,41,0,0
160421,-100,4,1,1,25,0,0
160635,-100,4,2,1,41,0,0
161385,-100,4,1,1,25,0,0
161492,-100,4,2,1,41,0,0
162135,-100,4,1,1,26,0,0
162350,-100,4,2,1,41,0,0
163100,-100,4,1,1,26,0,0
163207,-100,4,2,1,41,0,0
163957,-100,4,1,1,41,0,0
165671,-200,4,2,1,41,0,0
165885,-200,4,2,1,31,0,0
171885,-200,4,2,1,24,0,0
172207,-200,4,2,1,16,0,0
172528,-200,4,2,1,31,0,0
186457,-200,4,2,1,25,0,0
186778,-200,4,2,1,31,0,0
188171,-200,4,2,1,25,0,0
188492,-200,4,2,1,19,0,0
188814,-200,4,2,1,31,0,0
192885,-100,4,1,1,41,0,0
193314,-100,4,2,1,60,0,0
222135,-100,4,1,1,41,0,0
223957,-100,4,2,1,71,0,0
224707,-100,4,1,1,35,0,0
224921,-100,4,2,1,71,0,0
225564,-100,4,1,1,35,0,0
225778,-100,4,2,1,71,0,0
226421,-100,4,1,1,35,0,0
226635,-100,4,2,1,71,0,0
228992,-100,4,1,1,35,0,0
229207,-100,4,2,1,71,0,0
229742,-100,4,1,1,34,0,0
230064,-100,4,2,1,71,0,0
230492,-100,4,1,1,34,0,0
230921,-100,4,2,1,71,0,0
231564,-100,4,1,1,36,0,0
231778,-100,4,2,1,71,0,0
232421,-100,4,1,1,36,0,0
232635,-100,4,2,1,71,0,0
233278,-100,4,1,1,36,0,0
233492,-100,4,2,1,71,0,0
235850,-100,4,1,1,36,0,0
236064,-100,4,2,1,71,0,0
236600,-100,4,1,1,36,0,0
236921,-100,4,2,1,71,0,0
237350,-100,4,1,1,36,0,0
237671,-100,4,2,1,71,0,0
238421,-100,4,1,1,36,0,0
238635,-100,4,2,1,71,0,0
239278,-100,4,1,1,36,0,0
239492,-100,4,2,1,71,0,0
240135,-100,4,1,1,36,0,0
240350,-100,4,2,1,71,0,0
240992,-100,4,1,1,36,0,0
241207,-100,4,2,1,71,0,0
241850,-100,4,1,1,34,0,0
242064,-100,4,2,1,71,0,0
242707,-100,4,1,1,36,0,0
242921,-100,4,2,1,71,0,0
243457,-100,4,1,1,36,0,0
243778,-100,4,2,1,71,0,0
244207,-100,4,1,1,36,0,0
244528,-100,4,2,1,71,0,0
249564,-100,4,1,1,35,0,0
249778,-100,4,2,1,71,0,0
250314,-100,4,1,1,35,0,0
250635,-100,4,2,1,71,0,0
251064,-100,4,1,1,35,0,0
251492,-100,4,2,1,71,0,0
252135,-100,4,1,1,40,0,0
252349,-100,4,2,1,71,0,0
252992,-100,4,1,1,40,0,0
253206,-100,4,2,1,71,0,0
253850,-100,4,1,1,41,0,0
254064,-100,4,2,1,71,0,0
254707,-100,4,1,1,41,0,0
254921,-100,4,2,1,71,0,0
255563,-100,4,1,1,39,0,0
255777,-100,4,2,1,71,0,0
256421,-100,4,1,1,40,0,0
256635,-100,4,2,1,71,0,0
257278,-100,4,1,1,40,0,0
258350,-100,4,2,1,71,0,0
258992,-100,4,1,1,41,0,0
259206,-100,4,2,1,71,0,0
259850,-100,4,1,1,40,0,0
260064,-100,4,2,1,71,0,0
260707,-100,4,1,1,41,0,0
260921,-100,4,2,1,71,0,0
261564,-100,4,1,1,39,0,0
261778,-100,4,2,1,71,0,0
262421,-100,4,1,1,40,0,0
262635,-100,4,2,1,71,0,0
263278,-100,4,1,1,41,0,0
263492,-100,4,2,1,71,0,0
264135,-100,4,1,1,41,0,0
264349,-100,4,2,1,71,0,0
264564,-100,4,1,1,41,0,0
265206,-100,4,2,1,71,0,0
266707,-100,4,1,1,40,0,0
266921,-100,4,2,1,71,0,0
268421,-100,4,1,1,40,0,0
268635,-100,4,2,1,71,0,0
269385,-100,4,1,1,40,0,0
269492,-100,4,2,1,71,0,0
270242,-100,4,1,1,39,0,0
270349,-100,4,2,1,71,0,0
270992,-100,4,1,1,41,0,0
271206,-100,4,2,1,71,0,0
271421,-100,4,1,1,41,0,0
272063,-100,4,2,1,71,0,0
272707,-100,4,1,1,41,0,0
272921,-100,4,2,1,71,0,0
273564,-100,4,1,1,39,0,0
273778,-100,4,2,1,71,0,0
274421,-100,4,1,1,40,0,0
274635,-100,4,2,1,71,0,0
275278,-100,4,1,1,41,0,0
275492,-100,4,2,1,71,0,0
276135,-100,4,1,1,38,0,0
276349,-100,4,2,1,71,0,0
277046,-100,4,1,1,39,0,0
277153,-100,4,2,1,71,0,0
279564,-100,4,1,1,29,0,0
279778,-100,4,2,1,71,0,0
280421,-100,4,1,1,29,0,0
280635,-100,4,2,1,71,0,0
281278,-100,4,1,1,29,0,0
281492,-100,4,2,1,71,0,0
281921,-100,4,1,1,31,0,0
282350,-100,4,2,1,71,0,0
282992,-100,4,1,1,29,0,0
283207,-100,4,2,1,71,0,0
283850,-100,4,1,1,29,0,0
284064,-100,4,2,1,71,0,0
284814,-100,4,1,1,29,0,0
285778,-100,4,2,1,71,0,0
286421,-100,4,1,1,29,0,0
286635,-100,4,2,1,71,0,0
287278,-100,4,1,1,29,0,0
287492,-100,4,2,1,71,0,0
288135,-100,4,1,1,29,0,0
288350,-100,4,2,1,71,0,0
288778,-100,4,1,1,30,0,0
289207,-100,4,2,1,71,0,0
289850,-100,4,1,1,29,0,0
290064,-100,4,2,1,71,0,0
290707,-100,4,1,1,29,0,0
290921,-100,4,2,1,71,0,0
291671,-100,4,1,1,29,0,0
292528,-100,4,2,1,71,0,0
293278,-100,4,1,1,30,0,0
293492,-100,4,2,1,71,0,0
294135,-100,4,1,1,30,0,0
294350,-100,4,2,1,71,0,0
294992,-100,4,1,1,30,0,0
295207,-100,4,2,1,71,0,0
295635,-100,4,1,1,30,0,0
296064,-100,4,2,1,71,0,0
296707,-100,4,1,1,30,0,0
296921,-100,4,2,1,71,0,0
297564,-100,4,1,1,30,0,0
297778,-100,4,2,1,71,0,0
298421,-100,4,1,1,30,0,0
299064,-100,4,2,1,71,0,0
299278,-100,4,1,1,30,0,0
299492,-100,4,2,1,71,0,0
300135,-100,4,1,1,30,0,0
300350,-100,4,2,1,71,0,0
300992,-100,4,1,1,30,0,0
301207,-100,4,2,1,71,0,0
301850,-100,4,1,1,30,0,0
302064,-100,4,2,1,71,0,0
302492,-100,4,1,1,30,0,0
302921,-100,4,2,1,71,0,0
303564,-100,4,1,1,30,0,0
303778,-100,4,2,1,71,0,0
304421,-100,4,1,1,30,0,0
306350,-100,4,2,1,70,0,0
309564,-100,4,2,1,60,0,0
312992,-100,4,2,1,50,0,0
320171,-100,4,2,1,41,0,0
333457,-100,4,1,1,30,0,0
333885,-100,4,2,1,70,0,0

[Colours]
Combo1 : 254,230,160
Combo2 : 93,57,93
Combo3 : 240,119,124

[HitObjects]
80,208,26814,5,4
240,56,27671,1,0
264,48,27778,1,0
280,144,27992,1,0
304,136,28099,1,0
320,232,28314,1,0
344,224,28421,1,0
368,216,28528,5,4
424,152,28742,2,0,B|472:136|512:112,2,70,2|8|2
88,232,29600,2,0,B|40:248|0:272,2,70,2|8|2
200,104,30457,2,0,B|184:56|160:16,2,70,2|8|2
312,280,31314,2,0,B|328:328|352:368,2,70,2|8|2
376,232,31957,5,0
376,232,32171,2,0,B|418:259|461:276,2,70,2|8|2
136,152,33028,2,0,B|93:124|50:107,2,70,2|8|2
216,312,33885,2,0,B|188:354|171:397,2,70,2|8|2
296,72,34742,2,0,B|323:29|340:-13,2,70,2|8|2
296,72,35385,5,0
240,128,35600,2,0,B|200:136|152:128,2,70,2|8|2
256,208,36242,1,0
288,288,36457,2,0,B|328:296|376:288,2,70,2|8|2
256,208,37100,1,0
344,168,37314,2,0,B|336:128|344:80,2,70,2|8|2
256,208,37957,1,0
168,208,38171,2,0,B|176:248|168:296,2,70,2|8|2
88,128,38814,5,0
176,128,39028,1,2
256,208,39242,1,8
168,208,39457,1,2
256,128,39671,5,0
344,128,39885,1,2
424,208,40099,1,8
336,208,40314,1,2
432,128,40528,6,0,B|432:80|448:48,2,70,0|2|8
344,128,41171,2,0,B|324:117|276:117,2,70,2|0|2
336,208,41814,2,0,B|324:228|324:276,1,70,8|2
384,176,42242,5,4
384,176,42671,1,8
384,176,42885,2,0,B|296:176|272:264,1,140,2|2
360,264,43528,1,8
448,288,43742,1,2
472,200,43957,5,0
472,200,44385,1,8
472,200,44599,2,0,B|472:112|384:88,1,140,2|2
384,176,45242,1,8
360,264,45456,1,2
448,288,45671,5,0
272,232,46100,1,8
296,144,46314,2,0,B|240:112|160:96,1,140,2|2
88,152,46957,2,0,B|64:176|48:224,1,70,8|2
136,248,47385,5,0
136,248,47814,1,8
208,304,48028,2,0,B|232:232|216:160,1,140,2|2
304,80,48671,2,0,B|296:120|304:160,1,70,8|2
352,232,49100,6,0,B|416:256,1,70,0|2
376,336,49528,2,0,B|304:304,1,70,8|2
160,232,49957,6,0,B|96:256,1,70,0|2
136,336,50385,2,0,B|208:304,1,70,8|2
256,232,50814,6,0,B|256:80,3,140,0|8|0|8
256,92,52314,1,2
176,160,52528,6,0,B|104:152,1,70,0|2
336,160,52957,2,0,B|408:152,1,70,8|2
184,248,53385,6,0,B|112:240,1,70,0|2
328,248,53814,2,0,B|400:240,1,70,8|2
184,248,54242,6,0,B|188:119,2,105,0|2|0
248,336,55100,2,0,B|376:344,2,93.3333333333333,0|2|0
176,328,55957,5,2
72,280,56242,1,0
184,248,56528,1,0
112,288,56814,2,0,B|56:280|-8:280,2,93.3333333333333
192,168,57671,5,2
296,216,57956,1,0
184,248,58242,1,0
256,208,58528,2,0,B|312:216|376:216,2,93.3333333333333
192,168,59385,5,2
88,120,59670,1,0
200,88,59956,1,0
128,128,60242,2,0,B|72:120|8:120,2,93.3333333333333
264,136,61100,2,0,B|352:144|440:176,1,140
336,56,62814,5,2
440,104,63099,1,0
328,136,63385,1,0
400,96,63671,2,0,B|456:104|520:104,2,93.3333333333333
320,216,64528,5,2
216,168,64813,1,0
328,136,65099,1,0
256,176,65385,2,0,B|200:168|136:168,2,93.3333333333333
320,216,66242,5,2
424,264,66527,1,0
312,296,66813,1,0
384,256,67099,2,0,B|440:264|504:264,2,93.3333333333333
248,248,67957,2,0,B|160:240|72:208,1,140
328,288,69671,6,0,B|416:296|504:328,1,140,0|8
465,315,70314,2,0,B|417:243|473:179,1,140,2|2
376,168,70957,1,8
432,104,71171,1,2
352,64,71385,6,0,B|272:88|208:24,1,140,2|8
221,36,72028,2,0,B|85:76,1,140,2|2
0,112,72671,1,8
64,176,72885,1,2
32,264,73100,6,0,B|112:304|176:256,1,140,2|8
165,263,73742,2,0,B|304:304,1,140,2|2
374,239,74385,1,8
472,240,74600,5,2
472,240,74707,1,2
472,240,74814,2,0,B|480:144,1,70,0|2
280,160,75243,2,0,B|272:256,1,70,0|2
376,160,75671,2,0,B|384:64,1,70,0|0
296,40,76100,1,0
296,40,76207,1,0
192,80,76421,5,0
192,80,76528,2,0,C|184:176,1,70,0|2
168,248,76957,1,8
56,280,77171,2,0,B|80:208|32:144,1,140,2|2
34,147,77814,5,10
112,112,78028,1,0
192,80,78242,1,2
216,160,78457,1,2
296,192,78671,1,8
376,224,78885,2,0,B|456:272|512:200,1,140,2|2
488,103,79528,5,10
436,167,79742,1,2
368,120,79957,1,2
307,176,80171,1,2
240,128,80385,1,8
184,192,80600,2,0,B|224:264|182:324,1,140,2|2
104,272,81242,5,2
91,141,81457,1,2
216,24,81671,5,2
229,155,81885,1,2
347,275,82099,5,2
360,144,82313,1,2
504,24,82527,5,0
491,155,82742,1,0
448,280,82957,1,0
416,264,83064,1,0
384,280,83171,1,0
352,264,83278,1,0
320,280,83385,2,0,B|240:280,1,70,4|2
192,216,83814,1,8
264,160,84028,6,0,B|288:88|256:8,1,140,2|2
160,32,84671,1,8
88,96,84885,1,2
104,184,85100,1,2
192,216,85314,1,2
264,160,85528,1,8
248,72,85742,6,0,B|320:48|400:80,1,140,2|2
385,74,86385,2,0,B|464:56,1,70,8|2
440,184,86814,2,0,B|368:200,1,70,2|2
371,199,87242,1,8
312,264,87457,2,0,B|248:224|164:257,1,140,2|2
104,216,88100,1,8
176,168,88314,6,0,B|216:104|182:20,1,140,2|2
312,16,88957,1,10
264,128,89171,1,2
376,128,89385,5,0
344,216,89600,1,0
464,192,89814,5,0
464,192,89921,1,0
488,112,90135,1,0
488,112,90242,1,0
464,192,90457,5,2
512,264,90671,1,8
432,272,90885,2,0,L|336:272|288:240,1,140,2|2
256,320,91528,1,8
256,320,91742,1,2
80,264,91957,2,8,L|176:264|224:232,1,140,2|8
212,239,92600,1,2
168,160,92814,5,2
216,80,93028,1,2
296,80,93242,1,8
344,160,93457,1,2
408,104,93671,5,0
256,16,94100,1,8
104,104,94528,1,2
256,192,94957,1,8
408,280,95385,5,2
416,256,95492,1,2
424,232,95600,1,2
432,208,95707,1,2
440,184,95814,1,10
448,160,95921,1,2
456,136,96028,1,2
464,112,96135,1,2
472,88,96242,1,0
384,24,96457,1,0
336,112,96671,2,0,B|296:136,1,35
192,160,96992,2,0,B|240:192,1,35,0|4
104,304,103957,6,0,B|-16:184|96:48,1,280,2|2
216,80,105135,1,2
256,200,105457,1,2
408,304,105671,6,0,B|528:184|416:48,1,280,2|2
296,80,106850,1,2
256,200,107172,1,2
208,272,107385,6,0,B|168:288|112:272,1,70,2|0
304,272,107814,2,0,B|344:288|400:272,1,70,2|0
168,200,108242,2,0,B|128:216|88:192,1,70,2|0
344,200,108671,2,0,B|384:216|424:192,1,70,2|0
232,72,109100,6,0,B|190:149|274:218|274:218,1,140,2|2
256,200,109742,1,2
344,200,109957,1,0
344,200,110064,1,0
432,200,110278,1,0
432,200,110385,1,0
464,112,110600,1,0
464,112,110707,1,0
464,112,110814,6,0,B|416:88|352:112,1,105,4|2
320,288,111457,1,2
320,288,111671,2,0,B|272:312|208:288,1,105,0|2
48,112,112314,1,2
48,112,112528,6,0,B|96:88|160:112,1,105,0|2
192,288,113171,1,2
192,288,113385,2,0,B|240:312|304:288,1,105,0|2
408,216,114028,1,2
240,72,114242,6,0,B|176:72|152:160,1,105,0|2
161,131,114885,1,2
272,312,115100,2,0,B|336:312|360:224,1,105,0|2
350,252,115742,1,2
376,168,115957,6,0,B|384:88,1,70,0|2
280,240,116385,2,0,B|272:320,1,70,0|2
288,152,116814,2,0,B|296:72,1,70,0|0
192,224,117242,2,0,B|184:304,1,70
96,280,117671,6,0,B|112:144,2,105,0|2|2
208,120,118528,2,0,B|192:256,2,105,0|2|2
280,288,119385,6,0,B|296:152,2,105,0|2|2
392,128,120242,2,0,B|376:264,2,105,0|2|2
464,72,121100,5,0
448,208,121421,1,2
432,344,121742,1,2
352,112,121957,5,0
344,224,122278,1,2
336,336,122599,1,2
256,304,122814,6,0,B|216:320|176:296,1,70,0|2
124,217,123242,2,0,B|152:200|192:216,1,70,0|2
96,296,123671,1,0
40,232,123885,2,0,B|16:152,2,70,0|0|2
80,72,124528,5,4
208,72,124850,2,0,B|256:96|264:160,1,105,2|2
208,264,125385,1,0
80,264,125707,2,0,B|32:240|24:176,1,105,2|2
208,72,126242,5,0
336,72,126564,2,0,B|384:96|392:160,1,105,2|2
336,264,127099,1,0
208,264,127421,2,0,B|160:240|152:176,1,105,2|2
272,176,127957,5,0
352,80,128278,1,2
432,176,128600,1,2
272,176,128814,5,0
192,272,129135,1,2
112,176,129457,1,2
192,160,129671,2,0,B|184:112|200:72,1,70,0|2
224,256,130100,2,0,B|176:264|136:248,1,70,0|2
320,224,130528,2,0,B|328:272|312:312,1,70
288,128,130957,2,0,B|336:120|376:136,1,70,0|2
224,256,131385,6,0,B|168:272|104:248,1,105,0|2
120,253,131814,2,0,B|96:168,1,70,0|2
288,128,132242,2,0,B|344:112|408:136,1,105,0|2
391,130,132671,2,0,B|416:216,1,70,0|2
192,160,133100,6,0,B|176:104|200:40,1,105,0|2
194,56,133529,2,0,B|280:32,1,70,0|2
320,224,133957,2,0,B|336:280|312:344,1,105,0|2
317,327,134386,2,0,B|232:352,1,70,0|2
400,304,134814,6,0,B|456:296|504:264,2,105,0|2|2
416,224,135671,1,0
296,192,135992,1,2
176,160,136314,1,2
176,160,136528,1,0
256,192,136635,12,4,138242
40,88,145100,5,0
128,64,145314,1,2
216,88,145528,1,8
304,64,145742,1,2
480,64,146171,5,2
392,88,146385,1,8
368,176,146600,1,2
32,320,147028,5,2
120,296,147242,1,8
144,208,147457,1,2
120,120,147671,2,0,B|200:96,1,70,0|2
352,176,148100,2,0,B|272:152,1,70,8|0
312,64,148528,5,0
400,88,148742,1,2
488,112,148957,1,8
464,200,149171,2,0,B|424:352,1,140,2|0
428,335,149814,1,0
328,312,150028,6,0,B|363:176,1,140,2|2
363,176,150671,1,8
272,160,150885,1,2
184,136,151100,5,0
208,224,151314,1,0
184,312,151528,1,0
184,312,151635,1,0
56,280,151850,5,0
56,280,151957,1,4
40,200,152171,1,2
40,120,152385,1,8
56,40,152600,1,2
136,40,152814,5,0
152,120,153029,1,2
152,200,153243,1,8
136,280,153457,1,0
216,280,153671,5,0
200,200,153885,1,2
200,120,154099,1,8
216,40,154314,1,2
296,40,154528,5,0
312,120,154743,1,2
312,200,154957,1,8
296,280,155171,1,0
400,200,155385,6,0,B|424:160|424:128,1,70,0|2
264,48,155814,2,0,B|224:24|192:24,1,70,8|2
112,184,156242,2,0,B|88:224|88:256,1,70,0|2
248,336,156671,2,0,B|288:360|320:360,1,70,8|2
320,200,157100,6,0,B|344:160|344:128,1,70,0|2
264,128,157528,2,0,B|224:104|192:104,1,70,8|0
192,184,157957,2,0,B|168:224|168:256,1,70,0|0
248,256,158385,2,0,B|288:280|320:280,1,70,0|0
313,279,158814,6,0,B|328:208|360:136,2,140,0|8|0
392,304,159885,1,2
424,224,160100,1,8
344,192,160314,1,2
198,279,160528,6,0,B|184:208|152:136,2,140,0|8|0
120,304,161599,1,2
88,224,161814,1,8
168,192,162028,1,2
48,144,162242,5,0
80,136,162350,1,0
112,120,162457,1,2
136,104,162564,1,0
160,80,162671,1,8
184,104,162778,1,0
208,120,162885,1,2
240,136,162992,1,0
272,152,163100,2,0,B|320:168,8,35,0|0|2|0|8|0|2|0|4
312,240,164814,5,0
312,240,164921,1,0
304,136,165135,5,0
304,136,165242,1,0
200,144,165457,5,0
200,144,165564,1,0
200,144,165671,2,0,B|152:168|96:160,1,105,4|2
312,240,167385,2,0,B|360:216|416:224,1,105,2|2
304,136,169100,2,0,B|280:88|288:32,1,105,2|2
208,248,170600,1,2
208,248,170707,1,2
208,248,170814,1,2
224,304,171242,1,2
224,352,171671,5,2
80,288,171992,1,0
168,168,172314,1,0
264,248,172528,6,0,B|320:232,1,52.5,2|0
408,208,173171,2,0,B|464:192,2,52.5,2|0|2
248,136,174135,5,0
248,136,174242,2,0,B|192:152,1,52.5,2|0
104,176,174885,2,0,B|48:192,2,52.5,2|0|2
288,32,175850,5,0
288,32,175957,1,2
432,96,176278,1,0
344,216,176600,1,2
208,152,176921,1,0
56,144,177242,5,2
24,232,177457,1,2
104,272,177671,1,2
192,240,177885,1,2
264,184,178100,1,2
352,168,178314,1,2
448,192,178528,1,2
504,280,178742,1,2
504,280,179171,6,0,B|432:256|368:288,1,140,2|2
8,240,181100,6,0,B|64:256|112:232,2,105,2|2|2
176,200,182814,6,0,B|232:184|280:208,1,105,2|2
112,144,184742,5,2
176,80,184957,1,2
256,112,185171,1,2
320,48,185385,5,2
416,149,185600,1,2
305,227,185814,1,2
392,331,186028,1,2
312,307,186242,5,2
156,269,186885,2,0,B|260:245,1,105,2|2
396,214,187957,5,2
258,144,188279,1,0
379,56,188600,1,0
448,128,188814,5,2
328,168,189028,1,2
385,264,189242,1,2
223,284,189457,1,2
315,323,189671,5,2
384,264,189885,1,0
460,218,190100,2,0,B|500:250,2,52.5
460,218,190957,1,0
128,216,191385,5,2
128,216,191492,1,2
128,216,191600,1,2
128,216,191707,1,2
128,216,191814,1,2
128,216,191921,1,2
128,216,192028,1,2
128,216,192135,1,2
128,216,192242,1,2
192,184,192671,1,2
224,128,193100,5,4
48,120,196528,6,0,B|96:88|160:120,2,105,0|2|0
208,288,197385,2,0,B|176:240|208:176,2,105,0|2|0
304,288,198242,6,0,B|336:240|304:176,2,105,0|2|0
464,120,199100,2,0,B|416:88|352:120,2,105,0|2|0
408,216,199957,6,0,B|464:304,2,105,0|2|0
256,144,200814,2,0,B|256:32,2,105,0|2|0
104,216,201671,2,0,B|56:296,1,70
184,256,202100,2,0,B|264:304,1,70,2|0
224,176,202528,2,0,B|272:96,1,70,0|2
144,136,202957,2,0,B|64:88,1,70,2|0
184,256,203385,6,0,B|128:232|72:264,1,105
82,258,203814,1,2
48,168,204028,1,0
136,336,204242,2,0,B|192:360|248:328,2,105,0|2|0
288,256,205100,6,0,B|232:232|176:264,1,105
187,259,205529,1,2
152,168,205743,1,0
240,336,205957,2,0,B|296:360|352:328,2,105,0|2|0
392,256,206814,6,0,B|336:232|280:264,1,105
291,259,207243,1,2
256,168,207457,1,0
344,336,207671,2,0,B|400:360|456:328,2,105,0|2|0
392,256,208528,6,0,B|472:256,1,70
352,184,208957,2,0,B|417:138,1,70,2|0
280,144,209385,2,0,B|307:68,1,70,0|2
200,136,209814,2,0,B|179:58,1,70,2|0
88,88,210242,6,0,B|120:208,1,105,0|2
264,312,210885,1,0
264,312,211100,2,0,B|232:192,1,105,0|2
280,72,211742,1,0
280,72,211957,6,0,B|312:192,1,105,0|2
456,296,212600,1,0
456,296,212815,2,0,B|424:176,1,105,0|2
472,56,213457,1,0
376,80,213671,5,0
224,160,213992,1,2
144,304,214314,1,0
368,304,214528,5,0
288,160,214850,1,2
136,80,215171,1,0
48,152,215385,6,0,B|16:224,1,70
144,304,215814,2,0,B|176:232,1,70,2|0
136,80,216242,2,0,B|104:152,1,70,0|2
232,232,216671,2,0,B|264:160,1,70,2|0
344,248,217100,6,0,B|408:232|424:160,1,105,0|2
304,56,217742,1,0
304,56,217957,2,0,B|240:72|224:144,1,105,0|2
344,248,218600,1,0
168,248,218814,6,0,B|104:232|88:160,1,105,0|2
208,56,219456,1,0
208,56,219671,2,0,B|272:72|288:144,1,105,0|2
168,248,220314,1,0
64,200,220528,6,0,B|88:144|160:144,1,105,0|2
256,272,221171,1,0
365,144,221385,2,0,B|424:144|448:200,2,105,0|2|0
365,144,222242,5,4
280,248,223100,5,0
280,248,223207,1,0
344,192,223421,1,0
344,192,223528,1,0
400,256,223742,5,0
400,256,223850,1,0
400,256,223957,1,4
472,216,224171,2,0,B|488:184,2,35,2|0|8
480,296,224600,1,2
400,256,224814,1,0
328,296,225028,2,0,B|312:328,2,35,2|0|8
400,256,225457,1,2
320,216,225671,5,0
312,136,225885,2,0,B|328:104,2,35,2|0|8
320,216,226314,1,2
240,184,226528,1,0
160,224,226742,2,0,B|144:256,2,35,10|0|8
240,184,227171,1,2
164,143,227385,5,2
64,88,227707,1,0
177,63,228028,1,0
103,98,228242,2,0,B|47:86|-23:84,2,105,2|0|0
177,63,229100,5,0
102,98,229314,1,0
168,149,229528,1,8
168,149,229635,1,0
248,112,229850,1,0
248,112,229957,1,0
320,64,230171,1,8
336,152,230385,2,0,B|376:160,1,35,8|0
320,224,230707,6,0,B|312:264,1,35
224,192,231028,1,2
192,192,231135,1,0
160,208,231242,1,8
184,304,231457,1,2
96,280,231671,1,0
8,280,231885,2,0,B|0:304|-16:328,2,35,2|0|8
48,192,232314,1,2
56,104,232528,5,0
152,112,232742,1,2
184,120,232850,1,0
216,112,232957,1,8
296,64,233171,1,2
344,144,233385,1,0
440,160,233600,2,0,B|448:200,2,35,10|0|8
344,144,234028,1,2
344,232,234242,5,2
444,287,234564,1,0
330,311,234885,1,0
405,276,235099,2,0,B|460:287|531:289,2,105,2|0|0
330,311,235957,5,0
256,264,236171,1,0
176,240,236385,1,8
176,240,236492,1,0
88,240,236707,1,0
88,240,236814,1,0
24,192,237028,1,8
56,104,237242,2,0,B|32:80,1,35,8|0
144,160,237564,5,0
144,160,237671,2,0,B|192:120|184:40,1,105,4|0
185,67,238100,1,8
185,67,238314,1,0
185,67,238528,2,0,B|304:80,1,105,0|0
312,80,238957,1,8
248,192,239171,1,0
368,224,239385,6,0,B|320:264|328:344,1,105,0|0
326,316,239814,1,8
326,316,240028,1,0
326,316,240242,2,0,B|208:304,1,105,0|0
200,304,240671,1,8
144,224,240885,1,0
48,200,241100,6,0,B|16:96,1,105,0|0
17,99,241528,2,0,B|96:72,1,70,8|0
176,48,241957,1,0
336,48,242278,1,0
256,152,242600,1,0
182,311,242814,5,0
256,264,243028,1,0
336,240,243242,1,8
336,240,243349,1,0
424,240,243564,1,0
424,240,243671,1,0
488,192,243885,1,8
440,120,244099,2,0,B|464:96,1,35,8|0
352,128,244421,5,0
352,128,244528,2,2,B|392:24,2,105,2|0|0
352,256,245385,2,2,B|392:360,2,105,2|0|0
256,112,246242,6,2,B|256:0,2,105,2|0|0
256,272,247100,2,0,B|256:384,2,105,2|0|0
160,128,247957,6,2,B|120:24,2,105,2|0|0
160,256,248814,2,2,B|120:360,2,105,2|0|0
160,256,249671,5,0
96,192,249885,1,0
8,160,250100,1,8
8,160,250207,1,0
88,104,250421,1,0
88,104,250528,1,0
160,40,250742,1,8
224,96,250957,1,8
224,96,251064,1,0
248,184,251278,5,0
248,184,251385,2,0,B|272:256,1,70,4|2
368,280,251814,2,0,B|336:192,1,70,8|2
312,120,252242,2,0,B|360:48|448:64,1,140,0|8
416,160,252885,1,2
368,280,253100,6,0,B|320:352|232:336,1,140,0|8
248,338,253742,1,2
88,272,253957,2,0,B|136:200|224:216,1,140,0|8
207,213,254600,1,2
312,160,254814,6,0,B|384:208|368:296,2,140,0|8|0
216,128,255885,1,0
216,128,255992,1,0
216,128,256100,1,8
128,168,256314,2,0,B|88:160|64:120,1,70,2|0
304,80,256742,6,0,B|344:88|368:128,1,70,2|8
248,256,257171,2,0,B|208:248|184:208,1,70,2|0
424,168,257599,2,0,B|464:176|488:216,1,70
481,205,257921,1,0
464,304,258135,1,0
464,304,258242,6,0,B|312:304,1,140,0|8
344,208,258885,2,0,B|368:136,2,70,2|0|2
256,240,259528,2,0,B|168:240,1,70,8|2
104,288,259957,6,0,B|56:224|88:144,1,140,0|8
176,112,260600,1,2
264,64,260814,2,0,B|312:128|280:208,1,140,0|8
304,296,261457,1,2
376,232,261671,6,0,B|398:161|476:143,2,140,0|8|0
304,296,262742,1,0
304,296,262850,1,0
304,296,262957,1,8
240,224,263171,1,2
320,160,263385,6,0,B|344:128|344:88,1,70,0|2
200,128,263814,2,0,B|176:160|176:200,1,70,8|2
384,144,264242,2,0,B|398:106|387:68,1,70,0|2
136,160,264671,2,0,B|121:197|132:235,1,70
152,248,264992,1,0
168,264,265100,6,0,B|93:243|69:147,1,140,4|8
344,120,265742,2,0,B|418:140|442:236,1,140,0|2
436,216,266385,1,8
312,336,266814,6,0,B|280:264|328:184,1,140,0|8
200,48,267457,2,0,B|232:120|184:200,1,140,0|2
193,183,267992,1,0
193,183,268100,1,8
112,224,268314,1,2
280,208,268528,6,0,B|264:256|288:288,1,70,0|2
408,152,268957,1,8
408,152,269064,2,0,B|424:56,1,70,2|2
419,84,269385,6,0,B|371:68|339:92,1,70,0|2
211,197,269814,1,8
211,197,269921,2,0,B|307:213,1,70,2|2
280,208,270242,6,0,B|304:160|272:104,2,105,0|2|2
240,288,271100,2,0,B|152:272,1,70,0|8
80,256,271528,1,0
80,256,271635,1,0
112,168,271850,5,0
112,168,271957,2,0,B|80:112|120:48,1,105,0|2
109,67,272385,2,0,B|200:40,1,70,8|2
400,216,272814,2,0,B|432:272|392:336,1,105,0|2
402,316,273242,2,0,B|312:344,1,70,8|2
232,336,273671,6,0,B|176:368|112:328,1,105,0|2
131,338,274099,2,0,B|104:248,1,70,8|2
280,48,274528,2,0,B|336:16|400:56,1,105,0|2
380,45,274956,2,0,B|408:136,1,70,8|2
440,192,275385,6,0,B|328:192,1,105,0|2
335,192,275814,2,0,B|312:224|344:280,1,70,8|2
72,192,276242,2,0,B|184:192,1,105,0|2
177,192,276671,2,0,B|200:224|168:280,1,70,8|2
56,280,277100,5,4
56,280,277207,1,0
56,280,277314,1,2
56,280,277421,1,0
56,280,277528,1,8
56,280,277635,1,0
56,280,277742,1,2
56,280,277850,1,0
56,280,277957,5,0
56,280,278064,1,0
56,280,278171,1,10
56,280,278278,1,0
56,280,278385,1,8
56,280,278492,1,0
56,280,278600,1,2
56,280,278707,1,0
56,280,278814,5,4
160,256,279028,1,2
256,280,279242,1,8
256,280,279457,1,2
456,280,279671,5,0
352,256,279885,1,2
376,168,280100,2,0,B|384:136|392:96,1,70,8|2
288,152,280528,6,0,B|272:184|272:224,2,70,0|2|8
376,168,281171,1,2
288,152,281385,5,0
304,56,281599,1,10
216,48,281814,1,8
200,144,282028,1,0
192,232,282242,6,0,B|192:272|184:312,1,70,0|2
80,248,282671,2,0,B|80:208|88:168,1,70,8|2
320,232,283100,6,0,B|320:272|328:312,1,70,0|2
432,248,283529,2,0,B|432:208|424:168,1,70,8|2
352,96,283957,6,0,B|374:58|409:40|463:56|497:94,2,140,0|8|0
256,80,285028,1,0
192,152,285242,2,0,B|224:200,1,35
320,152,285564,2,0,B|288:200,1,35
256,264,285885,5,2
160,288,286100,2,0,B|80:304,1,70,8|2
72,208,286528,6,0,B|152:192,1,70,0|2
128,104,286957,2,0,B|48:120,1,70,8|2
248,176,287385,6,0,B|336:168|400:184,2,140,0|8|0
140,194,288457,1,8
128,104,288671,1,8
128,104,288885,1,0
232,80,289100,5,0
248,176,289314,1,2
264,272,289528,2,0,B|277:346,1,70,8|2
360,264,289957,6,0,B|440:256,1,70,0|2
352,168,290385,1,8
352,168,290600,1,2
248,176,290814,6,0,B|160:168|96:184,2,140,0|8|0
352,168,291885,1,0
280,88,292100,1,0
280,88,292207,1,0
176,112,292421,5,0
176,112,292528,2,0,B|152:192,2,70,4|2|8
256,136,293171,1,2
336,112,293385,2,0,B|360:192,2,70,0|2|8
256,168,294028,1,2
176,192,294242,6,0,B|152:272,2,70,0|2|8
256,208,294885,1,2
336,192,295100,2,0,B|360:272,2,70,0|10|8
256,248,295742,1,0
184,288,295957,6,0,B|112:328,1,70,0|2
160,216,296385,2,0,B|77:214,1,70,8|2
176,144,296814,2,0,B|105:101,1,70,0|2
224,88,297242,2,0,B|184:16,1,70,8|2
328,288,297671,6,0,B|400:328,1,70,0|2
352,216,298099,2,0,B|434:214,1,70,8|2
336,144,298528,2,0,B|406:101,1,70,0|0
288,88,298956,2,0,B|328:16,1,70,0|2
208,168,299385,6,0,B|192:248,1,70,0|2
120,192,299814,2,0,B|136:104,1,70,8|2
304,168,300242,2,0,B|320:248,1,70,0|2
392,192,300671,2,0,B|376:104,1,70,8|2
312,72,301100,5,0
312,72,301314,1,2
176,96,301528,1,8
176,96,301742,1,2
216,232,301957,1,0
216,232,302171,1,10
352,208,302385,1,8
352,208,302600,1,0
400,48,302814,6,0,B|418:133,1,70,0|2
352,208,303242,2,0,B|334:123,1,70,8|2
112,48,303671,2,0,B|94:133,1,70,0|2
160,208,304099,2,0,B|178:123,1,70,8|2
256,80,304528,6,0,B|256:232,2,140,0|8|0
144,40,305600,1,0
88,144,305814,1,0
88,144,305921,1,0
208,168,306135,5,0
208,168,306242,1,4
280,120,306457,1,0
360,152,306671,1,8
432,104,306885,2,0,B|456:184|480:256,1,140,2|0
416,304,307528,5,8
328,296,307742,2,0,B|310:242|286:162,1,140,2|0
208,120,308385,5,8
160,192,308600,2,0,B|184:272|208:344,1,140,2|0
128,376,309242,5,8
128,376,309457,1,2
104,296,309671,5,0
80,216,309885,1,0
56,136,310100,1,8
56,136,310314,6,0,B|192:104,1,140,2|0
272,80,310957,1,8
160,192,311171,6,0,B|296:160,1,140,2|0
376,136,311814,1,8
256,256,312028,6,0,B|392:224,1,140,2|0
472,200,312671,1,8
472,200,312885,1,2
456,120,313100,5,0
376,136,313314,2,0,B|360:64,2,70,0|8|0
392,216,313957,5,0
312,232,314171,2,0,B|328:304,2,70,0|8|0
296,152,314814,5,0
216,168,315028,2,0,B|200:96,2,70,0|8|0
232,248,315671,5,0
152,264,315885,2,0,B|168:336,2,70,0|8|0
136,184,316528,5,0
136,184,316742,1,0
120,104,316957,1,8
120,104,317171,1,0
232,248,317385,5,0
232,248,317599,1,0
216,168,317814,1,8
216,168,318028,1,0
296,144,318242,5,0
296,144,318456,1,0
280,64,318671,1,8
280,64,318885,1,0
392,208,319099,5,0
392,208,319313,1,0
376,128,319528,1,8
376,128,319742,1,0
432,40,319957,5,4
432,40,320385,2,0,B|280:40,1,140,8|0
192,64,321028,1,0
96,40,321242,1,8
192,64,321457,1,0
96,192,321671,5,0
96,192,322099,2,0,B|248:192,1,140,8|0
336,216,322742,1,0
432,192,322956,1,8
336,216,323171,1,0
432,328,323385,6,0,B|464:260|426:176,2,140,0|8|0
336,304,324457,1,0
248,264,324671,2,0,B|168:272,1,70,8|0
64,208,325100,6,0,B|32:140|70:56,2,140,0|8|0
160,184,326172,1,0
248,144,326386,2,0,B|328:152,1,70,8|0
440,168,326814,5,0
248,144,327242,1,8
64,208,327671,1,0
264,240,328100,1,8
264,240,328314,1,0
393,46,328528,6,0,B|455:82|440:168,1,140,0|8
118,337,329385,2,0,B|56:301|72:216,1,140,0|8
71,216,330028,1,0
72,216,330242,5,0
192,176,330671,1,8
232,296,331100,1,0
118,337,331528,1,8
280,88,331957,5,0
320,208,332386,1,8
440,168,332814,1,0
394,47,333243,1,8
256,192,333671,5,4
