osu file format v5

[General]
AudioFilename: amane_booze.mp3
AudioLeadIn: 2000
PreviewTime: 14555
Countdown: 0
SampleSet: Soft
StackLeniency: 0.6
Mode: 0
LetterboxInBreaks: 1
EditorBookmarks: 374

[Metadata]
Title:Boozehound
Artist:Amane
Creator:Al-Azif
Version:Nuts
Source:Euro Rave
Tags:Touhou

[Difficulty]
HPDrainRate:6
CircleSize:5
OverallDifficulty:7
SliderMultiplier:1.4
SliderTickRate:1

[Events]
//Background and Video events
0,0,"bg.jpg"
//Break Periods
2,84574,95110
//Storyboard Layer 0 (Background)
//Storyboard Layer 1 (Failing)
//Storyboard Layer 2 (Passing)
//Storyboard Layer 3 (Foreground)
//Storyboard Sound Samples
5,10192,0,"SE\A4.wav"
5,10374,0,"SE\A5.wav"
5,10555,0,"SE\A6.wav"
5,10646,0,"SE\A7.wav"
5,10919,0,"SE\A4.wav"
5,11101,0,"SE\A5.wav"
5,11283,0,"SE\A6.wav"
5,11374,0,"SE\A7.wav"
5,11646,0,"SE\A4.wav"
5,11828,0,"SE\A5.wav"
5,12010,0,"SE\A6.wav"
5,12101,0,"SE\A7.wav"
5,12283,0,"SE\A7.wav"
5,12374,0,"SE\A8.wav"
5,12555,0,"SE\A9.wav"
5,12737,0,"SE\AA.wav"
5,13101,0,"SE\v-08.wav"
5,15737,0,"SE\AB.wav"
5,15828,0,"SE\AC.wav"
5,16010,0,"SE\AD.wav"
5,16192,0,"SE\AE.wav"
5,16374,0,"SE\AF.wav"
5,16465,0,"SE\AG.wav"
5,16646,0,"SE\AH.wav"
5,16737,0,"SE\AI.wav"
5,16828,0,"SE\AJ.wav"
5,16919,0,"SE\AK.wav"
5,17010,0,"SE\AL.wav"
5,17101,0,"SE\AM.wav"
5,24737,0,"SE\v-08.wav"
5,24737,0,"normal-hitnormal.wav"
5,25101,0,"normal-hitnormal.wav"
5,25465,0,"normal-hitnormal.wav"
5,25646,0,"normal-hitnormal.wav"
5,25828,0,"normal-hitnormal.wav"
5,28374,0,"SE\A4.wav"
5,28555,0,"SE\A4.wav"
5,28646,0,"SE\A4.wav"
5,28737,0,"SE\AK.wav"
5,28919,0,"SE\A4.wav"
5,30555,0,"normal-hitfinish2.wav"
5,30919,0,"normal-hitfinish2.wav"
5,31283,0,"normal-hitfinish2.wav"
5,31646,0,"normal-hitfinish2.wav"
5,36374,0,"SE\v-08.wav"
5,36374,0,"SE\v-01.wav"
5,36555,0,"SE\v-02.wav"
5,36737,0,"SE\v-03.wav"
5,36919,0,"SE\v-04.wav"
5,37101,0,"SE\v-05.wav"
5,37283,0,"SE\v-06.wav"
5,37465,0,"SE\v-07.wav"
5,37646,0,"normal-hitfinish2.wav"
5,38192,0,"SE\Wa.wav"
5,38737,0,"SE\Wb.wav"
5,39101,0,"SE\Wb.wav"
5,39283,0,"SE\Wa.wav"
5,39646,0,"SE\Wb.wav"
5,40010,0,"SE\Wa.wav"
5,40192,0,"SE\Wb.wav"
5,40555,0,"SE\Wb.wav"
5,40737,0,"SE\Wa.wav"
5,41101,0,"SE\Wb.wav"
5,41010,0,"SE\Wa.wav"
5,41283,0,"SE\Wa.wav"
5,41828,0,"SE\Wa.wav"
5,41646,0,"SE\Wb.wav"
5,42010,0,"SE\Wa.wav"
5,42192,0,"SE\Wa.wav"
5,42465,0,"SE\Wa.wav"
5,42555,0,"SE\Wb.wav"
5,42737,0,"SE\Wa.wav"
5,43101,0,"SE\Wb.wav"
5,43283,0,"SE\Wa.wav"
5,43465,0,"SE\Wb.wav"
5,43646,0,"SE\Wa.wav"
5,43919,0,"SE\Wa.wav"
5,44010,0,"SE\Wb.wav"
5,44192,0,"SE\Wa.wav"
5,45101,0,"SE\Wa.wav"
5,45283,0,"SE\Wa.wav"
5,45374,0,"SE\Wb.wav"
5,45646,0,"SE\Wa.wav"
5,41646,0,"SE\AX.wav"
5,41828,0,"SE\AX.wav"
5,42010,0,"SE\AX.wav"
5,42192,0,"SE\AN.wav"
5,42374,0,"SE\AO.wav"
5,42555,0,"SE\AP.wav"
5,42737,0,"SE\AQ.wav"
5,43101,0,"SE\AR.wav"
5,43283,0,"SE\AR.wav"
5,43465,0,"SE\AR.wav"
5,44555,0,"SE\AR.wav"
5,44737,0,"SE\AR.wav"
5,46010,0,"SE\AR.wav"
5,46192,0,"SE\AR.wav"
5,46555,0,"SE\AS.wav"
5,46919,0,"SE\AT.wav"
5,47283,0,"SE\AS.wav"
5,47646,0,"SE\AT.wav"
5,48010,0,"SE\A4.wav"
5,48192,0,"SE\A5.wav"
5,48374,0,"SE\A6.wav"
5,48465,0,"SE\A7.wav"
5,48646,0,"SE\A7.wav"
5,48737,0,"SE\A8.wav"
5,48919,0,"SE\A9.wav"
5,49101,0,"SE\AA.wav"
5,50919,0,"SE\AR.wav"
5,51283,0,"SE\AR.wav"
5,51646,0,"SE\AX.wav"
5,51828,0,"SE\AR.wav"
5,52010,0,"SE\AR.wav"
5,53828,0,"SE\A4.wav"
5,54192,0,"SE\A4.wav"
5,54555,0,"SE\AQ.wav"
5,54646,0,"SE\AX.wav"
5,54828,0,"SE\AX.wav"
5,54919,0,"SE\AQ.wav"
5,55101,0,"SE\AD.wav"
5,55828,0,"SE\AX.wav"
5,56192,0,"SE\AR.wav"
5,56374,0,"SE\AR.wav"
5,57283,0,"SE\AX.wav"
5,57646,0,"SE\AR.wav"
5,57828,0,"SE\AR.wav"
5,58192,0,"SE\AR.wav"
5,58374,0,"SE\AX.wav"
5,58737,0,"SE\AR.wav"
5,58919,0,"SE\AR.wav"
5,59101,0,"SE\AR.wav"
5,59646,0,"SE\AS.wav"
5,60010,0,"SE\AT.wav"
5,60283,0,"SE\AU.wav"
5,60465,0,"SE\AV.wav"
5,60737,0,"SE\AW.wav"
5,60919,0,"normal-hitfinish2.wav"
5,69737,0,"SE\AN.wav"
5,69828,0,"SE\AO.wav"
5,70010,0,"SE\AP.wav"
5,70192,0,"SE\AQ.wav"
5,70465,0,"SE\AN.wav"
5,70555,0,"SE\AO.wav"
5,70737,0,"SE\AP.wav"
5,70919,0,"SE\AQ.wav"
5,71283,0,"SE\AS.wav"
5,71646,0,"SE\AT.wav"
5,72010,0,"SE\AS.wav"
5,72374,0,"SE\AT.wav"
5,72737,0,"SE\AS.wav"
5,73101,0,"SE\AT.wav"
5,73374,0,"SE\AU.wav"
5,73555,0,"SE\AV.wav"
5,73828,0,"SE\AW.wav"
5,74192,0,"SE\AS.wav"
5,74555,0,"SE\AT.wav"
5,74828,0,"SE\AU.wav"
5,75010,0,"SE\AV.wav"
5,75283,0,"SE\AW.wav"
5,75646,0,"SE\AS.wav"
5,76010,0,"SE\AT.wav"
5,76283,0,"SE\AU.wav"
5,76465,0,"SE\AV.wav"
5,76737,0,"SE\AW.wav"
5,77101,0,"SE\AS.wav"
5,77465,0,"SE\AT.wav"
5,77737,0,"SE\AU.wav"
5,77919,0,"SE\AV.wav"
5,78192,0,"SE\AW.wav"
5,78374,0,"SE\AW.wav"
5,78555,0,"SE\AN.wav"
5,78737,0,"SE\AO.wav"
5,78919,0,"SE\AP.wav"
5,79101,0,"SE\AQ.wav"
5,79465,0,"SE\AX.wav"
5,79646,0,"SE\AR.wav"
5,80010,0,"SE\AR.wav"
5,80374,0,"SE\AR.wav"
5,80555,0,"SE\AX.wav"
5,81101,0,"SE\AR.wav"
5,81283,0,"SE\AX.wav"
5,81465,0,"SE\A4.wav"
5,81646,0,"SE\A5.wav"
5,81828,0,"SE\A6.wav"
5,81919,0,"SE\A7.wav"
5,82192,0,"SE\A8.wav"
5,82374,0,"SE\A9.wav"
5,82465,0,"SE\AA.wav"
5,82646,0,"SE\AB.wav"
5,82737,0,"SE\AC.wav"
5,82919,0,"SE\AD.wav"
5,83101,0,"SE\AE.wav"
5,83374,0,"SE\AF.wav"
5,83465,0,"SE\AG.wav"
5,83646,0,"SE\AH.wav"
5,83828,0,"SE\AI.wav"
5,83919,0,"SE\AJ.wav"
5,84010,0,"SE\AK.wav"
5,84101,0,"SE\AL.wav"
5,84192,0,"SE\AM.wav"
5,94555,0,"SE\AS.wav"
5,94919,0,"SE\AT.wav"
5,94555,0,"SE\v-08.wav"
5,95192,0,"SE\AU.wav"
5,95374,0,"SE\AV.wav"
5,95646,0,"SE\AW.wav"
5,106192,0,"SE\A4.wav"
5,106374,0,"SE\A5.wav"
5,106646,0,"SE\A6.wav"
5,106737,0,"SE\A7.wav"
5,106919,0,"SE\A8.wav"
5,106919,0,"normal-hitfinish2.wav"
5,107101,0,"SE\A9.wav"
5,107192,0,"SE\AA.wav"
5,107283,0,"normal-hitfinish2.wav"
5,107374,0,"SE\AB.wav"
5,107465,0,"SE\AC.wav"
5,112010,0,"SE\A4.wav"
5,112192,0,"SE\A5.wav"
5,112465,0,"SE\A6.wav"
5,112555,0,"SE\A7.wav"
5,112737,0,"SE\A8.wav"
5,112919,0,"SE\A9.wav"
5,113010,0,"SE\AA.wav"
5,113192,0,"SE\AB.wav"
5,113283,0,"SE\AC.wav"
5,117828,0,"SE\v-01.wav"
5,118010,0,"SE\v-02.wav"
5,118192,0,"SE\v-03.wav"
5,118374,0,"SE\v-04.wav"
5,118555,0,"SE\v-05.wav"
5,118737,0,"SE\v-06.wav"
5,118737,0,"SE\A4.wav"
5,118919,0,"SE\v-07.wav"
5,118919,0,"SE\A4.wav"
5,124555,0,"SE\A4.wav"
5,124737,0,"SE\A4.wav"
5,129465,0,"normal-hitnormal.wav"
5,129646,0,"normal-hitnormal.wav"
5,129737,0,"normal-hitnormal.wav"
5,129828,0,"normal-hitnormal.wav"
5,130010,0,"normal-hitnormal.wav"
5,130192,0,"normal-hitnormal.wav"
5,130283,0,"normal-hitnormal.wav"
5,130374,0,"SE\A4.wav"
5,130465,0,"normal-hitnormal.wav"
5,130555,0,"SE\A4.wav"
5,130919,0,"SE\Wa.wav"
5,131101,0,"SE\Wb.wav"
5,131283,0,"SE\Wa.wav"
5,131646,0,"SE\Wa.wav"
5,131828,0,"SE\Wa.wav"
5,132010,0,"SE\Wb.wav"
5,132192,0,"SE\Wa.wav"
5,132374,0,"SE\Wa.wav"
5,133101,0,"SE\Wa.wav"
5,133828,0,"SE\Wa.wav"
5,134010,0,"SE\Wb.wav"
5,134192,0,"SE\Wa.wav"
5,134555,0,"SE\Wa.wav"
5,134737,0,"SE\Wa.wav"
5,134919,0,"SE\Wb.wav"
5,135101,0,"SE\Wa.wav"
5,135283,0,"SE\Wa.wav"
5,136010,0,"SE\Wa.wav"
//Background Colour Transformations
3,100,12,17,52

[TimingPoints]
1465,363.636363636364,4,2,2,95,1,0
12283,-100,4,1,2,80,0,0
14374,-100,4,2,2,95,0,0
21737,-100,4,1,2,80,0,0
23101,-100,4,1,0,80,0,0
23374,-100,4,2,2,95,0,0
27555,-100,4,1,2,80,0,0
28919,-100,4,1,0,80,0,0
29192,-100,4,2,2,95,0,0
30465,-100,4,1,0,80,0,0
30646,-100,4,2,2,95,0,0
38010,-100,4,1,2,80,0,0
49465,-100,4,2,2,90,0,0
50828,-100,4,1,0,80,0,0
52192,-100,4,2,2,95,0,0
53828,-100,4,1,0,80,0,0
54374,-100,4,2,2,95,0,0
59283,-100,4,1,0,80,0,0
61283,-100,4,2,2,95,0,0
81374,-100,4,1,0,80,0,0
84737,-100,4,2,2,90,0,0
106192,-200,4,1,0,80,0,0
107101,-100,4,2,2,95,0,0
153919,-100,4,1,0,80,0,0

[Colours]
Combo1 : 236,19,182
Combo2 : 255,255,255
Combo3 : 255,0,0
Combo4 : 148,40,255

[HitObjects]
80,224,1465,1,4
80,224,1646,1,4
80,224,1828,2,0,B|88:104|232:88,1,210,8|4
216,90,2555,1,8
440,224,2919,1,4
440,224,3101,1,4
440,224,3283,2,0,B|432:104|288:88,1,210,8|4
303,90,4010,1,8
256,224,4374,5,4
256,296,4555,1,4
184,296,4737,2,0,L|112:272|176:240|96:208,1,210,8|4
48,192,5465,1,8
256,224,5828,1,4
256,296,6010,1,4
328,296,6192,2,0,L|400:272|336:240|416:208,1,210,8|4
464,192,6919,1,8
256,48,7283,5,4
208,96,7465,1,4
208,96,7555,1,4
208,96,7646,1,8
256,144,7828,2,0,L|304:192|240:264,1,140,2|2
160,352,8555,5,2
112,304,8737,1,4
160,256,8919,1,4
160,256,9010,1,4
160,256,9101,1,8
112,208,9283,1,2
248,208,9646,6,0,L|320:272,1,70,2|4
440,256,10192,2,4,L|376:200,1,70,4|2
280,112,10737,2,0,L|208:48,2,70,2|4|2
416,64,11464,2,2,L|360:120,1,70,2|4
320,168,11828,5,2
320,168,12010,1,4
320,168,12192,1,2
320,240,12374,1,0
320,240,12464,1,0
320,240,12555,1,0
320,240,12646,1,0
320,240,12737,1,0
320,240,12828,1,0
320,240,12919,1,0
320,240,13010,1,0
320,240,13101,1,0
256,192,13192,12,4,14192
224,112,14555,5,4
168,64,14737,2,0,L|128:24,2,35,4|4|8
224,112,15101,1,2
296,112,15283,1,4
344,64,15464,2,0,L|392:24,2,35,4|4|8
296,112,15828,1,2
336,160,16010,5,4
344,168,16101,1,4
352,176,16192,1,4
360,184,16283,1,4
368,192,16374,1,8
416,240,16555,1,2
368,288,16737,1,4
356,298,16828,1,4
348,306,16919,1,4
340,314,17010,1,4
332,322,17101,1,8
192,328,17464,6,0,L|112:272,1,70,4|4
104,264,17737,1,4
76,242,17828,1,8
72,168,18010,1,2
72,96,18192,1,4
128,48,18374,1,4
128,48,18465,1,4
128,48,18555,1,8
184,96,18737,1,2
232,144,18919,5,4
240,152,19010,1,4
248,160,19101,1,4
256,168,19192,1,4
264,176,19283,1,8
312,224,19464,1,2
360,176,19646,1,4
368,168,19737,1,4
376,160,19828,1,4
384,152,19919,1,4
392,144,20010,1,8
288,48,20374,5,4
216,48,20555,2,0,L|216:96,2,35,2|0|8
144,48,20919,1,2
96,104,21101,1,4
96,176,21283,2,0,L|48:176,2,35,2|0|8
144,232,21646,1,2
144,304,21828,5,2
384,224,22192,1,6
144,136,22555,1,2
384,56,22919,1,6
256,104,23283,5,4
304,152,23465,1,4
304,152,23555,1,4
304,152,23646,1,8
256,200,23828,1,2
208,248,24010,1,4
208,248,24101,1,4
208,248,24192,1,4
208,248,24283,1,4
208,248,24374,1,8
256,296,24555,1,2
256,192,24737,12,4,26010
424,72,26192,5,4
376,120,26374,1,4
368,128,26465,1,0
360,136,26555,1,8
304,184,26737,1,2
256,232,26919,1,4
200,184,27101,1,4
192,176,27192,1,4
184,168,27283,1,8
136,120,27465,1,4
88,64,27646,5,4
96,320,28010,1,4
424,320,28374,1,4
424,64,28737,1,4
352,64,28919,1,0
280,64,29101,5,4
240,120,29283,1,0
240,120,29374,1,0
240,120,29465,1,8
280,176,29646,1,2
320,232,29828,1,4
272,280,30010,1,0
272,280,30101,1,0
272,280,30192,1,8
224,328,30374,1,2
176,280,30555,6,0,L|112:216,1,70,0|2
126,230,30828,2,0,B|128:160|200:128,1,105,4|2
240,120,31283,1,4
240,120,31374,1,6
312,120,31555,1,2
312,120,31646,2,0,B|416:120,1,70,8|2
432,168,32010,5,4
384,216,32192,1,4
384,216,32283,1,4
384,216,32374,2,0,B|312:280,1,70,8|2
280,312,32737,1,4
208,312,32919,1,4
208,312,33010,1,4
208,312,33101,2,0,B|120:312,1,70,8|2
104,248,33465,6,4,B|104:144,1,70
104,104,33828,1,8
168,136,34010,1,2
232,168,34192,2,4,B|232:264,1,70,4|2
296,216,34555,1,8
296,216,34737,1,6
360,192,34919,5,4
432,192,35101,2,4,B|472:192,2,35,4|4|8
432,120,35465,1,2
368,96,35646,1,4
304,72,35828,2,4,B|248:48,2,35,4|4|8
304,144,36192,1,2
304,208,36374,5,4
304,216,36465,1,4
304,224,36555,1,4
304,232,36646,1,4
304,240,36737,1,4
304,248,36828,1,4
304,256,36919,1,4
304,264,37010,1,4
256,192,37101,12,0,37828
216,104,38192,6,4,L|272:80|272:176|344:144,1,210,0|0
192,216,39101,1,0
216,280,39283,2,0,L|232:320|344:320,1,140,0|0
336,176,40010,1,0
320,104,40192,2,0,L|304:56|192:56,1,140,0|0
144,56,40737,6,0,L|112:104|112:176,1,105,0|0
112,184,41101,2,0,L|112:272,1,70,0|0
232,320,41646,2,0,L|232:240|280:192,1,140,0|0
344,200,42192,6,0,L|408:200|448:160,1,105,0|0
440,136,42555,2,0,L|440:56,1,70,4|0
296,64,43101,2,0,L|216:64,2,70,0|0|0
296,136,43646,6,0,L|264:192|208:192,1,105,0|0
184,192,44010,1,4
136,240,44192,2,0,L|168:280|272:280,1,140,0|0
328,280,44737,1,0
424,176,45101,5,4
392,112,45283,1,0
392,112,45374,2,0,L|360:72|296:72,1,105,0|0
168,72,46010,1,0
168,72,46192,1,0
96,192,46555,5,2
256,344,46919,1,0
416,192,47283,1,2
256,40,47646,1,0
152,136,48010,5,0
152,136,48101,1,0
152,208,48283,1,0
152,208,48374,1,0
192,264,48555,1,0
256,280,48737,1,0
256,280,48828,1,0
328,264,49010,1,0
328,264,49101,1,0
376,208,49283,1,0
376,208,49374,1,4
376,208,49465,6,0,L|376:112,2,70,4|2|8
328,72,50192,2,0,L|240:72,1,70,4|2
187,72,50555,2,0,L|267:72,1,70,8|2
328,72,50919,5,4
416,336,51283,1,4
128,336,51646,1,0
40,72,52010,1,0
328,72,52374,6,0,L|384:152,2,70,4|2|8
312,208,53101,2,0,L|360:280,1,70,4|2
389,325,53465,2,0,L|341:253,1,70,8|2
312,208,53828,5,4
256,80,54192,1,4
136,160,54555,1,4
136,160,54646,1,4
168,224,54828,1,2
168,224,54919,1,8
200,288,55101,1,2
128,288,55283,6,4,L|32:288,1,70,4|0
376,80,55828,2,0,L|448:80,2,70,2|4|8
304,80,56374,1,8
88,120,56737,6,4,L|88:32,1,70,4|0
424,264,57283,2,0,L|424:344,2,70,0|4|10
424,192,57828,1,8
128,288,58192,6,4,L|40:288,1,70,4|0
376,80,58737,2,0,L|464:80,2,70,2|4|2
256,192,59465,5,0
256,264,59646,1,4
256,120,60010,1,4
256,192,60192,12,4,61101
152,288,61465,6,0,B|224:232|264:344|360:264,1,210,8|4
408,232,62192,1,8
360,96,62555,2,0,B|272:96,1,70,4|4
152,96,63101,2,0,B|240:96,1,70,4|6
184,232,63646,1,8
256,232,63828,1,2
328,232,64010,6,0,L|392:192|392:136|328:104|272:136|272:64|216:40|160:64|224:88|160:120|160:192|224:224|136:272,1,840,4|4
280,296,66555,6,0,L|376:296,1,70,8|6
424,296,66919,1,4
320,200,67283,2,0,L|224:200,1,70,8|6
176,200,67646,1,4
136,64,68010,2,0,L|208:64,1,70,8|2
216,136,68374,6,4,L|72:136,2,140,4|8|4
320,136,69374,2,0,L|336:192|312:256,1,105,8|8
320,304,69828,6,0,B|256:344|184:304,1,140,4|8
192,72,70555,2,0,B|264:32|336:80,1,140,4|8
416,192,71283,5,4
256,328,71646,1,8
96,192,72010,1,4
256,56,72374,1,8
256,232,72737,5,4
256,232,72919,1,4
360,328,73283,2,0,B|296:264,1,70,2|4
152,328,73646,2,0,B|216:264,1,70,8|8
256,160,74192,5,4
256,160,74374,1,4
152,56,74737,2,0,B|216:120,1,70,2|4
360,56,75101,2,0,B|296:120,1,70,8|8
216,208,75646,5,4
160,256,75828,2,4,B|160:304,2,35,4|4|8
104,208,76192,1,2
160,80,76555,1,12
160,80,76737,1,8
296,80,77101,1,4
344,128,77283,1,4
344,128,77374,1,4
344,128,77465,1,8
392,176,77646,1,2
248,176,78010,5,4
296,224,78192,1,8
248,272,78374,1,8
200,320,78555,5,4
128,320,78737,1,2
128,320,78828,1,2
128,320,78919,1,8
72,272,79101,1,4
72,128,79465,2,0,B|136:56,1,70,2|8
168,128,79828,2,0,B|232:56,1,70,4|4
264,128,80192,1,0
264,128,80283,1,0
264,128,80374,2,0,B|328:56,1,70,8|4
448,80,80919,5,4
400,128,81101,1,8
352,176,81283,1,4
256,192,81464,12,4,82919
128,192,83283,6,0,L|88:192,2,35
200,192,83646,2,0,L|248:192,1,35
304,192,83919,1,0
376,192,84101,2,0,L|424:192,3,35,0|0|0|4
224,296,96010,5,4
296,296,96192,1,4
328,296,96283,1,4
360,296,96374,2,0,B|448:296,2,70,8|2|4
224,296,97101,2,0,B|144:296,1,70,8|0
80,296,97464,5,2
144,80,97828,1,8
256,272,98192,1,0
336,64,98555,1,8
456,248,98919,5,4
392,216,99101,1,4
360,200,99192,1,4
328,184,99283,1,8
264,152,99464,1,2
200,120,99646,2,0,B|152:192|200:272,1,140,4|8
208,320,100192,1,4
272,344,100374,5,4
456,176,100737,1,8
240,48,101101,1,0
64,208,101464,1,8
176,296,101828,5,4
240,280,102010,1,4
272,272,102101,1,4
304,264,102192,1,8
368,248,102374,1,2
320,200,102555,1,4
272,144,102737,1,4
248,120,102828,1,4
224,96,102919,1,8
176,40,103101,1,2
128,88,103283,5,4
392,144,103646,1,8
112,256,104010,1,0
400,336,104374,1,8
264,296,104737,6,0,B|168:264,1,70,4|4
197,273,105010,1,4
197,273,105101,1,8
200,200,105283,1,2
264,184,105465,2,4,B|344:160,1,70,4|4
331,163,105737,1,4
331,163,105828,1,8
328,88,106010,1,4
296,80,106192,6,0,L|224:64|136:88,1,140
128,88,107010,1,0
64,112,107192,1,4
88,176,107374,1,4
104,208,107464,1,4
120,240,107555,1,4
136,272,107646,5,4
200,304,107828,1,2
264,336,108010,2,0,L|336:288,1,70,8|2
376,256,108374,1,4
320,208,108555,1,4
320,208,108646,1,4
320,208,108737,2,2,L|248:152,1,70,8|2
208,120,109101,5,4
264,72,109283,1,2
264,72,109374,1,2
264,72,109465,2,0,L|336:128,1,70,8|2
376,152,109828,1,2
376,152,109919,1,8
432,112,110101,1,0
432,112,110192,1,8
56,112,110555,5,4
112,152,110737,2,4,L|112:200,2,35,4|4|8
168,112,111101,1,2
224,152,111283,1,4
280,112,111465,2,0,L|280:64,2,35,4|4|8
336,152,111828,1,2
392,192,112010,5,4
392,192,112101,1,4
392,192,112192,1,4
392,192,112283,1,4
392,192,112374,1,8
392,264,112555,5,0
336,304,112737,5,4
336,304,112828,1,4
336,304,112919,1,12
336,304,113010,1,4
336,304,113101,1,8
176,56,113464,5,4
128,104,113646,1,4
128,104,113737,1,4
128,104,113828,2,0,L|72:160,1,70,8|2
24,200,114192,1,4
80,240,114374,1,4
112,256,114464,1,4
144,272,114555,1,8
208,296,114737,1,4
272,296,114919,5,4
280,288,115010,1,4
288,280,115101,1,4
296,272,115192,1,4
304,264,115283,1,8
344,208,115465,1,2
392,256,115646,1,4
400,264,115737,1,4
408,272,115828,1,4
416,280,115919,1,4
424,288,116010,1,8
88,120,116374,5,4
88,248,116555,1,4
88,120,116737,1,8
88,248,116919,1,2
88,120,117101,6,0,L|184:152,1,70,4|2
88,248,117465,2,0,L|184:216,1,70,8|8
216,184,117828,5,4
224,184,117919,1,4
232,184,118010,1,4
240,184,118101,1,4
248,184,118192,1,4
256,184,118283,1,4
264,184,118374,1,4
272,184,118464,1,4
280,184,118555,1,4
352,184,118737,5,8
352,184,118919,1,12
448,80,119283,6,0,B|392:136,1,70,4|4
456,288,119646,2,0,B|400:232,1,70,8|2
248,288,120010,2,0,B|304:232,1,70,4|2
248,80,120374,2,0,B|304:136,1,70,8|8
352,184,120737,6,4,B|400:184,4,35,4|4|4|4|8
280,184,121283,1,2
208,184,121465,2,4,B|160:184,4,35,4|4|4|4|8
88,112,122192,6,0,L|88:40,1,70,4|2
152,264,122555,2,2,L|152:344,1,70,8|2
216,112,122919,2,0,L|216:40,1,70,4|0
280,264,123283,2,0,L|280:344,2,70,8|2|4
336,112,123828,5,4
336,112,123919,1,4
336,112,124010,1,8
336,184,124192,1,2
376,240,124374,1,4
448,240,124555,1,8
448,240,124737,1,8
448,96,125101,5,4
400,144,125283,1,4
400,144,125374,1,4
400,144,125465,2,0,B|344:200,1,70,8|2
280,192,125828,1,4
280,192,126010,2,0,L|216:128,1,70,2|8
176,96,126374,1,8
104,96,126555,5,4
104,96,126646,2,0,B|104:184,1,70,4|4
104,200,126919,1,8
176,192,127101,1,2
248,184,127283,1,4
248,184,127374,2,0,B|248:280,1,70,4|4
248,288,127646,1,8
320,280,127828,1,0
392,272,128010,6,0,L|480:256,1,70,4|4
458,189,128374,2,0,L|362:165,1,70,4|4
392,104,128737,2,0,L|480:88,2,70,4|4|4
320,120,129283,1,4
256,192,129464,12,0,130555
256,240,130919,6,0,L|256:320,2,70,4|2|4
325,120,131646,2,0,L|229:120,1,70,4|2
184,120,132010,2,4,L|272:120,1,70,6|6
256,48,132374,5,6
400,192,132737,1,4
256,336,133101,1,6
112,192,133465,1,4
256,48,133828,5,6
328,48,134010,2,0,L|424:48,1,70,2|4
464,168,134555,2,0,L|464:256,1,70,4|0
400,208,134919,2,0,L|400:312,1,70,4|6
400,344,135283,5,4
304,104,135646,1,6
168,304,136010,1,4
72,64,136374,1,6
72,64,136555,1,6
72,136,136737,6,0,L|72:288,1,140,4|8
440,272,137465,2,0,L|440:128,1,140,4|8
344,32,138192,5,4
112,120,138555,1,8
208,352,138919,1,0
440,264,139283,1,8
344,32,139646,6,0,L|272:32,1,70,4|6
200,32,140010,1,8
168,352,140374,2,0,L|264:352,1,70,4|6
312,352,140737,1,8
416,256,141101,6,0,L|448:192|400:104,1,140,4|8
288,192,141828,1,4
288,192,141919,1,4
232,232,142101,1,4
232,232,142192,1,8
176,192,142374,1,2
176,120,142555,5,4
296,48,142919,2,0,L|312:120|352:96|376:192,1,210,8|2
392,320,143828,1,2
320,304,144010,1,2
184,272,144374,2,0,L|112:248|184:208|136:160,1,210,8|2
48,72,145283,1,2
48,72,145464,5,4
120,72,145646,1,4
120,72,145737,2,4,L|232:72,1,105,4|4
368,72,146374,1,4
432,192,146737,1,4
432,192,146919,1,4
360,192,147101,1,4
360,192,147192,2,0,L|240:192,1,105,4|4
112,192,147828,1,4
184,312,148192,1,4
184,312,148374,5,4
256,72,148737,1,8
336,312,149101,1,4
408,72,149465,1,8
408,72,149646,1,8
408,72,149828,5,4
136,136,150192,1,8
408,248,150555,1,4
136,312,150919,1,8
136,312,151101,1,8
136,312,151283,5,4
184,256,151465,2,4,L|184:216,2,35,4|4|8
256,256,151828,1,0
328,256,152010,1,4
400,256,152192,2,4,L|400:296,2,35,4|4|8
448,200,152555,1,4
408,144,152737,5,4
400,136,152828,1,4
392,128,152919,1,4
384,120,153010,1,4
376,112,153101,1,8
320,64,153283,1,4
264,112,153465,1,4
256,120,153555,1,4
248,128,153646,1,4
240,136,153737,1,4
232,144,153828,1,8
184,192,154010,5,4
184,192,154192,1,4
