osu file format v12

[General]
AudioFilename: .mp3
AudioLeadIn: 0
PreviewTime: -1
Countdown: 0
SampleSet: None
StackLeniency: 0.7
Mode: 3
LetterboxInBreaks: 1
SpecialStyle: 0
WidescreenStoryboard: 0

[Editor]
DistanceSpacing: 1
BeatDivisor: 16
GridSize: 8

[Metadata]
Title:As Beautiful as the Crimson Night
TitleUnicode:その斯くも美しき紅に
Artist:Amane
ArtistUnicode:天音
Creator:Doorknob
Version:Lv.09
Source:BMS
Tags:
BeatmapID:303788
BeatmapSetID:118052

[Difficulty]
HPDrainRate:7
CircleSize:7
OverallDifficulty:7
ApproachRate:5
SliderMultiplier:1.4
SliderTickRate:1

[Events]
//Background and Video events
0,0,"title.jpg",0,0
Video,2322,"Azamaku BGA.avi"
//Break Periods
//Storyboard Layer 0 (Background)
//Storyboard Layer 1 (Fail)
//Storyboard Layer 2 (Pass)
//Storyboard Layer 3 (Foreground)
//Storyboard Sound Samples
//Background Colour Transformations
3,100,163,162,255

[TimingPoints]
0,387.096774193548,4,2,0,0,1,0

[HitObjects]
256,192,2322,1,0,0:0:0:0:
329,192,2709,1,0,0:0:0:0:
36,192,3096,1,0,0:0:0:0:
475,192,3096,1,0,0:0:0:0:
402,192,3870,1,0,0:0:0:0:
329,192,4258,1,0,0:0:0:0:
182,192,4645,1,0,0:0:0:0:
256,192,4645,1,0,0:0:0:0:
109,192,5419,1,0,0:0:0:0:
36,192,5806,1,0,0:0:0:0:
109,192,6193,1,0,0:0:0:0:
329,192,6193,1,0,0:0:0:0:
256,192,8516,1,0,0:0:0:0:
329,192,8903,1,0,0:0:0:0:
256,192,9290,1,0,0:0:0:0:
475,192,9290,1,0,0:0:0:0:
402,192,10064,1,0,0:0:0:0:
329,192,10451,1,0,0:0:0:0:
256,192,10838,1,0,0:0:0:0:
402,192,10838,1,0,0:0:0:0:
182,192,11612,1,0,0:0:0:0:
36,192,12000,1,0,0:0:0:0:
182,192,12387,1,0,0:0:0:0:
36,192,15483,1,0,0:0:0:0:
182,192,15483,1,0,0:0:0:0:
182,192,15677,1,0,0:0:0:0:
329,192,15677,1,0,0:0:0:0:
329,192,15870,1,0,0:0:0:0:
475,192,15870,1,0,0:0:0:0:
256,192,15967,1,0,0:0:0:0:
402,192,15967,1,0,0:0:0:0:
182,192,16064,1,0,0:0:0:0:
329,192,16064,1,0,0:0:0:0:
109,192,16161,1,0,0:0:0:0:
256,192,16161,1,0,0:0:0:0:
36,192,16258,1,0,0:0:0:0:
182,192,16258,1,0,0:0:0:0:
402,192,16451,1,0,0:0:0:0:
475,192,16451,1,0,0:0:0:0:
36,192,16645,1,0,0:0:0:0:
109,192,16645,1,0,0:0:0:0:
402,192,16741,1,0,0:0:0:0:
182,192,16838,1,0,0:0:0:0:
329,192,16935,1,0,0:0:0:0:
109,192,17032,1,0,0:0:0:0:
402,192,17225,1,0,0:0:0:0:
36,192,17419,1,0,0:0:0:0:
475,192,17419,1,0,0:0:0:0:
182,192,17516,1,0,0:0:0:0:
329,192,17516,1,0,0:0:0:0:
256,192,17612,1,0,0:0:0:0:
182,192,17709,1,0,0:0:0:0:
329,192,17709,1,0,0:0:0:0:
36,192,17806,1,0,0:0:0:0:
475,192,17806,1,0,0:0:0:0:
182,192,18000,1,0,0:0:0:0:
36,192,18193,1,0,0:0:0:0:
109,192,18193,1,0,0:0:0:0:
402,192,18290,1,0,0:0:0:0:
475,192,18290,1,0,0:0:0:0:
182,192,18387,1,0,0:0:0:0:
329,192,18483,1,0,0:0:0:0:
109,192,18580,1,0,0:0:0:0:
402,192,18580,1,0,0:0:0:0:
402,192,18774,1,0,0:0:0:0:
36,192,18967,1,0,0:0:0:0:
256,192,18967,1,0,0:0:0:0:
109,192,19064,1,0,0:0:0:0:
475,192,19064,1,0,0:0:0:0:
329,192,19161,1,0,0:0:0:0:
402,192,19161,1,0,0:0:0:0:
182,192,19258,1,0,0:0:0:0:
36,192,19354,1,0,0:0:0:0:
256,192,19354,1,0,0:0:0:0:
475,192,19548,1,0,0:0:0:0:
109,192,19741,1,0,0:0:0:0:
329,192,19741,1,0,0:0:0:0:
402,192,19838,1,0,0:0:0:0:
182,192,19935,1,0,0:0:0:0:
256,192,19935,1,0,0:0:0:0:
329,192,20032,1,0,0:0:0:0:
109,192,20129,1,0,0:0:0:0:
402,192,20322,1,0,0:0:0:0:
182,192,20516,1,0,0:0:0:0:
256,192,20612,1,0,0:0:0:0:
182,192,20709,1,0,0:0:0:0:
109,192,20806,1,0,0:0:0:0:
36,192,20903,1,0,0:0:0:0:
475,192,20903,1,0,0:0:0:0:
182,192,21096,1,0,0:0:0:0:
329,192,21096,1,0,0:0:0:0:
109,192,21290,1,0,0:0:0:0:
256,192,21290,1,0,0:0:0:0:
475,192,21290,1,0,0:0:0:0:
402,192,21387,1,0,0:0:0:0:
36,192,21483,1,0,0:0:0:0:
182,192,21483,1,0,0:0:0:0:
329,192,21483,1,0,0:0:0:0:
256,192,21580,1,0,0:0:0:0:
36,192,21677,1,0,0:0:0:0:
329,192,21677,1,0,0:0:0:0:
402,192,21677,1,0,0:0:0:0:
475,192,21677,1,0,0:0:0:0:
109,192,21870,1,0,0:0:0:0:
402,192,21870,1,0,0:0:0:0:
36,192,22064,1,0,0:0:0:0:
182,192,22064,1,0,0:0:0:0:
329,192,22064,1,0,0:0:0:0:
402,192,22064,1,0,0:0:0:0:
475,192,22064,1,0,0:0:0:0:
256,192,22161,1,0,0:0:0:0:
182,192,22258,1,0,0:0:0:0:
402,192,22258,1,0,0:0:0:0:
109,192,22354,1,0,0:0:0:0:
36,192,22451,1,0,0:0:0:0:
182,192,22451,1,0,0:0:0:0:
329,192,22451,1,0,0:0:0:0:
402,192,22451,1,0,0:0:0:0:
475,192,22451,1,0,0:0:0:0:
256,192,22548,1,0,0:0:0:0:
36,192,22645,1,0,0:0:0:0:
109,192,22741,1,0,0:0:0:0:
256,192,22741,1,0,0:0:0:0:
402,192,22741,1,0,0:0:0:0:
182,192,22838,1,0,0:0:0:0:
329,192,22838,1,0,0:0:0:0:
402,192,22935,1,0,0:0:0:0:
36,192,23032,1,0,0:0:0:0:
109,192,23032,1,0,0:0:0:0:
256,192,23032,1,0,0:0:0:0:
329,192,23032,1,0,0:0:0:0:
475,192,23032,1,0,0:0:0:0:
402,192,23129,1,0,0:0:0:0:
36,192,23225,1,0,0:0:0:0:
256,192,23225,1,0,0:0:0:0:
109,192,23419,1,0,0:0:0:0:
256,192,23419,1,0,0:0:0:0:
36,192,23612,1,0,0:0:0:0:
182,192,23612,1,0,0:0:0:0:
402,192,23612,1,0,0:0:0:0:
475,192,23709,1,0,0:0:0:0:
109,192,23806,1,0,0:0:0:0:
402,192,23806,1,0,0:0:0:0:
329,192,23903,1,0,0:0:0:0:
36,192,24000,1,0,0:0:0:0:
182,192,24000,1,0,0:0:0:0:
256,192,24000,1,0,0:0:0:0:
36,192,24193,1,0,0:0:0:0:
109,192,24193,1,0,0:0:0:0:
182,192,24193,1,0,0:0:0:0:
475,192,24193,1,0,0:0:0:0:
256,192,24387,1,0,0:0:0:0:
329,192,24387,1,0,0:0:0:0:
402,192,24387,1,0,0:0:0:0:
475,192,24483,1,0,0:0:0:0:
36,192,24580,1,0,0:0:0:0:
109,192,24580,1,0,0:0:0:0:
182,192,24580,1,0,0:0:0:0:
329,192,24580,1,0,0:0:0:0:
402,192,24677,1,0,0:0:0:0:
36,192,24774,1,0,0:0:0:0:
256,192,24774,1,0,0:0:0:0:
329,192,24774,1,0,0:0:0:0:
475,192,24774,1,0,0:0:0:0:
109,192,24967,1,0,0:0:0:0:
329,192,24967,1,0,0:0:0:0:
256,192,25161,1,0,0:0:0:0:
329,192,25161,1,0,0:0:0:0:
402,192,25161,1,0,0:0:0:0:
475,192,25258,1,0,0:0:0:0:
109,192,25354,1,0,0:0:0:0:
402,192,25354,1,0,0:0:0:0:
329,192,25451,1,0,0:0:0:0:
256,192,25548,1,0,0:0:0:0:
402,192,25548,1,0,0:0:0:0:
475,192,25548,1,0,0:0:0:0:
36,192,25741,1,0,0:0:0:0:
475,192,25741,1,0,0:0:0:0:
182,192,25838,1,0,0:0:0:0:
256,192,25838,1,0,0:0:0:0:
329,192,25838,1,0,0:0:0:0:
109,192,25935,1,0,0:0:0:0:
402,192,25935,1,0,0:0:0:0:
182,192,26032,1,0,0:0:0:0:
36,192,26129,1,0,0:0:0:0:
109,192,26129,1,0,0:0:0:0:
256,192,26129,1,0,0:0:0:0:
402,192,26129,1,0,0:0:0:0:
475,192,26129,1,0,0:0:0:0:
329,192,26225,1,0,0:0:0:0:
36,192,26322,1,0,0:0:0:0:
256,192,26322,1,0,0:0:0:0:
109,192,26516,1,0,0:0:0:0:
475,192,26516,1,0,0:0:0:0:
182,192,26709,1,0,0:0:0:0:
402,192,26709,1,0,0:0:0:0:
256,192,26806,1,0,0:0:0:0:
109,192,26903,1,0,0:0:0:0:
182,192,26903,1,0,0:0:0:0:
329,192,26903,1,0,0:0:0:0:
475,192,26903,1,0,0:0:0:0:
36,192,27000,1,0,0:0:0:0:
256,192,27096,1,0,0:0:0:0:
402,192,27096,1,0,0:0:0:0:
36,192,27290,1,0,0:0:0:0:
256,192,27290,1,0,0:0:0:0:
329,192,27290,1,0,0:0:0:0:
475,192,27290,1,0,0:0:0:0:
109,192,27483,1,0,0:0:0:0:
182,192,27483,1,0,0:0:0:0:
402,192,27483,1,0,0:0:0:0:
475,192,27483,1,0,0:0:0:0:
329,192,27580,1,0,0:0:0:0:
36,192,27677,1,0,0:0:0:0:
109,192,27677,1,0,0:0:0:0:
256,192,27677,1,0,0:0:0:0:
402,192,27677,1,0,0:0:0:0:
182,192,27774,1,0,0:0:0:0:
36,192,27870,1,0,0:0:0:0:
109,192,27870,1,0,0:0:0:0:
256,192,27870,1,0,0:0:0:0:
329,192,27870,1,0,0:0:0:0:
475,192,27870,1,0,0:0:0:0:
402,192,28064,1,0,0:0:0:0:
475,192,28064,1,0,0:0:0:0:
109,192,28258,1,0,0:0:0:0:
182,192,28258,1,0,0:0:0:0:
329,192,28258,1,0,0:0:0:0:
256,192,28354,1,0,0:0:0:0:
182,192,28451,1,0,0:0:0:0:
402,192,28451,1,0,0:0:0:0:
109,192,28548,1,0,0:0:0:0:
36,192,28645,1,0,0:0:0:0:
182,192,28645,1,0,0:0:0:0:
256,192,28645,1,0,0:0:0:0:
475,192,28645,1,0,0:0:0:0:
36,192,28838,1,0,0:0:0:0:
109,192,28838,1,0,0:0:0:0:
182,192,28935,1,0,0:0:0:0:
256,192,28935,1,0,0:0:0:0:
329,192,29032,1,0,0:0:0:0:
402,192,29129,1,0,0:0:0:0:
36,192,29225,1,0,0:0:0:0:
109,192,29225,1,0,0:0:0:0:
256,192,29225,1,0,0:0:0:0:
475,192,29225,1,0,0:0:0:0:
329,192,29322,1,0,0:0:0:0:
36,192,29419,1,0,0:0:0:0:
475,192,29419,1,0,0:0:0:0:
109,192,29612,1,0,0:0:0:0:
182,192,29806,1,0,0:0:0:0:
329,192,29806,1,0,0:0:0:0:
109,192,30000,1,0,0:0:0:0:
402,192,30000,1,0,0:0:0:0:
182,192,30193,1,0,0:0:0:0:
329,192,30193,1,0,0:0:0:0:
475,192,30193,1,0,0:0:0:0:
36,192,30387,1,0,0:0:0:0:
256,192,30387,1,0,0:0:0:0:
402,192,30387,1,0,0:0:0:0:
475,192,30387,1,0,0:0:0:0:
36,192,30580,1,0,0:0:0:0:
182,192,30580,1,0,0:0:0:0:
256,192,30580,1,0,0:0:0:0:
329,192,30580,1,0,0:0:0:0:
109,192,30774,1,0,0:0:0:0:
329,192,30774,1,0,0:0:0:0:
402,192,30774,1,0,0:0:0:0:
36,192,30967,1,0,0:0:0:0:
182,192,30967,1,0,0:0:0:0:
256,192,30967,1,0,0:0:0:0:
475,192,30967,1,0,0:0:0:0:
109,192,31161,1,0,0:0:0:0:
329,192,31258,1,0,0:0:0:0:
475,192,31258,1,0,0:0:0:0:
182,192,31354,1,0,0:0:0:0:
329,192,31548,1,0,0:0:0:0:
402,192,31548,1,0,0:0:0:0:
475,192,31548,1,0,0:0:0:0:
109,192,31741,1,0,0:0:0:0:
182,192,31741,1,0,0:0:0:0:
475,192,31741,1,0,0:0:0:0:
36,192,31935,1,0,0:0:0:0:
329,192,31935,1,0,0:0:0:0:
256,192,32032,1,0,0:0:0:0:
475,192,32032,1,0,0:0:0:0:
182,192,32129,1,0,0:0:0:0:
36,192,32322,1,0,0:0:0:0:
329,192,32322,1,0,0:0:0:0:
402,192,32322,1,0,0:0:0:0:
36,192,32516,1,0,0:0:0:0:
329,192,32516,1,0,0:0:0:0:
109,192,32709,1,0,0:0:0:0:
475,192,32709,1,0,0:0:0:0:
182,192,32903,1,0,0:0:0:0:
402,192,32903,1,0,0:0:0:0:
475,192,33000,1,0,0:0:0:0:
109,192,33096,1,0,0:0:0:0:
402,192,33096,1,0,0:0:0:0:
329,192,33193,1,0,0:0:0:0:
36,192,33290,1,0,0:0:0:0:
329,192,33290,1,0,0:0:0:0:
36,192,33483,1,0,0:0:0:0:
402,192,33483,1,0,0:0:0:0:
182,192,33677,1,0,0:0:0:0:
256,192,33774,1,0,0:0:0:0:
36,192,33870,1,0,0:0:0:0:
182,192,33870,1,0,0:0:0:0:
109,192,33967,1,0,0:0:0:0:
36,192,34064,1,0,0:0:0:0:
256,192,34064,1,0,0:0:0:0:
329,192,34064,1,0,0:0:0:0:
402,192,34064,1,0,0:0:0:0:
475,192,34064,1,0,0:0:0:0:
402,192,34258,1,0,0:0:0:0:
109,192,34451,1,0,0:0:0:0:
182,192,34451,1,0,0:0:0:0:
329,192,34451,1,0,0:0:0:0:
475,192,34451,1,0,0:0:0:0:
256,192,34548,1,0,0:0:0:0:
182,192,34645,1,0,0:0:0:0:
36,192,34741,1,0,0:0:0:0:
109,192,34838,1,0,0:0:0:0:
256,192,34838,1,0,0:0:0:0:
329,192,34838,1,0,0:0:0:0:
402,192,34838,1,0,0:0:0:0:
475,192,34935,1,0,0:0:0:0:
36,192,35032,1,0,0:0:0:0:
402,192,35032,1,0,0:0:0:0:
109,192,35129,1,0,0:0:0:0:
182,192,35129,1,0,0:0:0:0:
329,192,35129,1,0,0:0:0:0:
475,192,35129,1,0,0:0:0:0:
256,192,35225,1,0,0:0:0:0:
36,192,35419,1,0,0:0:0:0:
182,192,35419,1,0,0:0:0:0:
329,192,35419,1,0,0:0:0:0:
475,192,35419,1,0,0:0:0:0:
402,192,35516,1,0,0:0:0:0:
36,192,35612,1,0,0:0:0:0:
256,192,35612,1,0,0:0:0:0:
329,192,35806,1,0,0:0:0:0:
256,192,36000,1,0,0:0:0:0:
329,192,36096,1,0,0:0:0:0:
182,192,36193,1,0,0:0:0:0:
109,192,36290,1,0,0:0:0:0:
109,192,36387,1,0,0:0:0:0:
36,192,36580,1,0,0:0:0:0:
329,192,36580,1,0,0:0:0:0:
402,192,36580,1,0,0:0:0:0:
475,192,36580,1,0,0:0:0:0:
182,192,36774,1,0,0:0:0:0:
256,192,36774,1,0,0:0:0:0:
329,192,36774,1,0,0:0:0:0:
402,192,36774,1,0,0:0:0:0:
475,192,36870,1,0,0:0:0:0:
36,192,36967,1,0,0:0:0:0:
109,192,36967,1,0,0:0:0:0:
182,192,36967,1,0,0:0:0:0:
329,192,36967,1,0,0:0:0:0:
402,192,37064,1,0,0:0:0:0:
36,192,37161,1,0,0:0:0:0:
182,192,37161,1,0,0:0:0:0:
256,192,37161,1,0,0:0:0:0:
329,192,37161,1,0,0:0:0:0:
475,192,37161,1,0,0:0:0:0:
182,192,37354,1,0,0:0:0:0:
402,192,37354,1,0,0:0:0:0:
109,192,37548,1,0,0:0:0:0:
182,192,37548,1,0,0:0:0:0:
256,192,37548,1,0,0:0:0:0:
402,192,37548,1,0,0:0:0:0:
475,192,37548,1,0,0:0:0:0:
329,192,37645,1,0,0:0:0:0:
109,192,37741,1,0,0:0:0:0:
402,192,37741,1,0,0:0:0:0:
182,192,37838,1,0,0:0:0:0:
36,192,37935,1,0,0:0:0:0:
109,192,37935,1,0,0:0:0:0:
256,192,37935,1,0,0:0:0:0:
329,192,37935,1,0,0:0:0:0:
475,192,37935,1,0,0:0:0:0:
36,192,38129,1,0,0:0:0:0:
329,192,38129,1,0,0:0:0:0:
109,192,38225,1,0,0:0:0:0:
402,192,38225,1,0,0:0:0:0:
475,192,38225,1,0,0:0:0:0:
182,192,38322,1,0,0:0:0:0:
256,192,38322,1,0,0:0:0:0:
402,192,38419,1,0,0:0:0:0:
36,192,38516,1,0,0:0:0:0:
109,192,38516,1,0,0:0:0:0:
182,192,38516,1,0,0:0:0:0:
256,192,38516,1,0,0:0:0:0:
329,192,38516,1,0,0:0:0:0:
475,192,38516,1,0,0:0:0:0:
402,192,38612,1,0,0:0:0:0:
36,192,38709,1,0,0:0:0:0:
329,192,38709,1,0,0:0:0:0:
109,192,38903,1,0,0:0:0:0:
475,192,38903,1,0,0:0:0:0:
182,192,39096,1,0,0:0:0:0:
256,192,39096,1,0,0:0:0:0:
402,192,39193,1,0,0:0:0:0:
36,192,39290,1,0,0:0:0:0:
109,192,39290,1,0,0:0:0:0:
182,192,39290,1,0,0:0:0:0:
329,192,39290,1,0,0:0:0:0:
475,192,39290,1,0,0:0:0:0:
256,192,39387,1,0,0:0:0:0:
109,192,39483,1,0,0:0:0:0:
182,192,39483,1,0,0:0:0:0:
36,192,39677,1,0,0:0:0:0:
182,192,39677,1,0,0:0:0:0:
329,192,39677,1,0,0:0:0:0:
475,192,39677,1,0,0:0:0:0:
109,192,39870,1,0,0:0:0:0:
182,192,39870,1,0,0:0:0:0:
256,192,39870,1,0,0:0:0:0:
402,192,39870,1,0,0:0:0:0:
36,192,40064,1,0,0:0:0:0:
182,192,40064,1,0,0:0:0:0:
329,192,40064,1,0,0:0:0:0:
402,192,40064,1,0,0:0:0:0:
475,192,40064,1,0,0:0:0:0:
36,192,40258,1,0,0:0:0:0:
256,192,40258,1,0,0:0:0:0:
329,192,40258,1,0,0:0:0:0:
475,192,40258,1,0,0:0:0:0:
109,192,40451,1,0,0:0:0:0:
182,192,40645,1,0,0:0:0:0:
256,192,40645,1,0,0:0:0:0:
329,192,40645,1,0,0:0:0:0:
402,192,40645,1,0,0:0:0:0:
109,192,40838,1,0,0:0:0:0:
36,192,41032,1,0,0:0:0:0:
109,192,41032,1,0,0:0:0:0:
256,192,41032,1,0,0:0:0:0:
475,192,41032,1,0,0:0:0:0:
36,192,41225,1,0,0:0:0:0:
109,192,41322,1,0,0:0:0:0:
329,192,41322,1,0,0:0:0:0:
402,192,41322,1,0,0:0:0:0:
182,192,41419,1,0,0:0:0:0:
36,192,41612,1,0,0:0:0:0:
109,192,41612,1,0,0:0:0:0:
256,192,41612,1,0,0:0:0:0:
329,192,41612,1,0,0:0:0:0:
475,192,41612,1,0,0:0:0:0:
36,192,41806,1,0,0:0:0:0:
329,192,41806,1,0,0:0:0:0:
109,192,42000,1,0,0:0:0:0:
475,192,42000,1,0,0:0:0:0:
182,192,42193,1,0,0:0:0:0:
402,192,42193,1,0,0:0:0:0:
475,192,42290,1,0,0:0:0:0:
109,192,42387,1,0,0:0:0:0:
256,192,42387,1,0,0:0:0:0:
329,192,42387,1,0,0:0:0:0:
402,192,42387,1,0,0:0:0:0:
36,192,42483,1,0,0:0:0:0:
109,192,42580,1,0,0:0:0:0:
182,192,42580,1,0,0:0:0:0:
36,192,42774,1,0,0:0:0:0:
256,192,42774,1,0,0:0:0:0:
329,192,42774,1,0,0:0:0:0:
402,192,42774,1,0,0:0:0:0:
182,192,42967,1,0,0:0:0:0:
256,192,42967,1,0,0:0:0:0:
402,192,42967,1,0,0:0:0:0:
475,192,42967,1,0,0:0:0:0:
36,192,43161,1,0,0:0:0:0:
182,192,43161,1,0,0:0:0:0:
329,192,43161,1,0,0:0:0:0:
475,192,43161,1,0,0:0:0:0:
36,192,43354,1,0,0:0:0:0:
182,192,43354,1,0,0:0:0:0:
329,192,43354,1,0,0:0:0:0:
402,192,43354,1,0,0:0:0:0:
109,192,43548,1,0,0:0:0:0:
256,192,43645,1,0,0:0:0:0:
329,192,43645,1,0,0:0:0:0:
475,192,43645,1,0,0:0:0:0:
182,192,43741,1,0,0:0:0:0:
109,192,43935,1,0,0:0:0:0:
182,192,43935,1,0,0:0:0:0:
329,192,43935,1,0,0:0:0:0:
402,192,43935,1,0,0:0:0:0:
109,192,44129,1,0,0:0:0:0:
182,192,44129,1,0,0:0:0:0:
256,192,44129,1,0,0:0:0:0:
402,192,44129,1,0,0:0:0:0:
36,192,44322,1,0,0:0:0:0:
109,192,44419,1,0,0:0:0:0:
256,192,44419,1,0,0:0:0:0:
329,192,44419,1,0,0:0:0:0:
182,192,44516,1,0,0:0:0:0:
36,192,44709,1,0,0:0:0:0:
109,192,44709,1,0,0:0:0:0:
256,192,44709,1,0,0:0:0:0:
329,192,44709,1,0,0:0:0:0:
402,192,44709,1,0,0:0:0:0:
36,192,44903,1,0,0:0:0:0:
182,192,44903,1,0,0:0:0:0:
475,192,44903,1,0,0:0:0:0:
109,192,45096,1,0,0:0:0:0:
329,192,45096,1,0,0:0:0:0:
402,192,45096,1,0,0:0:0:0:
182,192,45290,1,0,0:0:0:0:
475,192,45290,1,0,0:0:0:0:
256,192,45387,1,0,0:0:0:0:
109,192,45483,1,0,0:0:0:0:
329,192,45483,1,0,0:0:0:0:
475,192,45483,1,0,0:0:0:0:
182,192,45580,1,0,0:0:0:0:
36,192,45677,1,0,0:0:0:0:
402,192,45677,1,0,0:0:0:0:
36,192,45870,1,0,0:0:0:0:
256,192,45870,1,0,0:0:0:0:
329,192,45870,1,0,0:0:0:0:
475,192,45870,1,0,0:0:0:0:
182,192,46064,1,0,0:0:0:0:
256,192,46064,1,0,0:0:0:0:
329,192,46161,1,0,0:0:0:0:
36,192,46258,1,0,0:0:0:0:
256,192,46258,1,0,0:0:0:0:
402,192,46258,1,0,0:0:0:0:
475,192,46354,1,0,0:0:0:0:
109,192,48774,1,0,0:0:0:0:
329,192,48774,1,0,0:0:0:0:
475,192,48774,1,0,0:0:0:0:
256,192,48870,1,0,0:0:0:0:
402,192,48967,1,0,0:0:0:0:
182,192,49064,1,0,0:0:0:0:
256,192,49161,1,0,0:0:0:0:
329,192,49161,1,0,0:0:0:0:
475,192,49161,1,0,0:0:0:0:
182,192,49258,1,0,0:0:0:0:
329,192,49354,1,0,0:0:0:0:
109,192,49451,1,0,0:0:0:0:
36,192,49548,1,0,0:0:0:0:
256,192,49548,1,0,0:0:0:0:
402,192,49548,1,0,0:0:0:0:
475,192,49548,1,0,0:0:0:0:
109,192,49741,1,0,0:0:0:0:
182,192,49741,1,0,0:0:0:0:
256,192,49741,1,0,0:0:0:0:
182,192,49935,1,0,0:0:0:0:
256,192,49935,1,0,0:0:0:0:
329,192,49935,1,0,0:0:0:0:
36,192,50032,1,0,0:0:0:0:
402,192,50032,1,0,0:0:0:0:
109,192,50129,1,0,0:0:0:0:
475,192,50129,1,0,0:0:0:0:
402,192,50225,1,0,0:0:0:0:
109,192,50322,1,0,0:0:0:0:
182,192,50322,1,0,0:0:0:0:
256,192,50322,1,0,0:0:0:0:
329,192,50322,1,0,0:0:0:0:
475,192,50322,1,0,0:0:0:0:
402,192,50419,1,0,0:0:0:0:
36,192,50516,1,0,0:0:0:0:
182,192,50709,1,0,0:0:0:0:
256,192,50709,1,0,0:0:0:0:
402,192,50709,1,0,0:0:0:0:
475,192,50709,1,0,0:0:0:0:
329,192,50806,1,0,0:0:0:0:
36,192,50903,1,0,0:0:0:0:
402,192,50903,1,0,0:0:0:0:
109,192,51000,1,0,0:0:0:0:
475,192,51000,1,0,0:0:0:0:
36,192,51096,1,0,0:0:0:0:
182,192,51096,1,0,0:0:0:0:
256,192,51096,1,0,0:0:0:0:
329,192,51096,1,0,0:0:0:0:
256,192,51290,1,0,0:0:0:0:
402,192,51290,1,0,0:0:0:0:
109,192,51483,1,0,0:0:0:0:
329,192,51483,1,0,0:0:0:0:
329,192,51677,1,0,0:0:0:0:
402,192,51677,1,0,0:0:0:0:
36,192,51870,1,0,0:0:0:0:
182,192,51870,1,0,0:0:0:0:
256,192,51870,1,0,0:0:0:0:
402,192,51870,1,0,0:0:0:0:
329,192,51967,1,0,0:0:0:0:
475,192,52064,1,0,0:0:0:0:
36,192,52258,1,0,0:0:0:0:
109,192,52258,1,0,0:0:0:0:
182,192,52258,1,0,0:0:0:0:
329,192,52258,1,0,0:0:0:0:
475,192,52354,1,0,0:0:0:0:
36,192,52451,1,0,0:0:0:0:
256,192,52451,1,0,0:0:0:0:
329,192,52548,1,0,0:0:0:0:
109,192,52645,1,0,0:0:0:0:
256,192,52645,1,0,0:0:0:0:
402,192,52645,1,0,0:0:0:0:
475,192,52645,1,0,0:0:0:0:
36,192,52838,1,0,0:0:0:0:
256,192,52838,1,0,0:0:0:0:
402,192,52838,1,0,0:0:0:0:
109,192,53032,1,0,0:0:0:0:
182,192,53032,1,0,0:0:0:0:
329,192,53032,1,0,0:0:0:0:
256,192,53129,1,0,0:0:0:0:
475,192,53129,1,0,0:0:0:0:
182,192,53225,1,0,0:0:0:0:
402,192,53225,1,0,0:0:0:0:
36,192,53322,1,0,0:0:0:0:
109,192,53419,1,0,0:0:0:0:
256,192,53419,1,0,0:0:0:0:
402,192,53419,1,0,0:0:0:0:
182,192,53548,1,0,0:0:0:0:
109,192,53612,1,0,0:0:0:0:
475,192,53612,1,0,0:0:0:0:
256,192,53677,1,0,0:0:0:0:
36,192,53806,1,0,0:0:0:0:
402,192,53806,1,0,0:0:0:0:
475,192,53806,1,0,0:0:0:0:
182,192,53903,1,0,0:0:0:0:
256,192,53935,1,0,0:0:0:0:
109,192,54000,1,0,0:0:0:0:
402,192,54000,1,0,0:0:0:0:
256,192,54064,1,0,0:0:0:0:
36,192,54096,1,0,0:0:0:0:
402,192,54096,1,0,0:0:0:0:
109,192,54193,1,0,0:0:0:0:
329,192,54193,1,0,0:0:0:0:
475,192,54193,1,0,0:0:0:0:
182,192,54290,1,0,0:0:0:0:
256,192,54387,1,0,0:0:0:0:
402,192,54387,1,0,0:0:0:0:
182,192,54483,1,0,0:0:0:0:
109,192,54580,1,0,0:0:0:0:
329,192,54580,1,0,0:0:0:0:
182,192,54677,1,0,0:0:0:0:
256,192,54774,1,0,0:0:0:0:
402,192,54774,1,0,0:0:0:0:
109,192,54870,1,0,0:0:0:0:
36,192,54967,1,0,0:0:0:0:
182,192,54967,1,0,0:0:0:0:
329,192,54967,1,0,0:0:0:0:
402,192,54967,1,0,0:0:0:0:
109,192,55064,1,0,0:0:0:0:
256,192,55161,1,0,0:0:0:0:
475,192,55161,1,0,0:0:0:0:
182,192,55258,1,0,0:0:0:0:
109,192,55354,1,0,0:0:0:0:
329,192,55354,1,0,0:0:0:0:
402,192,55354,1,0,0:0:0:0:
475,192,55354,1,0,0:0:0:0:
256,192,55451,1,0,0:0:0:0:
182,192,55548,1,0,0:0:0:0:
329,192,55548,1,0,0:0:0:0:
109,192,55645,1,0,0:0:0:0:
36,192,55741,1,0,0:0:0:0:
256,192,55741,1,0,0:0:0:0:
402,192,55741,1,0,0:0:0:0:
475,192,55741,1,0,0:0:0:0:
109,192,55935,1,0,0:0:0:0:
182,192,55935,1,0,0:0:0:0:
329,192,55935,1,0,0:0:0:0:
182,192,56129,1,0,0:0:0:0:
256,192,56129,1,0,0:0:0:0:
402,192,56129,1,0,0:0:0:0:
475,192,56225,1,0,0:0:0:0:
109,192,56322,1,0,0:0:0:0:
182,192,56322,1,0,0:0:0:0:
329,192,56322,1,0,0:0:0:0:
256,192,56419,1,0,0:0:0:0:
36,192,56516,1,0,0:0:0:0:
109,192,56516,1,0,0:0:0:0:
182,192,56516,1,0,0:0:0:0:
402,192,56516,1,0,0:0:0:0:
475,192,56516,1,0,0:0:0:0:
329,192,56612,1,0,0:0:0:0:
36,192,56709,1,0,0:0:0:0:
256,192,56709,1,0,0:0:0:0:
109,192,56903,1,0,0:0:0:0:
182,192,56903,1,0,0:0:0:0:
256,192,56903,1,0,0:0:0:0:
402,192,56903,1,0,0:0:0:0:
329,192,57000,1,0,0:0:0:0:
109,192,57096,1,0,0:0:0:0:
475,192,57096,1,0,0:0:0:0:
256,192,57193,1,0,0:0:0:0:
402,192,57193,1,0,0:0:0:0:
36,192,57290,1,0,0:0:0:0:
109,192,57290,1,0,0:0:0:0:
329,192,57290,1,0,0:0:0:0:
475,192,57290,1,0,0:0:0:0:
109,192,57483,1,0,0:0:0:0:
256,192,57483,1,0,0:0:0:0:
329,192,57483,1,0,0:0:0:0:
182,192,57677,1,0,0:0:0:0:
329,192,57677,1,0,0:0:0:0:
475,192,57677,1,0,0:0:0:0:
256,192,57774,1,0,0:0:0:0:
109,192,57870,1,0,0:0:0:0:
329,192,57870,1,0,0:0:0:0:
475,192,57870,1,0,0:0:0:0:
256,192,57967,1,0,0:0:0:0:
36,192,58064,1,0,0:0:0:0:
109,192,58064,1,0,0:0:0:0:
329,192,58064,1,0,0:0:0:0:
402,192,58064,1,0,0:0:0:0:
475,192,58064,1,0,0:0:0:0:
256,192,58161,1,0,0:0:0:0:
36,192,58258,1,0,0:0:0:0:
329,192,58258,1,0,0:0:0:0:
182,192,58451,1,0,0:0:0:0:
256,192,58451,1,0,0:0:0:0:
329,192,58451,1,0,0:0:0:0:
402,192,58548,1,0,0:0:0:0:
475,192,58548,1,0,0:0:0:0:
109,192,58645,1,0,0:0:0:0:
182,192,58645,1,0,0:0:0:0:
329,192,58645,1,0,0:0:0:0:
256,192,58741,1,0,0:0:0:0:
475,192,58741,1,0,0:0:0:0:
36,192,58838,1,0,0:0:0:0:
182,192,58838,1,0,0:0:0:0:
329,192,58838,1,0,0:0:0:0:
402,192,58838,1,0,0:0:0:0:
109,192,59032,1,0,0:0:0:0:
329,192,59032,1,0,0:0:0:0:
475,192,59032,1,0,0:0:0:0:
109,192,59225,1,0,0:0:0:0:
182,192,59225,1,0,0:0:0:0:
256,192,59225,1,0,0:0:0:0:
36,192,59322,1,0,0:0:0:0:
329,192,59322,1,0,0:0:0:0:
109,192,59419,1,0,0:0:0:0:
402,192,59419,1,0,0:0:0:0:
329,192,59516,1,0,0:0:0:0:
36,192,59612,1,0,0:0:0:0:
109,192,59612,1,0,0:0:0:0:
475,192,59612,1,0,0:0:0:0:
182,192,59741,1,0,0:0:0:0:
36,192,59806,1,0,0:0:0:0:
475,192,59806,1,0,0:0:0:0:
329,192,59870,1,0,0:0:0:0:
256,192,60000,1,0,0:0:0:0:
402,192,60000,1,0,0:0:0:0:
475,192,60000,1,0,0:0:0:0:
329,192,60096,1,0,0:0:0:0:
182,192,60129,1,0,0:0:0:0:
36,192,60193,1,0,0:0:0:0:
402,192,60193,1,0,0:0:0:0:
256,192,60258,1,0,0:0:0:0:
109,192,60290,1,0,0:0:0:0:
475,192,60290,1,0,0:0:0:0:
36,192,60387,1,0,0:0:0:0:
182,192,60387,1,0,0:0:0:0:
402,192,60387,1,0,0:0:0:0:
475,192,60483,1,0,0:0:0:0:
109,192,60580,1,0,0:0:0:0:
329,192,60580,1,0,0:0:0:0:
256,192,60677,1,0,0:0:0:0:
182,192,60774,1,0,0:0:0:0:
329,192,60774,1,0,0:0:0:0:
256,192,60870,1,0,0:0:0:0:
402,192,60870,1,0,0:0:0:0:
182,192,60967,1,0,0:0:0:0:
475,192,60967,1,0,0:0:0:0:
36,192,61064,1,0,0:0:0:0:
402,192,61064,1,0,0:0:0:0:
109,192,61161,1,0,0:0:0:0:
182,192,61161,1,0,0:0:0:0:
256,192,61161,1,0,0:0:0:0:
329,192,61161,1,0,0:0:0:0:
475,192,61161,1,0,0:0:0:0:
402,192,61258,1,0,0:0:0:0:
36,192,61354,1,0,0:0:0:0:
256,192,61354,1,0,0:0:0:0:
329,192,61354,1,0,0:0:0:0:
182,192,61451,1,0,0:0:0:0:
475,192,61451,1,0,0:0:0:0:
109,192,61548,1,0,0:0:0:0:
256,192,61548,1,0,0:0:0:0:
329,192,61548,1,0,0:0:0:0:
36,192,61645,1,0,0:0:0:0:
402,192,61645,1,0,0:0:0:0:
182,192,61741,1,0,0:0:0:0:
256,192,61741,1,0,0:0:0:0:
475,192,61741,1,0,0:0:0:0:
109,192,61838,1,0,0:0:0:0:
329,192,61838,1,0,0:0:0:0:
36,192,61935,1,0,0:0:0:0:
182,192,61935,1,0,0:0:0:0:
402,192,61935,1,0,0:0:0:0:
475,192,61935,1,0,0:0:0:0:
256,192,62032,1,0,0:0:0:0:
109,192,62129,1,0,0:0:0:0:
182,192,62129,1,0,0:0:0:0:
329,192,62225,1,0,0:0:0:0:
182,192,62322,1,0,0:0:0:0:
256,192,62322,1,0,0:0:0:0:
109,192,62419,1,0,0:0:0:0:
402,192,62419,1,0,0:0:0:0:
182,192,62516,1,0,0:0:0:0:
475,192,62516,1,0,0:0:0:0:
109,192,62612,1,0,0:0:0:0:
329,192,62612,1,0,0:0:0:0:
36,192,62709,1,0,0:0:0:0:
256,192,62709,1,0,0:0:0:0:
402,192,62709,1,0,0:0:0:0:
475,192,62709,1,0,0:0:0:0:
329,192,62806,1,0,0:0:0:0:
109,192,62903,1,0,0:0:0:0:
256,192,62903,1,0,0:0:0:0:
402,192,62903,1,0,0:0:0:0:
182,192,63000,1,0,0:0:0:0:
36,192,63096,1,0,0:0:0:0:
109,192,63096,1,0,0:0:0:0:
256,192,63096,1,0,0:0:0:0:
475,192,63096,1,0,0:0:0:0:
329,192,63193,1,0,0:0:0:0:
402,192,63193,1,0,0:0:0:0:
36,192,63290,1,0,0:0:0:0:
182,192,63290,1,0,0:0:0:0:
475,192,63290,1,0,0:0:0:0:
329,192,63387,1,0,0:0:0:0:
402,192,63387,1,0,0:0:0:0:
36,192,63483,1,0,0:0:0:0:
109,192,63483,1,0,0:0:0:0:
182,192,63483,1,0,0:0:0:0:
256,192,63483,1,0,0:0:0:0:
475,192,63483,1,0,0:0:0:0:
402,192,63580,1,0,0:0:0:0:
182,192,63677,1,0,0:0:0:0:
256,192,63677,1,0,0:0:0:0:
402,192,63774,1,0,0:0:0:0:
36,192,63870,1,0,0:0:0:0:
329,192,63870,1,0,0:0:0:0:
109,192,63967,1,0,0:0:0:0:
182,192,63967,1,0,0:0:0:0:
256,192,64064,1,0,0:0:0:0:
402,192,64064,1,0,0:0:0:0:
329,192,64161,1,0,0:0:0:0:
475,192,64161,1,0,0:0:0:0:
36,192,64258,1,0,0:0:0:0:
109,192,64258,1,0,0:0:0:0:
182,192,64258,1,0,0:0:0:0:
402,192,64258,1,0,0:0:0:0:
256,192,64354,1,0,0:0:0:0:
36,192,64451,1,0,0:0:0:0:
182,192,64451,1,0,0:0:0:0:
402,192,64451,1,0,0:0:0:0:
475,192,64548,1,0,0:0:0:0:
109,192,64645,1,0,0:0:0:0:
182,192,64645,1,0,0:0:0:0:
329,192,64645,1,0,0:0:0:0:
402,192,64645,1,0,0:0:0:0:
256,192,64741,1,0,0:0:0:0:
36,192,64838,1,0,0:0:0:0:
109,192,64838,1,0,0:0:0:0:
475,192,64838,1,0,0:0:0:0:
256,192,64935,1,0,0:0:0:0:
36,192,65032,1,0,0:0:0:0:
109,192,65032,1,0,0:0:0:0:
182,192,65032,1,0,0:0:0:0:
329,192,65032,1,0,0:0:0:0:
475,192,65032,1,0,0:0:0:0:
402,192,65161,1,0,0:0:0:0:
109,192,65225,1,0,0:0:0:0:
475,192,65225,1,0,0:0:0:0:
256,192,65290,1,0,0:0:0:0:
36,192,65322,1,0,0:0:0:0:
182,192,65419,1,0,0:0:0:0:
475,192,65419,1,0,0:0:0:0:
256,192,65516,1,0,0:0:0:0:
402,192,65548,1,0,0:0:0:0:
109,192,65612,1,0,0:0:0:0:
475,192,65612,1,0,0:0:0:0:
256,192,65677,1,0,0:0:0:0:
329,192,65709,1,0,0:0:0:0:
109,192,65806,1,0,0:0:0:0:
182,192,65806,1,0,0:0:0:0:
402,192,65806,1,0,0:0:0:0:
475,192,65806,1,0,0:0:0:0:
329,192,65903,1,0,0:0:0:0:
36,192,66000,1,0,0:0:0:0:
402,192,66000,1,0,0:0:0:0:
109,192,66193,1,0,0:0:0:0:
182,192,66193,1,0,0:0:0:0:
256,192,66193,1,0,0:0:0:0:
329,192,66193,1,0,0:0:0:0:
475,192,66193,1,0,0:0:0:0:
402,192,66290,1,0,0:0:0:0:
36,192,66387,1,0,0:0:0:0:
109,192,66387,1,0,0:0:0:0:
329,192,66387,1,0,0:0:0:0:
475,192,66387,1,0,0:0:0:0:
256,192,66483,1,0,0:0:0:0:
402,192,66483,1,0,0:0:0:0:
36,192,66580,1,0,0:0:0:0:
109,192,66580,1,0,0:0:0:0:
182,192,66580,1,0,0:0:0:0:
329,192,66580,1,0,0:0:0:0:
475,192,66580,1,0,0:0:0:0:
402,192,66709,1,0,0:0:0:0:
182,192,66774,1,0,0:0:0:0:
329,192,66774,1,0,0:0:0:0:
256,192,66838,1,0,0:0:0:0:
109,192,66967,1,0,0:0:0:0:
182,192,66967,1,0,0:0:0:0:
329,192,66967,1,0,0:0:0:0:
256,192,67064,1,0,0:0:0:0:
402,192,67096,1,0,0:0:0:0:
109,192,67161,1,0,0:0:0:0:
475,192,67161,1,0,0:0:0:0:
256,192,67225,1,0,0:0:0:0:
402,192,67258,1,0,0:0:0:0:
36,192,67354,1,0,0:0:0:0:
109,192,67354,1,0,0:0:0:0:
182,192,67354,1,0,0:0:0:0:
475,192,67354,1,0,0:0:0:0:
329,192,67451,1,0,0:0:0:0:
36,192,67548,1,0,0:0:0:0:
182,192,67548,1,0,0:0:0:0:
475,192,67548,1,0,0:0:0:0:
109,192,67741,1,0,0:0:0:0:
182,192,67741,1,0,0:0:0:0:
256,192,67741,1,0,0:0:0:0:
329,192,67838,1,0,0:0:0:0:
402,192,67838,1,0,0:0:0:0:
36,192,67935,1,0,0:0:0:0:
109,192,67935,1,0,0:0:0:0:
475,192,67935,1,0,0:0:0:0:
402,192,68032,1,0,0:0:0:0:
36,192,68129,1,0,0:0:0:0:
182,192,68129,1,0,0:0:0:0:
256,192,68129,1,0,0:0:0:0:
329,192,68129,1,0,0:0:0:0:
475,192,68129,1,0,0:0:0:0:
109,192,68225,1,0,0:0:0:0:
182,192,68322,1,0,0:0:0:0:
402,192,68322,1,0,0:0:0:0:
109,192,68419,1,0,0:0:0:0:
256,192,68516,1,0,0:0:0:0:
329,192,68516,1,0,0:0:0:0:
109,192,68612,1,0,0:0:0:0:
402,192,68612,1,0,0:0:0:0:
256,192,68709,1,0,0:0:0:0:
475,192,68709,1,0,0:0:0:0:
182,192,68806,1,0,0:0:0:0:
402,192,68806,1,0,0:0:0:0:
36,192,68903,1,0,0:0:0:0:
256,192,68903,1,0,0:0:0:0:
329,192,68903,1,0,0:0:0:0:
475,192,68903,1,0,0:0:0:0:
109,192,69000,1,0,0:0:0:0:
182,192,69096,1,0,0:0:0:0:
256,192,69096,1,0,0:0:0:0:
109,192,69193,1,0,0:0:0:0:
182,192,69290,1,0,0:0:0:0:
256,192,69290,1,0,0:0:0:0:
402,192,69290,1,0,0:0:0:0:
475,192,69290,1,0,0:0:0:0:
36,192,69387,1,0,0:0:0:0:
329,192,69387,1,0,0:0:0:0:
256,192,69483,1,0,0:0:0:0:
475,192,69483,1,0,0:0:0:0:
109,192,69580,1,0,0:0:0:0:
402,192,69580,1,0,0:0:0:0:
36,192,69677,1,0,0:0:0:0:
256,192,69677,1,0,0:0:0:0:
329,192,69677,1,0,0:0:0:0:
475,192,69677,1,0,0:0:0:0:
182,192,69774,1,0,0:0:0:0:
109,192,69870,1,0,0:0:0:0:
329,192,69870,1,0,0:0:0:0:
402,192,69967,1,0,0:0:0:0:
36,192,70064,1,0,0:0:0:0:
182,192,70064,1,0,0:0:0:0:
256,192,70064,1,0,0:0:0:0:
475,192,70064,1,0,0:0:0:0:
109,192,70161,1,0,0:0:0:0:
329,192,70161,1,0,0:0:0:0:
182,192,70258,1,0,0:0:0:0:
475,192,70258,1,0,0:0:0:0:
256,192,70354,1,0,0:0:0:0:
329,192,70354,1,0,0:0:0:0:
36,192,70451,1,0,0:0:0:0:
182,192,70451,1,0,0:0:0:0:
402,192,70451,1,0,0:0:0:0:
475,192,70451,1,0,0:0:0:0:
256,192,70548,1,0,0:0:0:0:
109,192,70645,1,0,0:0:0:0:
402,192,70645,1,0,0:0:0:0:
475,192,70741,1,0,0:0:0:0:
109,192,70838,1,0,0:0:0:0:
182,192,70838,1,0,0:0:0:0:
256,192,70838,1,0,0:0:0:0:
402,192,70838,1,0,0:0:0:0:
329,192,70935,1,0,0:0:0:0:
109,192,71032,1,0,0:0:0:0:
256,192,71032,1,0,0:0:0:0:
475,192,71032,1,0,0:0:0:0:
402,192,71129,1,0,0:0:0:0:
36,192,71225,1,0,0:0:0:0:
329,192,71225,1,0,0:0:0:0:
475,192,71225,1,0,0:0:0:0:
109,192,71419,1,0,0:0:0:0:
329,192,71419,1,0,0:0:0:0:
402,192,71419,1,0,0:0:0:0:
182,192,71612,1,0,0:0:0:0:
256,192,71612,1,0,0:0:0:0:
329,192,71709,1,0,0:0:0:0:
109,192,71806,1,0,0:0:0:0:
256,192,71806,1,0,0:0:0:0:
402,192,71806,1,0,0:0:0:0:
475,192,71903,1,0,0:0:0:0:
256,192,72000,1,0,0:0:0:0:
329,192,72000,1,0,0:0:0:0:
36,192,72193,1,0,0:0:0:0:
329,192,72193,1,0,0:0:0:0:
402,192,72193,1,0,0:0:0:0:
475,192,72193,1,0,0:0:0:0:
182,192,72387,1,0,0:0:0:0:
256,192,72387,1,0,0:0:0:0:
402,192,72483,1,0,0:0:0:0:
36,192,72580,1,0,0:0:0:0:
109,192,72580,1,0,0:0:0:0:
329,192,72580,1,0,0:0:0:0:
475,192,72580,1,0,0:0:0:0:
256,192,72677,1,0,0:0:0:0:
402,192,72677,1,0,0:0:0:0:
36,192,72774,1,0,0:0:0:0:
329,192,72774,1,0,0:0:0:0:
475,192,72774,1,0,0:0:0:0:
109,192,72967,1,0,0:0:0:0:
329,192,72967,1,0,0:0:0:0:
402,192,72967,1,0,0:0:0:0:
182,192,73161,1,0,0:0:0:0:
256,192,73161,1,0,0:0:0:0:
402,192,73258,1,0,0:0:0:0:
109,192,73354,1,0,0:0:0:0:
329,192,73354,1,0,0:0:0:0:
475,192,73354,1,0,0:0:0:0:
256,192,73451,1,0,0:0:0:0:
36,192,73548,1,0,0:0:0:0:
182,192,73548,1,0,0:0:0:0:
475,192,73548,1,0,0:0:0:0:
402,192,73645,1,0,0:0:0:0:
36,192,73741,1,0,0:0:0:0:
109,192,73741,1,0,0:0:0:0:
256,192,73741,1,0,0:0:0:0:
329,192,73741,1,0,0:0:0:0:
475,192,73741,1,0,0:0:0:0:
182,192,73838,1,0,0:0:0:0:
109,192,73935,1,0,0:0:0:0:
329,192,73935,1,0,0:0:0:0:
402,192,73935,1,0,0:0:0:0:
36,192,74032,1,0,0:0:0:0:
256,192,74032,1,0,0:0:0:0:
109,192,74129,1,0,0:0:0:0:
182,192,74129,1,0,0:0:0:0:
329,192,74129,1,0,0:0:0:0:
402,192,74129,1,0,0:0:0:0:
475,192,74129,1,0,0:0:0:0:
36,192,74225,1,0,0:0:0:0:
256,192,74225,1,0,0:0:0:0:
109,192,74322,1,0,0:0:0:0:
182,192,74322,1,0,0:0:0:0:
329,192,74322,1,0,0:0:0:0:
402,192,74322,1,0,0:0:0:0:
475,192,74322,1,0,0:0:0:0:
256,192,74419,1,0,0:0:0:0:
36,192,74516,1,0,0:0:0:0:
109,192,74516,1,0,0:0:0:0:
329,192,74516,1,0,0:0:0:0:
402,192,74516,1,0,0:0:0:0:
475,192,74516,1,0,0:0:0:0:
256,192,74612,1,0,0:0:0:0:
109,192,74709,1,0,0:0:0:0:
182,192,74709,1,0,0:0:0:0:
402,192,74709,1,0,0:0:0:0:
475,192,74709,1,0,0:0:0:0:
36,192,74806,1,0,0:0:0:0:
256,192,74806,1,0,0:0:0:0:
109,192,74903,1,0,0:0:0:0:
329,192,74903,1,0,0:0:0:0:
475,192,74903,1,0,0:0:0:0:
182,192,75000,1,0,0:0:0:0:
256,192,75000,1,0,0:0:0:0:
402,192,75000,1,0,0:0:0:0:
36,192,75096,1,0,0:0:0:0:
109,192,75096,1,0,0:0:0:0:
329,192,75096,1,0,0:0:0:0:
402,192,75193,1,0,0:0:0:0:
36,192,75290,1,0,0:0:0:0:
109,192,75290,1,0,0:0:0:0:
256,192,75290,1,0,0:0:0:0:
329,192,75290,1,0,0:0:0:0:
475,192,75290,1,0,0:0:0:0:
402,192,75387,1,0,0:0:0:0:
36,192,75483,1,0,0:0:0:0:
182,192,75483,1,0,0:0:0:0:
475,192,75483,1,0,0:0:0:0:
256,192,75532,1,0,0:0:0:0:
109,192,75580,1,0,0:0:0:0:
402,192,75580,1,0,0:0:0:0:
36,192,75677,1,0,0:0:0:0:
256,192,75677,1,0,0:0:0:0:
329,192,75677,1,0,0:0:0:0:
475,192,75677,1,0,0:0:0:0:
109,192,75774,1,0,0:0:0:0:
182,192,75774,1,0,0:0:0:0:
36,192,75870,1,0,0:0:0:0:
256,192,75870,1,0,0:0:0:0:
329,192,75870,1,0,0:0:0:0:
402,192,75967,1,0,0:0:0:0:
36,192,76064,1,0,0:0:0:0:
109,192,76064,1,0,0:0:0:0:
329,192,76064,1,0,0:0:0:0:
475,192,76064,1,0,0:0:0:0:
256,192,76161,1,0,0:0:0:0:
402,192,76161,1,0,0:0:0:0:
109,192,76258,1,0,0:0:0:0:
182,192,76258,1,0,0:0:0:0:
329,192,76258,1,0,0:0:0:0:
36,192,76354,1,0,0:0:0:0:
402,192,76354,1,0,0:0:0:0:
109,192,76451,1,0,0:0:0:0:
256,192,76451,1,0,0:0:0:0:
329,192,76451,1,0,0:0:0:0:
475,192,76451,1,0,0:0:0:0:
182,192,76548,1,0,0:0:0:0:
36,192,76645,1,0,0:0:0:0:
109,192,76645,1,0,0:0:0:0:
475,192,76645,1,0,0:0:0:0:
402,192,76693,1,0,0:0:0:0:
256,192,76741,1,0,0:0:0:0:
329,192,76741,1,0,0:0:0:0:
36,192,76838,1,0,0:0:0:0:
109,192,76838,1,0,0:0:0:0:
182,192,76838,1,0,0:0:0:0:
475,192,76838,1,0,0:0:0:0:
329,192,76935,1,0,0:0:0:0:
109,192,77032,1,0,0:0:0:0:
182,192,77032,1,0,0:0:0:0:
256,192,77032,1,0,0:0:0:0:
402,192,77032,1,0,0:0:0:0:
329,192,77129,1,0,0:0:0:0:
109,192,77225,1,0,0:0:0:0:
256,192,77225,1,0,0:0:0:0:
402,192,77225,1,0,0:0:0:0:
475,192,77225,1,0,0:0:0:0:
182,192,77322,1,0,0:0:0:0:
329,192,77322,1,0,0:0:0:0:
36,192,77419,1,0,0:0:0:0:
109,192,77419,1,0,0:0:0:0:
256,192,77419,1,0,0:0:0:0:
475,192,77419,1,0,0:0:0:0:
329,192,77516,1,0,0:0:0:0:
182,192,77548,1,0,0:0:0:0:
109,192,77612,1,0,0:0:0:0:
402,192,77612,1,0,0:0:0:0:
36,192,77677,1,0,0:0:0:0:
475,192,77709,1,0,0:0:0:0:
182,192,77806,1,0,0:0:0:0:
329,192,77806,1,0,0:0:0:0:
402,192,77806,1,0,0:0:0:0:
109,192,77935,1,0,0:0:0:0:
36,192,78000,1,0,0:0:0:0:
256,192,78000,1,0,0:0:0:0:
475,192,78000,1,0,0:0:0:0:
402,192,78048,1,0,0:0:0:0:
182,192,78064,1,0,0:0:0:0:
329,192,78096,1,0,0:0:0:0:
36,192,78193,1,0,0:0:0:0:
256,192,78193,1,0,0:0:0:0:
329,192,78290,1,0,0:0:0:0:
475,192,78290,1,0,0:0:0:0:
36,192,78387,1,0,0:0:0:0:
109,192,78387,1,0,0:0:0:0:
256,192,78387,1,0,0:0:0:0:
402,192,78387,1,0,0:0:0:0:
109,192,78580,1,0,0:0:0:0:
182,192,78580,1,0,0:0:0:0:
329,192,78580,1,0,0:0:0:0:
256,192,78677,1,0,0:0:0:0:
402,192,78677,1,0,0:0:0:0:
36,192,78774,1,0,0:0:0:0:
109,192,78774,1,0,0:0:0:0:
182,192,78774,1,0,0:0:0:0:
329,192,78774,1,0,0:0:0:0:
475,192,78774,1,0,0:0:0:0:
256,192,78870,1,0,0:0:0:0:
36,192,78967,1,0,0:0:0:0:
182,192,78967,1,0,0:0:0:0:
402,192,78967,1,0,0:0:0:0:
475,192,78967,1,0,0:0:0:0:
329,192,79064,1,0,0:0:0:0:
402,192,79096,1,0,0:0:0:0:
36,192,79161,1,0,0:0:0:0:
109,192,79161,1,0,0:0:0:0:
182,192,79161,1,0,0:0:0:0:
475,192,79161,1,0,0:0:0:0:
256,192,79225,1,0,0:0:0:0:
36,192,79354,1,0,0:0:0:0:
109,192,79354,1,0,0:0:0:0:
182,192,79354,1,0,0:0:0:0:
329,192,79354,1,0,0:0:0:0:
402,192,79451,1,0,0:0:0:0:
182,192,79483,1,0,0:0:0:0:
36,192,79548,1,0,0:0:0:0:
256,192,79548,1,0,0:0:0:0:
329,192,79548,1,0,0:0:0:0:
475,192,79548,1,0,0:0:0:0:
109,192,79612,1,0,0:0:0:0:
182,192,79645,1,0,0:0:0:0:
402,192,79645,1,0,0:0:0:0:
36,192,79741,1,0,0:0:0:0:
109,192,79741,1,0,0:0:0:0:
256,192,79741,1,0,0:0:0:0:
329,192,79790,1,0,0:0:0:0:
182,192,79838,1,0,0:0:0:0:
402,192,79838,1,0,0:0:0:0:
36,192,79935,1,0,0:0:0:0:
109,192,79935,1,0,0:0:0:0:
256,192,79935,1,0,0:0:0:0:
329,192,79935,1,0,0:0:0:0:
475,192,79935,1,0,0:0:0:0:
402,192,80032,1,0,0:0:0:0:
36,192,80129,1,0,0:0:0:0:
256,192,80129,1,0,0:0:0:0:
475,192,80129,1,0,0:0:0:0:
109,192,80225,1,0,0:0:0:0:
329,192,80225,1,0,0:0:0:0:
182,192,80322,1,0,0:0:0:0:
256,192,80322,1,0,0:0:0:0:
402,192,80322,1,0,0:0:0:0:
475,192,80322,1,0,0:0:0:0:
109,192,80419,1,0,0:0:0:0:
329,192,80419,1,0,0:0:0:0:
36,192,80516,1,0,0:0:0:0:
256,192,80516,1,0,0:0:0:0:
402,192,80516,1,0,0:0:0:0:
475,192,80516,1,0,0:0:0:0:
109,192,80612,1,0,0:0:0:0:
36,192,80709,1,0,0:0:0:0:
182,192,80709,1,0,0:0:0:0:
329,192,80709,1,0,0:0:0:0:
475,192,80709,1,0,0:0:0:0:
402,192,80806,1,0,0:0:0:0:
109,192,80903,1,0,0:0:0:0:
182,192,80903,1,0,0:0:0:0:
475,192,80903,1,0,0:0:0:0:
256,192,81000,1,0,0:0:0:0:
36,192,81096,1,0,0:0:0:0:
182,192,81096,1,0,0:0:0:0:
402,192,81096,1,0,0:0:0:0:
475,192,81096,1,0,0:0:0:0:
109,192,81193,1,0,0:0:0:0:
329,192,81193,1,0,0:0:0:0:
36,192,81290,1,0,0:0:0:0:
182,192,81290,1,0,0:0:0:0:
256,192,81290,1,0,0:0:0:0:
402,192,81387,1,0,0:0:0:0:
36,192,81483,1,0,0:0:0:0:
256,192,81483,1,0,0:0:0:0:
329,192,81483,1,0,0:0:0:0:
475,192,81483,1,0,0:0:0:0:
109,192,81677,1,0,0:0:0:0:
182,192,81677,1,0,0:0:0:0:
329,192,81677,1,0,0:0:0:0:
402,192,81725,1,0,0:0:0:0:
256,192,81774,1,0,0:0:0:0:
475,192,81774,1,0,0:0:0:0:
36,192,81870,1,0,0:0:0:0:
182,192,81870,1,0,0:0:0:0:
329,192,81870,1,0,0:0:0:0:
402,192,81870,1,0,0:0:0:0:
109,192,81967,1,0,0:0:0:0:
256,192,81967,1,0,0:0:0:0:
36,192,82064,1,0,0:0:0:0:
182,192,82064,1,0,0:0:0:0:
329,192,82064,1,0,0:0:0:0:
402,192,82064,1,0,0:0:0:0:
36,192,82258,1,0,0:0:0:0:
256,192,82258,1,0,0:0:0:0:
329,192,82258,1,0,0:0:0:0:
402,192,82258,1,0,0:0:0:0:
109,192,82354,1,0,0:0:0:0:
36,192,82451,1,0,0:0:0:0:
182,192,82451,1,0,0:0:0:0:
256,192,82451,1,0,0:0:0:0:
329,192,82548,1,0,0:0:0:0:
402,192,82548,1,0,0:0:0:0:
36,192,82645,1,0,0:0:0:0:
182,192,82645,1,0,0:0:0:0:
475,192,82645,1,0,0:0:0:0:
402,192,82741,1,0,0:0:0:0:
36,192,82838,1,0,0:0:0:0:
109,192,82838,1,0,0:0:0:0:
256,192,82838,1,0,0:0:0:0:
475,192,82838,1,0,0:0:0:0:
402,192,82887,1,0,0:0:0:0:
182,192,82935,1,0,0:0:0:0:
329,192,82935,1,0,0:0:0:0:
36,192,83032,1,0,0:0:0:0:
256,192,83032,1,0,0:0:0:0:
402,192,83032,1,0,0:0:0:0:
475,192,83032,1,0,0:0:0:0:
329,192,83129,1,0,0:0:0:0:
36,192,83225,1,0,0:0:0:0:
109,192,83225,1,0,0:0:0:0:
182,192,83225,1,0,0:0:0:0:
256,192,83225,1,0,0:0:0:0:
475,192,83225,1,0,0:0:0:0:
402,192,83322,1,0,0:0:0:0:
109,192,83419,1,0,0:0:0:0:
475,192,83419,1,0,0:0:0:0:
256,192,83516,1,0,0:0:0:0:
329,192,83516,1,0,0:0:0:0:
36,192,83612,1,0,0:0:0:0:
182,192,83612,1,0,0:0:0:0:
402,192,83612,1,0,0:0:0:0:
329,192,83709,1,0,0:0:0:0:
36,192,83806,1,0,0:0:0:0:
256,192,83806,1,0,0:0:0:0:
402,192,83806,1,0,0:0:0:0:
475,192,83806,1,0,0:0:0:0:
109,192,83903,1,0,0:0:0:0:
182,192,84000,1,0,0:0:0:0:
256,192,84000,1,0,0:0:0:0:
402,192,84000,1,0,0:0:0:0:
329,192,84096,1,0,0:0:0:0:
36,192,84193,1,0,0:0:0:0:
109,192,84193,1,0,0:0:0:0:
256,192,84193,1,0,0:0:0:0:
475,192,84193,1,0,0:0:0:0:
329,192,84241,1,0,0:0:0:0:
182,192,84290,1,0,0:0:0:0:
402,192,84290,1,0,0:0:0:0:
109,192,84387,1,0,0:0:0:0:
256,192,84387,1,0,0:0:0:0:
475,192,84387,1,0,0:0:0:0:
329,192,84483,1,0,0:0:0:0:
36,192,84580,1,0,0:0:0:0:
256,192,84580,1,0,0:0:0:0:
402,192,84580,1,0,0:0:0:0:
475,192,84580,1,0,0:0:0:0:
182,192,84774,1,0,0:0:0:0:
329,192,84774,1,0,0:0:0:0:
475,192,84774,1,0,0:0:0:0:
109,192,84870,1,0,0:0:0:0:
402,192,84870,1,0,0:0:0:0:
36,192,84967,1,0,0:0:0:0:
182,192,84967,1,0,0:0:0:0:
329,192,84967,1,0,0:0:0:0:
475,192,84967,1,0,0:0:0:0:
256,192,85064,1,0,0:0:0:0:
36,192,85161,1,0,0:0:0:0:
329,192,85161,1,0,0:0:0:0:
402,192,85161,1,0,0:0:0:0:
475,192,85258,1,0,0:0:0:0:
36,192,85354,1,0,0:0:0:0:
182,192,85354,1,0,0:0:0:0:
256,192,85354,1,0,0:0:0:0:
329,192,85354,1,0,0:0:0:0:
182,192,85548,1,0,0:0:0:0:
256,192,85548,1,0,0:0:0:0:
402,192,85548,1,0,0:0:0:0:
329,192,85645,1,0,0:0:0:0:
36,192,85741,1,0,0:0:0:0:
109,192,85741,1,0,0:0:0:0:
256,192,85741,1,0,0:0:0:0:
402,192,85741,1,0,0:0:0:0:
182,192,85838,1,0,0:0:0:0:
475,192,85838,1,0,0:0:0:0:
36,192,85935,1,0,0:0:0:0:
256,192,85935,1,0,0:0:0:0:
329,192,85935,1,0,0:0:0:0:
402,192,85983,1,0,0:0:0:0:
475,192,86032,1,0,0:0:0:0:
36,192,86129,1,0,0:0:0:0:
109,192,86129,1,0,0:0:0:0:
256,192,86129,1,0,0:0:0:0:
329,192,86129,1,0,0:0:0:0:
402,192,86225,1,0,0:0:0:0:
182,192,86322,1,0,0:0:0:0:
329,192,86322,1,0,0:0:0:0:
475,192,86322,1,0,0:0:0:0:
402,192,86419,1,0,0:0:0:0:
109,192,86516,1,0,0:0:0:0:
256,192,86516,1,0,0:0:0:0:
475,192,86516,1,0,0:0:0:0:
36,192,86612,1,0,0:0:0:0:
329,192,86612,1,0,0:0:0:0:
36,192,87483,1,0,0:0:0:0:
182,192,87483,1,0,0:0:0:0:
109,192,87870,1,0,0:0:0:0:
256,192,87870,1,0,0:0:0:0:
36,192,88258,1,0,0:0:0:0:
329,192,88258,1,0,0:0:0:0:
475,192,88258,1,0,0:0:0:0:
256,192,89032,1,0,0:0:0:0:
402,192,89032,1,0,0:0:0:0:
109,192,89419,1,0,0:0:0:0:
256,192,89419,1,0,0:0:0:0:
36,192,89806,1,0,0:0:0:0:
109,192,89806,1,0,0:0:0:0:
475,192,89806,1,0,0:0:0:0:
329,192,90580,1,0,0:0:0:0:
402,192,90580,1,0,0:0:0:0:
109,192,90967,1,0,0:0:0:0:
256,192,90967,1,0,0:0:0:0:
36,192,91354,1,0,0:0:0:0:
402,192,91354,1,0,0:0:0:0:
475,192,91354,1,0,0:0:0:0:
182,192,93677,1,0,0:0:0:0:
329,192,93677,1,0,0:0:0:0:
256,192,94064,1,0,0:0:0:0:
402,192,94064,1,0,0:0:0:0:
36,192,94451,1,0,0:0:0:0:
329,192,94451,1,0,0:0:0:0:
475,192,94451,1,0,0:0:0:0:
402,192,95225,1,0,0:0:0:0:
475,192,95225,1,0,0:0:0:0:
256,192,95612,1,0,0:0:0:0:
329,192,95612,1,0,0:0:0:0:
36,192,96000,1,0,0:0:0:0:
109,192,96000,1,0,0:0:0:0:
182,192,96000,1,0,0:0:0:0:
329,192,96774,1,0,0:0:0:0:
475,192,96774,1,0,0:0:0:0:
36,192,97548,1,0,0:0:0:0:
256,192,97548,1,0,0:0:0:0:
402,192,97548,1,0,0:0:0:0:
109,192,99870,1,0,0:0:0:0:
256,192,99870,1,0,0:0:0:0:
402,192,99870,1,0,0:0:0:0:
329,192,99967,1,0,0:0:0:0:
475,192,100064,1,0,0:0:0:0:
109,192,100161,1,0,0:0:0:0:
182,192,100258,1,0,0:0:0:0:
256,192,100258,1,0,0:0:0:0:
402,192,100258,1,0,0:0:0:0:
36,192,100354,1,0,0:0:0:0:
329,192,100451,1,0,0:0:0:0:
256,192,100548,1,0,0:0:0:0:
36,192,100645,1,0,0:0:0:0:
182,192,100645,1,0,0:0:0:0:
329,192,100645,1,0,0:0:0:0:
402,192,100645,1,0,0:0:0:0:
475,192,100645,1,0,0:0:0:0:
109,192,100838,1,0,0:0:0:0:
329,192,100838,1,0,0:0:0:0:
36,192,101032,1,0,0:0:0:0:
182,192,101032,1,0,0:0:0:0:
402,192,101032,1,0,0:0:0:0:
109,192,101129,1,0,0:0:0:0:
256,192,101225,1,0,0:0:0:0:
475,192,101225,1,0,0:0:0:0:
182,192,101322,1,0,0:0:0:0:
109,192,101419,1,0,0:0:0:0:
329,192,101419,1,0,0:0:0:0:
402,192,101419,1,0,0:0:0:0:
475,192,101419,1,0,0:0:0:0:
256,192,101516,1,0,0:0:0:0:
36,192,101612,1,0,0:0:0:0:
329,192,101612,1,0,0:0:0:0:
36,192,101806,1,0,0:0:0:0:
109,192,101806,1,0,0:0:0:0:
256,192,101806,1,0,0:0:0:0:
402,192,101806,1,0,0:0:0:0:
475,192,101806,1,0,0:0:0:0:
182,192,101903,1,0,0:0:0:0:
329,192,101903,1,0,0:0:0:0:
36,192,102000,1,0,0:0:0:0:
256,192,102000,1,0,0:0:0:0:
402,192,102000,1,0,0:0:0:0:
109,192,102096,1,0,0:0:0:0:
475,192,102096,1,0,0:0:0:0:
36,192,102193,1,0,0:0:0:0:
182,192,102193,1,0,0:0:0:0:
256,192,102193,1,0,0:0:0:0:
329,192,102193,1,0,0:0:0:0:
402,192,102193,1,0,0:0:0:0:
36,192,102387,1,0,0:0:0:0:
109,192,102387,1,0,0:0:0:0:
402,192,102387,1,0,0:0:0:0:
109,192,102580,1,0,0:0:0:0:
182,192,102580,1,0,0:0:0:0:
329,192,102580,1,0,0:0:0:0:
256,192,102677,1,0,0:0:0:0:
109,192,102774,1,0,0:0:0:0:
402,192,102774,1,0,0:0:0:0:
475,192,102774,1,0,0:0:0:0:
329,192,102870,1,0,0:0:0:0:
36,192,102967,1,0,0:0:0:0:
109,192,102967,1,0,0:0:0:0:
256,192,102967,1,0,0:0:0:0:
402,192,102967,1,0,0:0:0:0:
182,192,103064,1,0,0:0:0:0:
36,192,103161,1,0,0:0:0:0:
256,192,103161,1,0,0:0:0:0:
36,192,103354,1,0,0:0:0:0:
182,192,103354,1,0,0:0:0:0:
256,192,103354,1,0,0:0:0:0:
402,192,103354,1,0,0:0:0:0:
109,192,103451,1,0,0:0:0:0:
475,192,103451,1,0,0:0:0:0:
36,192,103548,1,0,0:0:0:0:
256,192,103548,1,0,0:0:0:0:
329,192,103548,1,0,0:0:0:0:
109,192,103645,1,0,0:0:0:0:
475,192,103645,1,0,0:0:0:0:
36,192,103741,1,0,0:0:0:0:
182,192,103741,1,0,0:0:0:0:
256,192,103741,1,0,0:0:0:0:
329,192,103741,1,0,0:0:0:0:
402,192,103741,1,0,0:0:0:0:
109,192,103935,1,0,0:0:0:0:
329,192,103935,1,0,0:0:0:0:
475,192,103935,1,0,0:0:0:0:
109,192,104129,1,0,0:0:0:0:
182,192,104129,1,0,0:0:0:0:
402,192,104129,1,0,0:0:0:0:
256,192,104225,1,0,0:0:0:0:
475,192,104225,1,0,0:0:0:0:
36,192,104322,1,0,0:0:0:0:
402,192,104322,1,0,0:0:0:0:
256,192,104419,1,0,0:0:0:0:
109,192,104516,1,0,0:0:0:0:
182,192,104516,1,0,0:0:0:0:
475,192,104516,1,0,0:0:0:0:
329,192,104645,1,0,0:0:0:0:
36,192,104709,1,0,0:0:0:0:
109,192,104709,1,0,0:0:0:0:
475,192,104774,1,0,0:0:0:0:
182,192,104903,1,0,0:0:0:0:
256,192,104903,1,0,0:0:0:0:
329,192,104903,1,0,0:0:0:0:
109,192,105000,1,0,0:0:0:0:
402,192,105032,1,0,0:0:0:0:
36,192,105096,1,0,0:0:0:0:
256,192,105096,1,0,0:0:0:0:
475,192,105096,1,0,0:0:0:0:
329,192,105161,1,0,0:0:0:0:
182,192,105193,1,0,0:0:0:0:
36,192,105290,1,0,0:0:0:0:
256,192,105290,1,0,0:0:0:0:
402,192,105290,1,0,0:0:0:0:
475,192,105387,1,0,0:0:0:0:
109,192,105483,1,0,0:0:0:0:
256,192,105483,1,0,0:0:0:0:
329,192,105483,1,0,0:0:0:0:
402,192,105580,1,0,0:0:0:0:
182,192,105677,1,0,0:0:0:0:
256,192,105677,1,0,0:0:0:0:
329,192,105677,1,0,0:0:0:0:
109,192,105774,1,0,0:0:0:0:
475,192,105774,1,0,0:0:0:0:
36,192,105870,1,0,0:0:0:0:
182,192,105870,1,0,0:0:0:0:
402,192,105870,1,0,0:0:0:0:
329,192,105967,1,0,0:0:0:0:
475,192,105967,1,0,0:0:0:0:
36,192,106064,1,0,0:0:0:0:
109,192,106064,1,0,0:0:0:0:
182,192,106064,1,0,0:0:0:0:
256,192,106064,1,0,0:0:0:0:
402,192,106064,1,0,0:0:0:0:
475,192,106161,1,0,0:0:0:0:
36,192,106258,1,0,0:0:0:0:
256,192,106258,1,0,0:0:0:0:
329,192,106258,1,0,0:0:0:0:
182,192,106354,1,0,0:0:0:0:
36,192,106451,1,0,0:0:0:0:
109,192,106451,1,0,0:0:0:0:
256,192,106451,1,0,0:0:0:0:
402,192,106451,1,0,0:0:0:0:
182,192,106548,1,0,0:0:0:0:
475,192,106548,1,0,0:0:0:0:
36,192,106645,1,0,0:0:0:0:
256,192,106645,1,0,0:0:0:0:
329,192,106645,1,0,0:0:0:0:
402,192,106645,1,0,0:0:0:0:
109,192,106741,1,0,0:0:0:0:
182,192,106741,1,0,0:0:0:0:
36,192,106838,1,0,0:0:0:0:
329,192,106838,1,0,0:0:0:0:
402,192,106838,1,0,0:0:0:0:
475,192,106838,1,0,0:0:0:0:
109,192,107032,1,0,0:0:0:0:
256,192,107032,1,0,0:0:0:0:
475,192,107032,1,0,0:0:0:0:
36,192,107225,1,0,0:0:0:0:
182,192,107225,1,0,0:0:0:0:
329,192,107225,1,0,0:0:0:0:
256,192,107322,1,0,0:0:0:0:
329,192,107419,1,0,0:0:0:0:
402,192,107419,1,0,0:0:0:0:
475,192,107419,1,0,0:0:0:0:
256,192,107516,1,0,0:0:0:0:
36,192,107612,1,0,0:0:0:0:
109,192,107612,1,0,0:0:0:0:
182,192,107612,1,0,0:0:0:0:
329,192,107612,1,0,0:0:0:0:
475,192,107612,1,0,0:0:0:0:
256,192,107709,1,0,0:0:0:0:
329,192,107806,1,0,0:0:0:0:
475,192,107806,1,0,0:0:0:0:
109,192,108000,1,0,0:0:0:0:
182,192,108000,1,0,0:0:0:0:
329,192,108000,1,0,0:0:0:0:
475,192,108000,1,0,0:0:0:0:
256,192,108096,1,0,0:0:0:0:
402,192,108096,1,0,0:0:0:0:
36,192,108193,1,0,0:0:0:0:
182,192,108193,1,0,0:0:0:0:
329,192,108193,1,0,0:0:0:0:
475,192,108193,1,0,0:0:0:0:
256,192,108290,1,0,0:0:0:0:
402,192,108290,1,0,0:0:0:0:
36,192,108387,1,0,0:0:0:0:
109,192,108387,1,0,0:0:0:0:
182,192,108387,1,0,0:0:0:0:
329,192,108387,1,0,0:0:0:0:
475,192,108387,1,0,0:0:0:0:
36,192,108580,1,0,0:0:0:0:
329,192,108580,1,0,0:0:0:0:
402,192,108580,1,0,0:0:0:0:
182,192,108774,1,0,0:0:0:0:
256,192,108774,1,0,0:0:0:0:
475,192,108774,1,0,0:0:0:0:
329,192,108870,1,0,0:0:0:0:
36,192,108967,1,0,0:0:0:0:
402,192,108967,1,0,0:0:0:0:
475,192,108967,1,0,0:0:0:0:
256,192,109064,1,0,0:0:0:0:
109,192,109161,1,0,0:0:0:0:
182,192,109161,1,0,0:0:0:0:
329,192,109161,1,0,0:0:0:0:
402,192,109161,1,0,0:0:0:0:
475,192,109161,1,0,0:0:0:0:
256,192,109258,1,0,0:0:0:0:
36,192,109354,1,0,0:0:0:0:
402,192,109354,1,0,0:0:0:0:
36,192,109548,1,0,0:0:0:0:
182,192,109548,1,0,0:0:0:0:
329,192,109548,1,0,0:0:0:0:
109,192,109645,1,0,0:0:0:0:
475,192,109645,1,0,0:0:0:0:
36,192,109741,1,0,0:0:0:0:
182,192,109741,1,0,0:0:0:0:
402,192,109741,1,0,0:0:0:0:
109,192,109838,1,0,0:0:0:0:
329,192,109838,1,0,0:0:0:0:
36,192,109935,1,0,0:0:0:0:
182,192,109935,1,0,0:0:0:0:
256,192,109935,1,0,0:0:0:0:
402,192,109935,1,0,0:0:0:0:
475,192,109935,1,0,0:0:0:0:
36,192,110129,1,0,0:0:0:0:
109,192,110129,1,0,0:0:0:0:
329,192,110129,1,0,0:0:0:0:
182,192,110322,1,0,0:0:0:0:
256,192,110322,1,0,0:0:0:0:
475,192,110322,1,0,0:0:0:0:
36,192,110419,1,0,0:0:0:0:
109,192,110419,1,0,0:0:0:0:
256,192,110516,1,0,0:0:0:0:
402,192,110516,1,0,0:0:0:0:
329,192,110612,1,0,0:0:0:0:
109,192,110709,1,0,0:0:0:0:
182,192,110709,1,0,0:0:0:0:
475,192,110709,1,0,0:0:0:0:
329,192,110838,1,0,0:0:0:0:
36,192,110903,1,0,0:0:0:0:
182,192,110903,1,0,0:0:0:0:
256,192,110967,1,0,0:0:0:0:
109,192,111096,1,0,0:0:0:0:
182,192,111096,1,0,0:0:0:0:
402,192,111096,1,0,0:0:0:0:
256,192,111193,1,0,0:0:0:0:
329,192,111225,1,0,0:0:0:0:
36,192,111290,1,0,0:0:0:0:
182,192,111290,1,0,0:0:0:0:
402,192,111290,1,0,0:0:0:0:
475,192,111354,1,0,0:0:0:0:
109,192,111387,1,0,0:0:0:0:
36,192,111483,1,0,0:0:0:0:
256,192,111483,1,0,0:0:0:0:
402,192,111483,1,0,0:0:0:0:
475,192,111580,1,0,0:0:0:0:
36,192,111677,1,0,0:0:0:0:
182,192,111677,1,0,0:0:0:0:
329,192,111677,1,0,0:0:0:0:
256,192,111774,1,0,0:0:0:0:
36,192,111870,1,0,0:0:0:0:
109,192,111870,1,0,0:0:0:0:
329,192,111870,1,0,0:0:0:0:
182,192,111967,1,0,0:0:0:0:
475,192,111967,1,0,0:0:0:0:
36,192,112064,1,0,0:0:0:0:
256,192,112064,1,0,0:0:0:0:
402,192,112064,1,0,0:0:0:0:
329,192,112161,1,0,0:0:0:0:
36,192,112258,1,0,0:0:0:0:
109,192,112258,1,0,0:0:0:0:
256,192,112258,1,0,0:0:0:0:
402,192,112258,1,0,0:0:0:0:
475,192,112258,1,0,0:0:0:0:
182,192,112354,1,0,0:0:0:0:
36,192,112451,1,0,0:0:0:0:
109,192,112451,1,0,0:0:0:0:
329,192,112451,1,0,0:0:0:0:
182,192,112548,1,0,0:0:0:0:
36,192,112645,1,0,0:0:0:0:
109,192,112645,1,0,0:0:0:0:
256,192,112645,1,0,0:0:0:0:
402,192,112645,1,0,0:0:0:0:
475,192,112645,1,0,0:0:0:0:
182,192,112741,1,0,0:0:0:0:
329,192,112741,1,0,0:0:0:0:
36,192,112838,1,0,0:0:0:0:
256,192,112838,1,0,0:0:0:0:
475,192,112838,1,0,0:0:0:0:
182,192,112935,1,0,0:0:0:0:
402,192,112935,1,0,0:0:0:0:
36,192,113032,1,0,0:0:0:0:
109,192,113032,1,0,0:0:0:0:
256,192,113032,1,0,0:0:0:0:
329,192,113032,1,0,0:0:0:0:
475,192,113032,1,0,0:0:0:0:
182,192,113129,1,0,0:0:0:0:
109,192,113225,1,0,0:0:0:0:
256,192,113225,1,0,0:0:0:0:
475,192,113225,1,0,0:0:0:0:
402,192,113322,1,0,0:0:0:0:
36,192,113419,1,0,0:0:0:0:
329,192,113419,1,0,0:0:0:0:
475,192,113419,1,0,0:0:0:0:
109,192,113516,1,0,0:0:0:0:
256,192,113516,1,0,0:0:0:0:
329,192,113612,1,0,0:0:0:0:
402,192,113612,1,0,0:0:0:0:
475,192,113612,1,0,0:0:0:0:
182,192,113709,1,0,0:0:0:0:
256,192,113709,1,0,0:0:0:0:
36,192,113806,1,0,0:0:0:0:
109,192,113806,1,0,0:0:0:0:
329,192,113806,1,0,0:0:0:0:
475,192,113806,1,0,0:0:0:0:
402,192,113903,1,0,0:0:0:0:
109,192,114000,1,0,0:0:0:0:
182,192,114000,1,0,0:0:0:0:
475,192,114000,1,0,0:0:0:0:
329,192,114096,1,0,0:0:0:0:
36,192,114193,1,0,0:0:0:0:
109,192,114193,1,0,0:0:0:0:
256,192,114193,1,0,0:0:0:0:
402,192,114193,1,0,0:0:0:0:
475,192,114193,1,0,0:0:0:0:
182,192,114290,1,0,0:0:0:0:
329,192,114290,1,0,0:0:0:0:
109,192,114387,1,0,0:0:0:0:
256,192,114387,1,0,0:0:0:0:
475,192,114387,1,0,0:0:0:0:
182,192,114483,1,0,0:0:0:0:
402,192,114483,1,0,0:0:0:0:
36,192,114580,1,0,0:0:0:0:
109,192,114580,1,0,0:0:0:0:
256,192,114580,1,0,0:0:0:0:
329,192,114580,1,0,0:0:0:0:
475,192,114580,1,0,0:0:0:0:
402,192,114677,1,0,0:0:0:0:
109,192,114774,1,0,0:0:0:0:
256,192,114774,1,0,0:0:0:0:
329,192,114774,1,0,0:0:0:0:
402,192,114870,1,0,0:0:0:0:
36,192,114967,1,0,0:0:0:0:
182,192,114967,1,0,0:0:0:0:
329,192,114967,1,0,0:0:0:0:
256,192,115064,1,0,0:0:0:0:
402,192,115064,1,0,0:0:0:0:
109,192,115161,1,0,0:0:0:0:
329,192,115161,1,0,0:0:0:0:
475,192,115161,1,0,0:0:0:0:
182,192,115258,1,0,0:0:0:0:
402,192,115258,1,0,0:0:0:0:
36,192,115354,1,0,0:0:0:0:
109,192,115354,1,0,0:0:0:0:
256,192,115354,1,0,0:0:0:0:
329,192,115354,1,0,0:0:0:0:
475,192,115354,1,0,0:0:0:0:
402,192,115451,1,0,0:0:0:0:
36,192,115548,1,0,0:0:0:0:
256,192,115548,1,0,0:0:0:0:
475,192,115548,1,0,0:0:0:0:
182,192,115645,1,0,0:0:0:0:
402,192,115645,1,0,0:0:0:0:
109,192,115741,1,0,0:0:0:0:
256,192,115741,1,0,0:0:0:0:
329,192,115741,1,0,0:0:0:0:
475,192,115741,1,0,0:0:0:0:
402,192,115838,1,0,0:0:0:0:
36,192,115935,1,0,0:0:0:0:
256,192,115935,1,0,0:0:0:0:
475,192,115935,1,0,0:0:0:0:
329,192,116032,1,0,0:0:0:0:
36,192,116129,1,0,0:0:0:0:
109,192,116129,1,0,0:0:0:0:
256,192,116129,1,0,0:0:0:0:
402,192,116129,1,0,0:0:0:0:
475,192,116129,1,0,0:0:0:0:
329,192,116258,1,0,0:0:0:0:
256,192,116322,1,0,0:0:0:0:
402,192,116322,1,0,0:0:0:0:
109,192,116387,1,0,0:0:0:0:
182,192,116516,1,0,0:0:0:0:
402,192,116516,1,0,0:0:0:0:
329,192,116645,1,0,0:0:0:0:
256,192,116709,1,0,0:0:0:0:
402,192,116709,1,0,0:0:0:0:
109,192,116774,1,0,0:0:0:0:
329,192,116903,1,0,0:0:0:0:
402,192,116903,1,0,0:0:0:0:
475,192,116903,1,0,0:0:0:0:
182,192,117000,1,0,0:0:0:0:
256,192,117096,1,0,0:0:0:0:
475,192,117096,1,0,0:0:0:0:
182,192,117290,1,0,0:0:0:0:
256,192,117290,1,0,0:0:0:0:
329,192,117290,1,0,0:0:0:0:
402,192,117290,1,0,0:0:0:0:
36,192,117483,1,0,0:0:0:0:
182,192,117483,1,0,0:0:0:0:
256,192,117483,1,0,0:0:0:0:
402,192,117483,1,0,0:0:0:0:
36,192,117677,1,0,0:0:0:0:
109,192,117677,1,0,0:0:0:0:
256,192,117677,1,0,0:0:0:0:
475,192,117677,1,0,0:0:0:0:
402,192,117806,1,0,0:0:0:0:
36,192,117870,1,0,0:0:0:0:
475,192,117870,1,0,0:0:0:0:
256,192,117935,1,0,0:0:0:0:
36,192,118064,1,0,0:0:0:0:
109,192,118064,1,0,0:0:0:0:
402,192,118193,1,0,0:0:0:0:
36,192,118258,1,0,0:0:0:0:
475,192,118258,1,0,0:0:0:0:
329,192,118322,1,0,0:0:0:0:
36,192,118451,1,0,0:0:0:0:
109,192,118451,1,0,0:0:0:0:
256,192,118451,1,0,0:0:0:0:
402,192,118548,1,0,0:0:0:0:
36,192,118645,1,0,0:0:0:0:
182,192,118645,1,0,0:0:0:0:
475,192,118645,1,0,0:0:0:0:
36,192,118838,1,0,0:0:0:0:
256,192,118838,1,0,0:0:0:0:
402,192,118838,1,0,0:0:0:0:
329,192,118935,1,0,0:0:0:0:
36,192,119032,1,0,0:0:0:0:
182,192,119032,1,0,0:0:0:0:
475,192,119032,1,0,0:0:0:0:
36,192,119225,1,0,0:0:0:0:
256,192,119225,1,0,0:0:0:0:
329,192,119225,1,0,0:0:0:0:
475,192,119225,1,0,0:0:0:0:
182,192,119322,1,0,0:0:0:0:
36,192,119419,1,0,0:0:0:0:
109,192,119419,1,0,0:0:0:0:
402,192,119419,1,0,0:0:0:0:
256,192,119516,1,0,0:0:0:0:
36,192,119612,1,0,0:0:0:0:
475,192,119612,1,0,0:0:0:0:
329,192,119709,1,0,0:0:0:0:
36,192,119806,1,0,0:0:0:0:
109,192,119806,1,0,0:0:0:0:
402,192,119806,1,0,0:0:0:0:
475,192,119903,1,0,0:0:0:0:
36,192,120000,1,0,0:0:0:0:
109,192,120000,1,0,0:0:0:0:
256,192,120000,1,0,0:0:0:0:
402,192,120000,1,0,0:0:0:0:
329,192,120096,1,0,0:0:0:0:
36,192,120193,1,0,0:0:0:0:
256,192,120193,1,0,0:0:0:0:
402,192,120193,1,0,0:0:0:0:
109,192,120290,1,0,0:0:0:0:
36,192,120387,1,0,0:0:0:0:
256,192,120387,1,0,0:0:0:0:
402,192,120387,1,0,0:0:0:0:
475,192,120387,1,0,0:0:0:0:
329,192,120483,1,0,0:0:0:0:
36,192,120580,1,0,0:0:0:0:
109,192,120580,1,0,0:0:0:0:
182,192,120580,1,0,0:0:0:0:
402,192,120580,1,0,0:0:0:0:
329,192,120677,1,0,0:0:0:0:
36,192,120774,1,0,0:0:0:0:
109,192,120774,1,0,0:0:0:0:
256,192,120774,1,0,0:0:0:0:
402,192,120774,1,0,0:0:0:0:
475,192,120774,1,0,0:0:0:0:
329,192,120870,1,0,0:0:0:0:
36,192,120967,1,0,0:0:0:0:
182,192,120967,1,0,0:0:0:0:
402,192,120967,1,0,0:0:0:0:
475,192,121064,1,0,0:0:0:0:
36,192,121161,1,0,0:0:0:0:
182,192,121161,1,0,0:0:0:0:
256,192,121161,1,0,0:0:0:0:
329,192,121161,1,0,0:0:0:0:
402,192,121161,1,0,0:0:0:0:
109,192,121258,1,0,0:0:0:0:
475,192,121258,1,0,0:0:0:0:
182,192,121354,1,0,0:0:0:0:
329,192,121354,1,0,0:0:0:0:
109,192,121451,1,0,0:0:0:0:
475,192,121451,1,0,0:0:0:0:
36,192,121548,1,0,0:0:0:0:
182,192,121548,1,0,0:0:0:0:
256,192,121548,1,0,0:0:0:0:
402,192,121548,1,0,0:0:0:0:
329,192,121645,1,0,0:0:0:0:
36,192,121741,1,0,0:0:0:0:
182,192,121741,1,0,0:0:0:0:
256,192,121741,1,0,0:0:0:0:
402,192,121838,1,0,0:0:0:0:
109,192,121935,1,0,0:0:0:0:
182,192,121935,1,0,0:0:0:0:
256,192,121935,1,0,0:0:0:0:
329,192,121935,1,0,0:0:0:0:
475,192,121935,1,0,0:0:0:0:
402,192,122032,1,0,0:0:0:0:
36,192,122129,1,0,0:0:0:0:
475,192,122129,1,0,0:0:0:0:
402,192,122225,1,0,0:0:0:0:
36,192,122322,1,0,0:0:0:0:
329,192,122322,1,0,0:0:0:0:
109,192,122516,1,0,0:0:0:0:
402,192,122516,1,0,0:0:0:0:
182,192,122709,1,0,0:0:0:0:
329,192,122709,1,0,0:0:0:0:
402,192,122806,1,0,0:0:0:0:
109,192,122903,1,0,0:0:0:0:
475,192,122903,1,0,0:0:0:0:
402,192,123000,1,0,0:0:0:0:
109,192,123096,1,0,0:0:0:0:
256,192,123096,1,0,0:0:0:0:
36,192,123290,1,0,0:0:0:0:
329,192,123290,1,0,0:0:0:0:
182,192,123483,1,0,0:0:0:0:
256,192,123483,1,0,0:0:0:0:
329,192,123580,1,0,0:0:0:0:
36,192,123677,1,0,0:0:0:0:
109,192,123677,1,0,0:0:0:0:
402,192,123677,1,0,0:0:0:0:
256,192,123774,1,0,0:0:0:0:
329,192,123774,1,0,0:0:0:0:
36,192,123870,1,0,0:0:0:0:
475,192,123870,1,0,0:0:0:0:
109,192,124064,1,0,0:0:0:0:
256,192,124064,1,0,0:0:0:0:
402,192,124064,1,0,0:0:0:0:
182,192,124258,1,0,0:0:0:0:
329,192,124258,1,0,0:0:0:0:
402,192,124354,1,0,0:0:0:0:
109,192,124451,1,0,0:0:0:0:
329,192,124451,1,0,0:0:0:0:
475,192,124451,1,0,0:0:0:0:
402,192,124548,1,0,0:0:0:0:
182,192,124645,1,0,0:0:0:0:
329,192,124645,1,0,0:0:0:0:
475,192,124645,1,0,0:0:0:0:
109,192,124741,1,0,0:0:0:0:
256,192,124741,1,0,0:0:0:0:
402,192,124741,1,0,0:0:0:0:
36,192,124838,1,0,0:0:0:0:
329,192,124838,1,0,0:0:0:0:
475,192,124838,1,0,0:0:0:0:
109,192,124935,1,0,0:0:0:0:
256,192,124935,1,0,0:0:0:0:
402,192,124935,1,0,0:0:0:0:
182,192,125032,1,0,0:0:0:0:
329,192,125032,1,0,0:0:0:0:
475,192,125032,1,0,0:0:0:0:
109,192,125129,1,0,0:0:0:0:
256,192,125129,1,0,0:0:0:0:
402,192,125129,1,0,0:0:0:0:
36,192,125225,1,0,0:0:0:0:
182,192,125225,1,0,0:0:0:0:
329,192,125225,1,0,0:0:0:0:
475,192,125225,1,0,0:0:0:0:
109,192,125322,1,0,0:0:0:0:
256,192,125322,1,0,0:0:0:0:
402,192,125322,1,0,0:0:0:0:
36,192,125419,1,0,0:0:0:0:
182,192,125419,1,0,0:0:0:0:
329,192,125419,1,0,0:0:0:0:
475,192,125419,1,0,0:0:0:0:
