osu file format v14

[General]
AudioFilename: Velvet Rays.mp3
AudioLeadIn: 0
PreviewTime: 58926
Countdown: 0
SampleSet: Normal
StackLeniency: 0.7
Mode: 1
LetterboxInBreaks: 0
WidescreenStoryboard: 0

[Editor]
DistanceSpacing: 1.1
BeatDivisor: 4
GridSize: 32
TimelineZoom: 1

[Metadata]
Title:Velvet Rays
TitleUnicode:Velvet Rays
Artist:Amamiya Sora
ArtistUnicode:雨宮天
Creator:Nardoxyribonucleic
Version:Muzukashii
Source:ヴァリアントナイツ
Tags:Taiko Valiant Knights Opening qoot8123
BeatmapID:798793
BeatmapSetID:354587

[Difficulty]
HPDrainRate:5
CircleSize:5
OverallDifficulty:4
ApproachRate:5
SliderMultiplier:1.4
SliderTickRate:1

[Events]
//Background and Video events
0,0,"BG.jpg",0,0
//Break Periods
//Storyboard Layer 0 (Background)
//Storyboard Layer 1 (Fail)
//Storyboard Layer 2 (Pass)
//Storyboard Layer 3 (Foreground)
//Storyboard Sound Samples

[TimingPoints]
930,357.142857142857,4,1,0,50,1,0
1644,368.890255149093,4,1,0,50,1,8
1644,-96.8054211035818,4,1,0,50,0,0
2381,347.423277359583,4,1,0,50,1,0
2381,-102.774922918808,4,1,0,50,0,0
3075,403.090359422237,4,1,0,50,1,8
3075,-88.5739592559787,4,1,0,50,0,0
3881,385.232744783307,4,1,0,50,1,0
3881,-92.678405931418,4,1,0,50,0,0
5421,366.524129505192,4,1,0,50,1,0
5421,-97.4658869395711,4,1,0,50,0,0
6887,373.59900373599,4,1,0,50,1,0
6887,-95.6022944550669,4,1,0,50,0,0
8381,363.636363636364,4,1,0,65,1,0
14199,-100,4,1,0,80,0,0
20017,-100,4,1,0,75,0,0
43290,-100,4,1,0,60,0,0
48926,-100,4,1,0,80,0,0
59290,-100,4,1,0,90,0,1
88381,-100,4,1,0,80,0,0
98563,-100,4,1,0,75,0,0
121835,-100,4,1,0,60,0,0
127472,-100,4,1,0,80,0,0
137835,-100,4,1,0,90,0,1
166926,-100,4,1,0,80,0,0
181472,-100,4,1,0,70,0,0
198926,-100,4,1,0,60,0,0
220744,-100,4,1,0,90,0,1
249835,-100,4,1,0,80,0,0
252744,-100,4,1,0,50,0,0
254199,-100,4,1,0,40,0,0
255654,-100,4,1,0,30,0,0

[HitObjects]
256,192,930,5,8,0:0:0:0:
256,192,2012,1,0,0:0:0:0:
256,192,2381,1,8,0:0:0:0:
256,192,3478,1,0,0:0:0:0:
256,192,3881,1,8,0:0:0:0:
256,192,4266,1,8,0:0:0:0:
256,192,4651,1,0,0:0:0:0:
256,192,5036,1,0,0:0:0:0:
256,192,5421,1,8,0:0:0:0:
256,192,6887,12,0,8007,0:0:0:0:
256,192,8381,5,12,0:0:0:0:
256,192,8926,1,0,0:0:0:0:
256,192,9471,1,8,0:0:0:0:
256,192,9835,1,0,0:0:0:0:
256,192,10562,1,8,0:0:0:0:
256,192,10835,1,0,0:0:0:0:
256,192,11108,1,0,0:0:0:0:
256,192,11290,1,4,0:0:0:0:
256,192,11835,1,0,0:0:0:0:
256,192,12381,1,8,0:0:0:0:
256,192,12744,1,12,0:0:0:0:
256,192,13108,1,12,0:0:0:0:
256,192,13471,1,0,0:0:0:0:
256,192,13562,1,0,0:0:0:0:
256,192,13653,1,0,0:0:0:0:
256,192,13835,1,8,0:0:0:0:
256,192,14017,1,8,0:0:0:0:
256,192,14199,1,4,0:0:0:0:
256,192,14562,1,8,0:0:0:0:
256,192,14926,1,8,0:0:0:0:
256,192,15108,1,0,0:0:0:0:
256,192,15290,1,8,0:0:0:0:
256,192,15471,1,8,0:0:0:0:
256,192,15835,1,0,0:0:0:0:
256,192,16017,1,8,0:0:0:0:
256,192,16199,1,8,0:0:0:0:
256,192,16562,1,0,0:0:0:0:
256,192,16744,1,8,0:0:0:0:
256,192,16926,1,0,0:0:0:0:
256,192,17017,1,0,0:0:0:0:
256,192,17108,1,0,0:0:0:0:
256,192,17471,1,8,0:0:0:0:
256,192,17835,1,8,0:0:0:0:
256,192,18017,1,0,0:0:0:0:
256,192,18199,1,8,0:0:0:0:
256,192,18381,1,4,0:0:0:0:
256,192,18744,1,0,0:0:0:0:
256,192,18926,1,8,0:0:0:0:
256,192,19108,1,4,0:0:0:0:
256,192,19471,1,0,0:0:0:0:
256,192,19653,1,8,0:0:0:0:
256,192,19835,1,8,0:0:0:0:
256,192,20017,1,4,0:0:0:0:
256,192,20381,1,8,0:0:0:0:
256,192,20562,1,0,0:0:0:0:
256,192,20744,1,0,0:0:0:0:
256,192,21108,1,8,0:0:0:0:
256,192,21471,1,0,0:0:0:0:
256,192,21835,1,8,0:0:0:0:
256,192,22017,1,0,0:0:0:0:
256,192,22381,1,0,0:0:0:0:
256,192,22562,1,8,0:0:0:0:
256,192,22744,1,0,0:0:0:0:
256,192,22926,1,8,0:0:0:0:
256,192,23290,1,8,0:0:0:0:
256,192,23471,1,0,0:0:0:0:
256,192,23653,1,0,0:0:0:0:
256,192,24017,1,8,0:0:0:0:
256,192,24199,1,0,0:0:0:0:
256,192,24381,1,8,0:0:0:0:
256,192,24744,1,8,0:0:0:0:
256,192,24926,1,0,0:0:0:0:
256,192,25108,1,0,0:0:0:0:
256,192,25199,1,0,0:0:0:0:
256,192,25290,1,0,0:0:0:0:
256,192,25471,1,8,0:0:0:0:
256,192,25835,1,0,0:0:0:0:
256,192,26199,1,8,0:0:0:0:
256,192,26381,1,0,0:0:0:0:
256,192,26562,1,0,0:0:0:0:
256,192,26926,1,8,0:0:0:0:
256,192,27108,1,8,0:0:0:0:
256,192,27290,1,0,0:0:0:0:
256,192,28017,1,0,0:0:0:0:
256,192,28381,1,8,0:0:0:0:
256,192,28562,1,8,0:0:0:0:
256,192,28744,1,0,0:0:0:0:
256,192,29108,1,8,0:0:0:0:
256,192,29290,1,0,0:0:0:0:
256,192,29381,1,0,0:0:0:0:
256,192,29471,1,0,0:0:0:0:
256,192,29653,1,0,0:0:0:0:
256,192,29835,1,8,0:0:0:0:
256,192,30017,1,4,0:0:0:0:
256,192,30381,1,0,0:0:0:0:
256,192,30562,1,8,0:0:0:0:
256,192,30744,1,12,0:0:0:0:
256,192,31108,1,0,0:0:0:0:
256,192,31290,1,8,0:0:0:0:
256,192,31471,1,8,0:0:0:0:
256,192,31653,1,4,0:0:0:0:
256,192,32017,1,8,0:0:0:0:
256,192,32199,1,0,0:0:0:0:
256,192,32381,1,0,0:0:0:0:
256,192,32744,1,8,0:0:0:0:
256,192,33108,1,0,0:0:0:0:
256,192,33471,1,8,0:0:0:0:
256,192,33653,1,8,0:0:0:0:
256,192,33835,1,0,0:0:0:0:
256,192,34017,1,0,0:0:0:0:
256,192,34199,1,8,0:0:0:0:
256,192,34562,1,0,0:0:0:0:
256,192,34926,1,8,0:0:0:0:
256,192,35108,1,0,0:0:0:0:
256,192,35290,1,8,0:0:0:0:
256,192,35653,1,8,0:0:0:0:
256,192,35835,1,8,0:0:0:0:
256,192,36017,1,0,0:0:0:0:
256,192,36381,1,8,0:0:0:0:
256,192,36744,1,0,0:0:0:0:
256,192,36926,1,0,0:0:0:0:
256,192,37108,1,8,0:0:0:0:
256,192,37290,1,8,0:0:0:0:
256,192,37381,1,8,0:0:0:0:
256,192,37471,1,8,0:0:0:0:
256,192,37835,1,0,0:0:0:0:
256,192,38017,1,8,0:0:0:0:
256,192,38199,1,0,0:0:0:0:
256,192,38562,1,8,0:0:0:0:
256,192,38926,1,0,0:0:0:0:
256,192,39290,1,8,0:0:0:0:
256,192,39471,1,8,0:0:0:0:
256,192,39653,1,0,0:0:0:0:
256,192,40017,1,8,0:0:0:0:
256,192,40199,1,0,0:0:0:0:
256,192,40381,1,12,0:0:0:0:
256,192,40562,1,8,0:0:0:0:
256,192,40744,1,0,0:0:0:0:
256,192,40926,1,0,0:0:0:0:
256,192,41108,1,8,0:0:0:0:
256,192,41471,1,8,0:0:0:0:
256,192,41562,1,8,0:0:0:0:
256,192,41653,1,8,0:0:0:0:
256,192,41835,1,0,0:0:0:0:
256,192,42108,1,0,0:0:0:0:
256,192,42381,1,4,0:0:0:0:
256,192,42744,1,8,0:0:0:0:
256,192,42926,1,8,0:0:0:0:
256,192,43290,1,4,0:0:0:0:
256,192,43653,1,8,0:0:0:0:
256,192,44017,1,0,0:0:0:0:
256,192,44199,1,8,0:0:0:0:
256,192,44562,1,0,0:0:0:0:
256,192,44926,1,0,0:0:0:0:
256,192,45108,1,8,0:0:0:0:
256,192,45290,1,0,0:0:0:0:
256,192,46017,1,0,0:0:0:0:
256,192,46199,1,4,0:0:0:0:
256,192,46562,1,0,0:0:0:0:
256,192,46926,1,8,0:0:0:0:
256,192,47290,1,0,0:0:0:0:
256,192,47653,1,0,0:0:0:0:
256,192,48199,1,8,0:0:0:0:
256,192,48562,1,0,0:0:0:0:
256,192,48744,1,0,0:0:0:0:
256,192,48926,1,4,0:0:0:0:
256,192,49290,1,0,0:0:0:0:
256,192,49471,1,8,0:0:0:0:
256,192,49653,1,4,0:0:0:0:
256,192,50017,1,0,0:0:0:0:
256,192,50199,1,8,0:0:0:0:
256,192,50381,1,8,0:0:0:0:
256,192,50562,1,4,0:0:0:0:
256,192,50926,1,12,0:0:0:0:
256,192,51290,1,12,0:0:0:0:
256,192,51653,1,8,0:0:0:0:
256,192,51835,1,4,0:0:0:0:
256,192,52199,1,0,0:0:0:0:
256,192,52381,1,8,0:0:0:0:
256,192,52562,1,0,0:0:0:0:
256,192,52653,1,0,0:0:0:0:
256,192,52744,1,0,0:0:0:0:
256,192,52926,1,0,0:0:0:0:
256,192,53108,1,8,0:0:0:0:
256,192,53290,1,0,0:0:0:0:
256,192,53653,1,0,0:0:0:0:
256,192,53835,1,8,0:0:0:0:
256,192,54017,1,0,0:0:0:0:
256,192,54199,1,8,0:0:0:0:
256,192,54562,1,8,0:0:0:0:
256,192,54744,1,8,0:0:0:0:
256,192,54926,1,4,0:0:0:0:
256,192,55290,1,8,0:0:0:0:
256,192,55653,1,0,0:0:0:0:
256,192,55835,1,0,0:0:0:0:
256,192,56017,1,8,0:0:0:0:
256,192,56199,1,4,0:0:0:0:
256,192,56562,1,0,0:0:0:0:
256,192,56744,1,8,0:0:0:0:
256,192,56926,1,0,0:0:0:0:
256,192,57108,1,8,0:0:0:0:
256,192,57290,1,0,0:0:0:0:
256,192,57471,1,0,0:0:0:0:
256,192,57653,1,4,0:0:0:0:
256,192,57835,12,0,58744,0:0:0:0:
256,192,58926,5,8,0:0:0:0:
256,192,59017,1,8,0:0:0:0:
256,192,59108,1,8,0:0:0:0:
256,192,59290,1,4,0:0:0:0:
256,192,59471,1,8,0:0:0:0:
256,192,59653,1,0,0:0:0:0:
256,192,59835,1,8,0:0:0:0:
256,192,60017,1,0,0:0:0:0:
256,192,60290,1,8,0:0:0:0:
256,192,60562,1,8,0:0:0:0:
256,192,60744,1,0,0:0:0:0:
256,192,60926,1,8,0:0:0:0:
256,192,61108,1,0,0:0:0:0:
256,192,61199,1,0,0:0:0:0:
256,192,61290,1,0,0:0:0:0:
256,192,61471,1,0,0:0:0:0:
256,192,61835,1,0,0:0:0:0:
256,192,62017,1,8,0:0:0:0:
256,192,62199,1,0,0:0:0:0:
256,192,62290,1,0,0:0:0:0:
256,192,62381,1,0,0:0:0:0:
256,192,62562,1,8,0:0:0:0:
256,192,62744,1,8,0:0:0:0:
256,192,62926,1,0,0:0:0:0:
256,192,63199,1,8,0:0:0:0:
256,192,63471,1,8,0:0:0:0:
256,192,63653,1,0,0:0:0:0:
256,192,63835,1,8,0:0:0:0:
256,192,63926,1,8,0:0:0:0:
256,192,64017,1,8,0:0:0:0:
256,192,64199,1,8,0:0:0:0:
256,192,64381,1,0,0:0:0:0:
256,192,64744,1,0,0:0:0:0:
256,192,64926,1,8,0:0:0:0:
256,192,65108,1,4,0:0:0:0:
256,192,65381,1,8,0:0:0:0:
256,192,65653,1,8,0:0:0:0:
256,192,65835,1,0,0:0:0:0:
256,192,66017,1,8,0:0:0:0:
256,192,66199,1,0,0:0:0:0:
256,192,66381,1,8,0:0:0:0:
256,192,66471,1,8,0:0:0:0:
256,192,66562,1,8,0:0:0:0:
256,192,66835,1,0,0:0:0:0:
256,192,67108,1,8,0:0:0:0:
256,192,67290,1,0,0:0:0:0:
256,192,68017,1,4,0:0:0:0:
256,192,68381,1,8,0:0:0:0:
256,192,68562,1,0,0:0:0:0:
256,192,68653,1,0,0:0:0:0:
256,192,68744,1,0,0:0:0:0:
256,192,68926,1,0,0:0:0:0:
256,192,69108,1,8,0:0:0:0:
256,192,69290,1,4,0:0:0:0:
256,192,69653,1,0,0:0:0:0:
256,192,69835,1,8,0:0:0:0:
256,192,70017,1,4,0:0:0:0:
256,192,70381,1,0,0:0:0:0:
256,192,70562,1,8,0:0:0:0:
256,192,70653,1,8,0:0:0:0:
256,192,70744,1,8,0:0:0:0:
256,192,70926,1,4,0:0:0:0:
256,192,71108,1,8,0:0:0:0:
256,192,71290,1,0,0:0:0:0:
256,192,71471,1,8,0:0:0:0:
256,192,71653,1,0,0:0:0:0:
256,192,71926,1,0,0:0:0:0:
256,192,72199,1,8,0:0:0:0:
256,192,72381,1,0,0:0:0:0:
256,192,72562,1,8,0:0:0:0:
256,192,72744,1,0,0:0:0:0:
256,192,72835,1,0,0:0:0:0:
256,192,72926,1,0,0:0:0:0:
256,192,73108,1,0,0:0:0:0:
256,192,73471,1,0,0:0:0:0:
256,192,73653,1,8,0:0:0:0:
256,192,73835,1,0,0:0:0:0:
256,192,73926,1,0,0:0:0:0:
256,192,74017,1,0,0:0:0:0:
256,192,74199,1,8,0:0:0:0:
256,192,74381,1,8,0:0:0:0:
256,192,74562,1,0,0:0:0:0:
256,192,74835,1,8,0:0:0:0:
256,192,75108,1,8,0:0:0:0:
256,192,75290,1,0,0:0:0:0:
256,192,75471,1,8,0:0:0:0:
256,192,75562,1,8,0:0:0:0:
256,192,75653,1,8,0:0:0:0:
256,192,75835,1,8,0:0:0:0:
256,192,76017,1,0,0:0:0:0:
256,192,76381,1,0,0:0:0:0:
256,192,76562,1,8,0:0:0:0:
256,192,76744,1,4,0:0:0:0:
256,192,77108,1,8,0:0:0:0:
256,192,77290,1,8,0:0:0:0:
256,192,77471,1,0,0:0:0:0:
256,192,77744,1,8,0:0:0:0:
256,192,78017,1,8,0:0:0:0:
256,192,78199,1,4,0:0:0:0:
256,192,78381,1,8,0:0:0:0:
256,192,78562,1,0,0:0:0:0:
256,192,78744,1,8,0:0:0:0:
256,192,78926,1,0,0:0:0:0:
256,192,79108,1,8,0:0:0:0:
256,192,79199,1,8,0:0:0:0:
256,192,79290,1,8,0:0:0:0:
256,192,79471,1,8,0:0:0:0:
256,192,79653,1,4,0:0:0:0:
256,192,80017,1,8,0:0:0:0:
256,192,80199,1,0,0:0:0:0:
256,192,80381,1,8,0:0:0:0:
256,192,80744,1,8,0:0:0:0:
256,192,80926,1,0,0:0:0:0:
256,192,81290,1,0,0:0:0:0:
256,192,81471,1,8,0:0:0:0:
256,192,81653,1,0,0:0:0:0:
256,192,82017,1,8,0:0:0:0:
256,192,82199,1,8,0:0:0:0:
256,192,82381,1,4,0:0:0:0:
256,192,82744,1,0,0:0:0:0:
256,192,82926,1,8,0:0:0:0:
256,192,83108,1,0,0:0:0:0:
256,192,83199,1,0,0:0:0:0:
256,192,83290,1,0,0:0:0:0:
256,192,83471,1,0,0:0:0:0:
256,192,83653,1,8,0:0:0:0:
256,192,84017,1,8,0:0:0:0:
256,192,84199,1,0,0:0:0:0:
256,192,84381,1,8,0:0:0:0:
256,192,84562,1,0,0:0:0:0:
256,192,84744,1,8,0:0:0:0:
256,192,84835,1,8,0:0:0:0:
256,192,84926,1,8,0:0:0:0:
256,192,85108,1,8,0:0:0:0:
256,192,85290,1,4,0:0:0:0:
256,192,85653,1,0,0:0:0:0:
256,192,85835,1,8,0:0:0:0:
256,192,86017,1,0,0:0:0:0:
256,192,86108,1,0,0:0:0:0:
256,192,86199,1,0,0:0:0:0:
256,192,86381,1,0,0:0:0:0:
256,192,86562,1,8,0:0:0:0:
256,192,86744,1,8,0:0:0:0:
256,192,86926,1,4,0:0:0:0:
256,192,88381,1,12,0:0:0:0:
256,192,88744,1,0,0:0:0:0:
256,192,88926,1,12,0:0:0:0:
256,192,89290,1,0,0:0:0:0:
256,192,89471,1,8,0:0:0:0:
256,192,89653,1,4,0:0:0:0:
256,192,90017,1,0,0:0:0:0:
256,192,90199,1,8,0:0:0:0:
256,192,90381,1,0,0:0:0:0:
256,192,90562,1,8,0:0:0:0:
256,192,90653,1,8,0:0:0:0:
256,192,90744,1,8,0:0:0:0:
256,192,90926,1,8,0:0:0:0:
256,192,91108,1,4,0:0:0:0:
256,192,91653,1,8,0:0:0:0:
256,192,92017,1,8,0:0:0:0:
256,192,92199,1,0,0:0:0:0:
256,192,92381,1,8,0:0:0:0:
256,192,92562,1,0,0:0:0:0:
256,192,92926,1,0,0:0:0:0:
256,192,93108,1,8,0:0:0:0:
256,192,93471,1,0,0:0:0:0:
256,192,93653,1,0,0:0:0:0:
256,192,93835,1,8,0:0:0:0:
256,192,94017,1,4,0:0:0:0:
256,192,94381,1,0,0:0:0:0:
256,192,94562,1,8,0:0:0:0:
256,192,94744,1,0,0:0:0:0:
256,192,94835,1,0,0:0:0:0:
256,192,94926,1,0,0:0:0:0:
256,192,95108,1,0,0:0:0:0:
256,192,95290,1,8,0:0:0:0:
256,192,95471,1,4,0:0:0:0:
256,192,95835,1,0,0:0:0:0:
256,192,96017,1,8,0:0:0:0:
256,192,96199,1,4,0:0:0:0:
256,192,96562,1,0,0:0:0:0:
256,192,96744,1,8,0:0:0:0:
256,192,96926,1,12,0:0:0:0:
256,192,97290,1,0,0:0:0:0:
256,192,97471,1,8,0:0:0:0:
256,192,97653,1,4,0:0:0:0:
256,192,98562,1,4,0:0:0:0:
256,192,98926,1,8,0:0:0:0:
256,192,99108,1,8,0:0:0:0:
256,192,99290,1,0,0:0:0:0:
256,192,99653,1,8,0:0:0:0:
256,192,100017,1,0,0:0:0:0:
256,192,100381,1,8,0:0:0:0:
256,192,100562,1,0,0:0:0:0:
256,192,100926,1,0,0:0:0:0:
256,192,101108,1,8,0:0:0:0:
256,192,101290,1,0,0:0:0:0:
256,192,101471,1,8,0:0:0:0:
256,192,101835,1,8,0:0:0:0:
256,192,102017,1,8,0:0:0:0:
256,192,102199,1,0,0:0:0:0:
256,192,102562,1,8,0:0:0:0:
256,192,102744,1,0,0:0:0:0:
256,192,102926,1,8,0:0:0:0:
256,192,103290,1,8,0:0:0:0:
256,192,103471,1,0,0:0:0:0:
256,192,103653,1,0,0:0:0:0:
256,192,103744,1,0,0:0:0:0:
256,192,103835,1,0,0:0:0:0:
256,192,104017,1,8,0:0:0:0:
256,192,104381,1,0,0:0:0:0:
256,192,104744,1,8,0:0:0:0:
256,192,104926,1,0,0:0:0:0:
256,192,105108,1,0,0:0:0:0:
256,192,105471,1,8,0:0:0:0:
256,192,105653,1,8,0:0:0:0:
256,192,105835,1,0,0:0:0:0:
256,192,106199,1,8,0:0:0:0:
256,192,106381,1,0,0:0:0:0:
256,192,106744,1,0,0:0:0:0:
256,192,106926,1,8,0:0:0:0:
256,192,107108,1,8,0:0:0:0:
256,192,107290,1,0,0:0:0:0:
256,192,107653,1,8,0:0:0:0:
256,192,107835,1,0,0:0:0:0:
256,192,107926,1,0,0:0:0:0:
256,192,108017,1,0,0:0:0:0:
256,192,108199,1,0,0:0:0:0:
256,192,108381,1,8,0:0:0:0:
256,192,108562,1,4,0:0:0:0:
256,192,108926,1,0,0:0:0:0:
256,192,109108,1,8,0:0:0:0:
256,192,109290,1,12,0:0:0:0:
256,192,109653,1,0,0:0:0:0:
256,192,109835,1,8,0:0:0:0:
256,192,110017,1,8,0:0:0:0:
256,192,110199,1,4,0:0:0:0:
256,192,110562,1,8,0:0:0:0:
256,192,110744,1,8,0:0:0:0:
256,192,110926,1,0,0:0:0:0:
256,192,111108,1,0,0:0:0:0:
256,192,111290,1,8,0:0:0:0:
256,192,111653,1,0,0:0:0:0:
256,192,112017,1,8,0:0:0:0:
256,192,112199,1,0,0:0:0:0:
256,192,112562,1,0,0:0:0:0:
256,192,112744,1,8,0:0:0:0:
256,192,112926,1,0,0:0:0:0:
256,192,113108,1,8,0:0:0:0:
256,192,113471,1,8,0:0:0:0:
256,192,113653,1,0,0:0:0:0:
256,192,113835,1,8,0:0:0:0:
256,192,114199,1,8,0:0:0:0:
256,192,114381,1,8,0:0:0:0:
256,192,114562,1,0,0:0:0:0:
256,192,114926,1,8,0:0:0:0:
256,192,115290,1,0,0:0:0:0:
256,192,115471,1,0,0:0:0:0:
256,192,115653,1,8,0:0:0:0:
256,192,115835,1,8,0:0:0:0:
256,192,115926,1,8,0:0:0:0:
256,192,116017,1,8,0:0:0:0:
256,192,116199,1,0,0:0:0:0:
256,192,116381,1,8,0:0:0:0:
256,192,116562,1,8,0:0:0:0:
256,192,116744,1,0,0:0:0:0:
256,192,117108,1,8,0:0:0:0:
256,192,117471,1,0,0:0:0:0:
256,192,117653,1,0,0:0:0:0:
256,192,117835,1,8,0:0:0:0:
256,192,118017,1,8,0:0:0:0:
256,192,118199,1,0,0:0:0:0:
256,192,118562,1,8,0:0:0:0:
256,192,118744,1,0,0:0:0:0:
256,192,118926,1,12,0:0:0:0:
256,192,119108,1,8,0:0:0:0:
256,192,119290,1,0,0:0:0:0:
256,192,119471,1,0,0:0:0:0:
256,192,119653,1,8,0:0:0:0:
256,192,120017,1,0,0:0:0:0:
256,192,120108,1,0,0:0:0:0:
256,192,120199,1,0,0:0:0:0:
256,192,120381,1,12,0:0:0:0:
256,192,120653,1,12,0:0:0:0:
256,192,120926,1,4,0:0:0:0:
256,192,121290,1,0,0:0:0:0:
256,192,121471,1,8,0:0:0:0:
256,192,121835,1,4,0:0:0:0:
256,192,122199,1,8,0:0:0:0:
256,192,122562,1,8,0:0:0:0:
256,192,122744,1,8,0:0:0:0:
256,192,123108,1,0,0:0:0:0:
256,192,123471,1,0,0:0:0:0:
256,192,123653,1,8,0:0:0:0:
256,192,123835,1,0,0:0:0:0:
256,192,124562,1,0,0:0:0:0:
256,192,124744,1,4,0:0:0:0:
256,192,125108,1,0,0:0:0:0:
256,192,125471,1,8,0:0:0:0:
256,192,125835,1,8,0:0:0:0:
256,192,126199,1,0,0:0:0:0:
256,192,126744,1,8,0:0:0:0:
256,192,127108,1,0,0:0:0:0:
256,192,127290,1,8,0:0:0:0:
256,192,127471,1,4,0:0:0:0:
256,192,127835,1,0,0:0:0:0:
256,192,128017,1,8,0:0:0:0:
256,192,128199,1,4,0:0:0:0:
256,192,128562,1,0,0:0:0:0:
256,192,128744,1,8,0:0:0:0:
256,192,128926,1,8,0:0:0:0:
256,192,129108,1,4,0:0:0:0:
256,192,129471,1,12,0:0:0:0:
256,192,129835,1,12,0:0:0:0:
256,192,130199,1,8,0:0:0:0:
256,192,130381,1,4,0:0:0:0:
256,192,130744,1,0,0:0:0:0:
256,192,130926,1,8,0:0:0:0:
256,192,131108,1,0,0:0:0:0:
256,192,131199,1,0,0:0:0:0:
256,192,131290,1,0,0:0:0:0:
256,192,131471,1,0,0:0:0:0:
256,192,131653,1,8,0:0:0:0:
256,192,131835,1,0,0:0:0:0:
256,192,132199,1,0,0:0:0:0:
256,192,132381,1,8,0:0:0:0:
256,192,132562,1,0,0:0:0:0:
256,192,132744,1,8,0:0:0:0:
256,192,133108,1,8,0:0:0:0:
256,192,133290,1,8,0:0:0:0:
256,192,133471,1,4,0:0:0:0:
256,192,133835,1,8,0:0:0:0:
256,192,134017,1,0,0:0:0:0:
256,192,134108,1,0,0:0:0:0:
256,192,134199,1,0,0:0:0:0:
256,192,134381,1,0,0:0:0:0:
256,192,134562,1,8,0:0:0:0:
256,192,134744,1,4,0:0:0:0:
256,192,135108,1,0,0:0:0:0:
256,192,135290,1,8,0:0:0:0:
256,192,135471,1,8,0:0:0:0:
256,192,135562,1,8,0:0:0:0:
256,192,135653,1,8,0:0:0:0:
256,192,135835,1,0,0:0:0:0:
256,192,136017,1,8,0:0:0:0:
256,192,136199,1,4,0:0:0:0:
256,192,136381,12,0,137108,0:0:0:0:
256,192,137290,5,8,0:0:0:0:
256,192,137381,1,8,0:0:0:0:
256,192,137471,1,8,0:0:0:0:
256,192,137653,1,8,0:0:0:0:
256,192,137835,1,4,0:0:0:0:
256,192,138017,1,8,0:0:0:0:
256,192,138199,1,0,0:0:0:0:
256,192,138381,1,8,0:0:0:0:
256,192,138562,1,0,0:0:0:0:
256,192,138835,1,8,0:0:0:0:
256,192,139108,1,8,0:0:0:0:
256,192,139290,1,0,0:0:0:0:
256,192,139471,1,8,0:0:0:0:
256,192,139653,1,0,0:0:0:0:
256,192,139744,1,0,0:0:0:0:
256,192,139835,1,0,0:0:0:0:
256,192,140017,1,0,0:0:0:0:
256,192,140381,1,0,0:0:0:0:
256,192,140562,1,8,0:0:0:0:
256,192,140744,1,0,0:0:0:0:
256,192,140835,1,0,0:0:0:0:
256,192,140926,1,0,0:0:0:0:
256,192,141108,1,8,0:0:0:0:
256,192,141290,1,8,0:0:0:0:
256,192,141471,1,0,0:0:0:0:
256,192,141744,1,8,0:0:0:0:
256,192,142017,1,8,0:0:0:0:
256,192,142199,1,0,0:0:0:0:
256,192,142381,1,8,0:0:0:0:
256,192,142471,1,8,0:0:0:0:
256,192,142562,1,8,0:0:0:0:
256,192,142744,1,8,0:0:0:0:
256,192,142926,1,0,0:0:0:0:
256,192,143290,1,0,0:0:0:0:
256,192,143471,1,8,0:0:0:0:
256,192,143653,1,4,0:0:0:0:
256,192,143926,1,8,0:0:0:0:
256,192,144199,1,8,0:0:0:0:
256,192,144381,1,0,0:0:0:0:
256,192,144562,1,8,0:0:0:0:
256,192,144744,1,0,0:0:0:0:
256,192,144926,1,8,0:0:0:0:
256,192,145017,1,8,0:0:0:0:
256,192,145108,1,8,0:0:0:0:
256,192,145381,1,0,0:0:0:0:
256,192,145653,1,8,0:0:0:0:
256,192,145835,1,0,0:0:0:0:
256,192,146562,1,4,0:0:0:0:
256,192,146926,1,8,0:0:0:0:
256,192,147108,1,0,0:0:0:0:
256,192,147199,1,0,0:0:0:0:
256,192,147290,1,0,0:0:0:0:
256,192,147471,1,0,0:0:0:0:
256,192,147653,1,8,0:0:0:0:
256,192,147835,1,4,0:0:0:0:
256,192,148199,1,0,0:0:0:0:
256,192,148381,1,8,0:0:0:0:
256,192,148562,1,4,0:0:0:0:
256,192,148926,1,0,0:0:0:0:
256,192,149108,1,8,0:0:0:0:
256,192,149199,1,8,0:0:0:0:
256,192,149290,1,8,0:0:0:0:
256,192,149471,1,4,0:0:0:0:
256,192,149653,1,8,0:0:0:0:
256,192,149835,1,0,0:0:0:0:
256,192,150017,1,8,0:0:0:0:
256,192,150199,1,0,0:0:0:0:
256,192,150471,1,0,0:0:0:0:
256,192,150744,1,8,0:0:0:0:
256,192,150926,1,0,0:0:0:0:
256,192,151108,1,8,0:0:0:0:
256,192,151290,1,0,0:0:0:0:
256,192,151381,1,0,0:0:0:0:
256,192,151471,1,0,0:0:0:0:
256,192,151653,1,0,0:0:0:0:
256,192,152017,1,0,0:0:0:0:
256,192,152199,1,8,0:0:0:0:
256,192,152381,1,0,0:0:0:0:
256,192,152471,1,0,0:0:0:0:
256,192,152562,1,0,0:0:0:0:
256,192,152744,1,8,0:0:0:0:
256,192,152926,1,8,0:0:0:0:
256,192,153108,1,0,0:0:0:0:
256,192,153381,1,8,0:0:0:0:
256,192,153653,1,8,0:0:0:0:
256,192,153835,1,0,0:0:0:0:
256,192,154017,1,8,0:0:0:0:
256,192,154108,1,8,0:0:0:0:
256,192,154199,1,8,0:0:0:0:
256,192,154381,1,8,0:0:0:0:
256,192,154562,1,0,0:0:0:0:
256,192,154926,1,0,0:0:0:0:
256,192,155108,1,8,0:0:0:0:
256,192,155290,1,4,0:0:0:0:
256,192,155653,1,8,0:0:0:0:
256,192,155835,1,8,0:0:0:0:
256,192,156017,1,0,0:0:0:0:
256,192,156290,1,8,0:0:0:0:
256,192,156562,1,8,0:0:0:0:
256,192,156744,1,4,0:0:0:0:
256,192,156926,1,8,0:0:0:0:
256,192,157108,1,0,0:0:0:0:
256,192,157290,1,8,0:0:0:0:
256,192,157471,1,0,0:0:0:0:
256,192,157653,1,8,0:0:0:0:
256,192,157744,1,8,0:0:0:0:
256,192,157835,1,8,0:0:0:0:
256,192,158017,1,8,0:0:0:0:
256,192,158199,1,4,0:0:0:0:
256,192,158562,1,8,0:0:0:0:
256,192,158744,1,0,0:0:0:0:
256,192,158926,1,8,0:0:0:0:
256,192,159290,1,8,0:0:0:0:
256,192,159471,1,0,0:0:0:0:
256,192,159835,1,0,0:0:0:0:
256,192,160017,1,8,0:0:0:0:
256,192,160199,1,0,0:0:0:0:
256,192,160562,1,8,0:0:0:0:
256,192,160744,1,8,0:0:0:0:
256,192,160926,1,4,0:0:0:0:
256,192,161290,1,0,0:0:0:0:
256,192,161471,1,8,0:0:0:0:
256,192,161653,1,0,0:0:0:0:
256,192,161744,1,0,0:0:0:0:
256,192,161835,1,0,0:0:0:0:
256,192,162017,1,0,0:0:0:0:
256,192,162199,1,8,0:0:0:0:
256,192,162562,1,8,0:0:0:0:
256,192,162744,1,0,0:0:0:0:
256,192,162926,1,8,0:0:0:0:
256,192,163108,1,0,0:0:0:0:
256,192,163290,1,8,0:0:0:0:
256,192,163381,1,8,0:0:0:0:
256,192,163471,1,8,0:0:0:0:
256,192,163653,1,8,0:0:0:0:
256,192,163835,1,4,0:0:0:0:
256,192,164199,1,0,0:0:0:0:
256,192,164381,1,8,0:0:0:0:
256,192,164562,1,0,0:0:0:0:
256,192,164653,1,0,0:0:0:0:
256,192,164744,1,0,0:0:0:0:
256,192,164926,1,0,0:0:0:0:
256,192,165108,1,8,0:0:0:0:
256,192,165290,1,8,0:0:0:0:
256,192,165471,1,4,0:0:0:0:
256,192,166926,1,4,0:0:0:0:
256,192,167290,1,0,0:0:0:0:
256,192,167471,1,12,0:0:0:0:
256,192,167835,1,0,0:0:0:0:
256,192,168017,1,8,0:0:0:0:
256,192,168199,1,12,0:0:0:0:
256,192,168562,1,0,0:0:0:0:
256,192,168744,1,0,0:0:0:0:
256,192,168926,1,8,0:0:0:0:
256,192,169108,1,0,0:0:0:0:
256,192,169199,1,0,0:0:0:0:
256,192,169290,1,0,0:0:0:0:
256,192,169471,1,8,0:0:0:0:
256,192,169562,1,8,0:0:0:0:
256,192,169653,1,8,0:0:0:0:
256,192,169835,1,4,0:0:0:0:
256,192,170199,1,8,0:0:0:0:
256,192,170562,1,0,0:0:0:0:
256,192,170744,1,0,0:0:0:0:
256,192,170926,1,8,0:0:0:0:
256,192,171108,1,0,0:0:0:0:
256,192,171471,1,8,0:0:0:0:
256,192,171653,1,0,0:0:0:0:
256,192,171835,1,8,0:0:0:0:
256,192,172199,1,0,0:0:0:0:
256,192,172381,1,8,0:0:0:0:
256,192,172562,1,8,0:0:0:0:
256,192,172926,1,0,0:0:0:0:
256,192,173108,1,0,0:0:0:0:
256,192,173290,1,8,0:0:0:0:
256,192,173653,1,8,0:0:0:0:
256,192,173835,1,0,0:0:0:0:
256,192,174017,1,8,0:0:0:0:
256,192,174381,1,8,0:0:0:0:
256,192,174562,1,8,0:0:0:0:
256,192,174744,1,0,0:0:0:0:
256,192,175108,1,8,0:0:0:0:
256,192,175471,1,8,0:0:0:0:
256,192,175653,1,4,0:0:0:0:
256,192,175835,1,0,0:0:0:0:
256,192,176017,1,8,0:0:0:0:
256,192,176199,1,8,0:0:0:0:
256,192,176290,1,8,0:0:0:0:
256,192,176381,1,8,0:0:0:0:
256,192,176562,1,0,0:0:0:0:
256,192,176744,1,8,0:0:0:0:
256,192,177108,1,0,0:0:0:0:
256,192,177290,1,0,0:0:0:0:
256,192,177471,1,8,0:0:0:0:
256,192,177653,1,0,0:0:0:0:
256,192,177744,1,0,0:0:0:0:
256,192,177835,1,0,0:0:0:0:
256,192,178017,1,0,0:0:0:0:
256,192,178199,1,8,0:0:0:0:
256,192,178562,1,8,0:0:0:0:
256,192,178744,1,0,0:0:0:0:
256,192,178926,1,8,0:0:0:0:
256,192,179108,1,0,0:0:0:0:
256,192,179290,1,8,0:0:0:0:
256,192,179471,1,0,0:0:0:0:
256,192,179562,1,0,0:0:0:0:
256,192,179653,1,0,0:0:0:0:
256,192,179835,1,12,0:0:0:0:
256,192,180199,1,0,0:0:0:0:
256,192,180381,1,8,0:0:0:0:
256,192,180562,1,4,0:0:0:0:
256,192,180926,1,8,0:0:0:0:
256,192,181017,1,8,0:0:0:0:
256,192,181108,1,8,0:0:0:0:
256,192,181290,1,8,0:0:0:0:
256,192,181471,1,4,0:0:0:0:
256,192,181835,1,8,0:0:0:0:
256,192,182199,1,0,0:0:0:0:
256,192,182381,1,0,0:0:0:0:
256,192,182562,1,8,0:0:0:0:
256,192,182926,1,0,0:0:0:0:
256,192,183290,1,8,0:0:0:0:
256,192,183471,1,0,0:0:0:0:
256,192,183653,1,8,0:0:0:0:
256,192,184017,1,8,0:0:0:0:
256,192,184381,1,4,0:0:0:0:
256,192,184562,1,8,0:0:0:0:
256,192,184653,1,8,0:0:0:0:
256,192,184744,1,8,0:0:0:0:
256,192,184926,1,8,0:0:0:0:
256,192,185108,1,0,0:0:0:0:
256,192,185199,1,0,0:0:0:0:
256,192,185290,1,0,0:0:0:0:
256,192,185471,1,8,0:0:0:0:
256,192,185653,1,8,0:0:0:0:
256,192,186017,1,8,0:0:0:0:
256,192,186199,1,0,0:0:0:0:
256,192,186381,1,8,0:0:0:0:
256,192,186562,1,0,0:0:0:0:
256,192,186926,1,8,0:0:0:0:
256,192,187290,1,4,0:0:0:0:
256,192,187562,1,8,0:0:0:0:
256,192,187835,1,0,0:0:0:0:
256,192,188017,1,8,0:0:0:0:
256,192,188744,1,0,0:0:0:0:
256,192,188926,1,8,0:0:0:0:
256,192,189108,1,0,0:0:0:0:
256,192,189290,1,0,0:0:0:0:
256,192,189471,1,8,0:0:0:0:
256,192,189835,1,8,0:0:0:0:
256,192,190017,1,8,0:0:0:0:
256,192,190199,1,4,0:0:0:0:
256,192,190562,1,0,0:0:0:0:
256,192,190744,1,8,0:0:0:0:
256,192,190926,1,8,0:0:0:0:
256,192,191108,1,0,0:0:0:0:
256,192,191290,1,8,0:0:0:0:
256,192,191471,1,0,0:0:0:0:
256,192,191835,1,8,0:0:0:0:
256,192,192017,1,0,0:0:0:0:
256,192,192199,1,0,0:0:0:0:
256,192,192381,1,8,0:0:0:0:
256,192,192744,1,8,0:0:0:0:
256,192,192926,1,8,0:0:0:0:
256,192,193017,1,8,0:0:0:0:
256,192,193108,1,8,0:0:0:0:
256,192,193290,1,0,0:0:0:0:
256,192,193471,1,0,0:0:0:0:
256,192,193653,1,8,0:0:0:0:
256,192,194017,1,0,0:0:0:0:
256,192,194199,1,8,0:0:0:0:
256,192,194381,1,0,0:0:0:0:
256,192,194471,1,0,0:0:0:0:
256,192,194562,1,0,0:0:0:0:
256,192,194744,1,8,0:0:0:0:
256,192,195108,1,0,0:0:0:0:
256,192,195290,1,8,0:0:0:0:
256,192,195471,1,0,0:0:0:0:
256,192,195653,1,8,0:0:0:0:
256,192,195744,1,8,0:0:0:0:
256,192,195835,1,8,0:0:0:0:
256,192,196017,1,4,0:0:0:0:
256,192,196381,1,8,0:0:0:0:
256,192,196562,1,0,0:0:0:0:
256,192,196744,1,0,0:0:0:0:
256,192,196926,1,8,0:0:0:0:
256,192,197017,1,8,0:0:0:0:
256,192,197108,1,8,0:0:0:0:
256,192,197290,1,4,0:0:0:0:
256,192,198926,1,8,0:0:0:0:
256,192,199471,1,8,0:0:0:0:
256,192,200017,1,0,0:0:0:0:
256,192,200381,1,0,0:0:0:0:
256,192,201108,1,8,0:0:0:0:
256,192,201381,1,8,0:0:0:0:
256,192,201653,1,0,0:0:0:0:
256,192,201835,1,0,0:0:0:0:
256,192,202381,1,8,0:0:0:0:
256,192,202744,1,0,0:0:0:0:
256,192,203108,1,0,0:0:0:0:
256,192,203290,1,0,0:0:0:0:
256,192,203835,1,8,0:0:0:0:
256,192,204017,1,0,0:0:0:0:
256,192,204562,1,0,0:0:0:0:
256,192,204926,1,8,0:0:0:0:
256,192,205290,1,0,0:0:0:0:
256,192,205653,1,0,0:0:0:0:
256,192,205835,1,0,0:0:0:0:
256,192,206017,1,8,0:0:0:0:
256,192,206199,1,0,0:0:0:0:
256,192,206562,1,8,0:0:0:0:
256,192,206926,1,8,0:0:0:0:
256,192,207471,1,0,0:0:0:0:
256,192,208017,1,8,0:0:0:0:
256,192,208199,1,0,0:0:0:0:
256,192,208562,1,0,0:0:0:0:
256,192,208926,1,8,0:0:0:0:
256,192,210381,1,8,0:0:0:0:
256,192,210562,1,8,0:0:0:0:
256,192,210926,1,0,0:0:0:0:
256,192,211108,1,8,0:0:0:0:
256,192,211471,1,0,0:0:0:0:
256,192,211835,1,0,0:0:0:0:
256,192,212562,1,8,0:0:0:0:
256,192,212744,1,0,0:0:0:0:
256,192,213017,1,0,0:0:0:0:
256,192,213290,1,8,0:0:0:0:
256,192,213471,1,0,0:0:0:0:
256,192,214199,1,8,0:0:0:0:
256,192,214441,1,8,0:0:0:0:
256,192,214684,1,8,0:0:0:0:
256,192,214926,1,0,0:0:0:0:
256,192,215471,1,0,0:0:0:0:
256,192,216017,1,8,0:0:0:0:
256,192,216381,1,8,0:0:0:0:
256,192,217471,1,8,0:0:0:0:
256,192,217653,1,0,0:0:0:0:
256,192,217835,1,0,0:0:0:0:
256,192,220017,1,8,0:0:0:0:
256,192,220199,1,8,0:0:0:0:
256,192,220290,1,8,0:0:0:0:
256,192,220381,1,8,0:0:0:0:
256,192,220562,1,8,0:0:0:0:
256,192,220744,1,4,0:0:0:0:
256,192,220926,1,8,0:0:0:0:
256,192,221108,1,0,0:0:0:0:
256,192,221290,1,8,0:0:0:0:
256,192,221471,1,0,0:0:0:0:
256,192,221744,1,8,0:0:0:0:
256,192,222017,1,8,0:0:0:0:
256,192,222199,1,0,0:0:0:0:
256,192,222381,1,8,0:0:0:0:
256,192,222562,1,0,0:0:0:0:
256,192,222653,1,0,0:0:0:0:
256,192,222744,1,0,0:0:0:0:
256,192,222926,1,0,0:0:0:0:
256,192,223290,1,0,0:0:0:0:
256,192,223471,1,8,0:0:0:0:
256,192,223653,1,0,0:0:0:0:
256,192,223744,1,0,0:0:0:0:
256,192,223835,1,0,0:0:0:0:
256,192,224017,1,8,0:0:0:0:
256,192,224199,1,8,0:0:0:0:
256,192,224381,1,0,0:0:0:0:
256,192,224653,1,8,0:0:0:0:
256,192,224926,1,8,0:0:0:0:
256,192,225108,1,0,0:0:0:0:
256,192,225290,1,8,0:0:0:0:
256,192,225381,1,8,0:0:0:0:
256,192,225471,1,8,0:0:0:0:
256,192,225653,1,8,0:0:0:0:
256,192,225835,1,0,0:0:0:0:
256,192,226017,1,0,0:0:0:0:
256,192,226108,1,0,0:0:0:0:
256,192,226199,1,0,0:0:0:0:
256,192,226381,1,8,0:0:0:0:
256,192,226562,1,4,0:0:0:0:
256,192,226835,1,8,0:0:0:0:
256,192,227108,1,8,0:0:0:0:
256,192,227290,1,0,0:0:0:0:
256,192,227471,1,8,0:0:0:0:
256,192,227653,1,0,0:0:0:0:
256,192,227835,1,8,0:0:0:0:
256,192,227926,1,8,0:0:0:0:
256,192,228017,1,8,0:0:0:0:
256,192,228290,1,0,0:0:0:0:
256,192,228562,1,8,0:0:0:0:
256,192,228744,1,0,0:0:0:0:
256,192,229471,1,4,0:0:0:0:
256,192,229653,1,0,0:0:0:0:
256,192,229835,1,8,0:0:0:0:
256,192,230017,1,0,0:0:0:0:
256,192,230108,1,0,0:0:0:0:
256,192,230199,1,0,0:0:0:0:
256,192,230381,1,0,0:0:0:0:
256,192,230562,1,8,0:0:0:0:
256,192,230744,1,4,0:0:0:0:
256,192,231108,1,0,0:0:0:0:
256,192,231290,1,8,0:0:0:0:
256,192,231471,1,4,0:0:0:0:
256,192,231835,1,0,0:0:0:0:
256,192,232017,1,8,0:0:0:0:
256,192,232108,1,8,0:0:0:0:
256,192,232199,1,8,0:0:0:0:
256,192,232381,1,4,0:0:0:0:
256,192,232562,1,8,0:0:0:0:
256,192,232744,1,0,0:0:0:0:
256,192,232926,1,8,0:0:0:0:
256,192,233108,1,0,0:0:0:0:
256,192,233381,1,0,0:0:0:0:
256,192,233653,1,8,0:0:0:0:
256,192,233835,1,0,0:0:0:0:
256,192,234017,1,8,0:0:0:0:
256,192,234199,1,0,0:0:0:0:
256,192,234290,1,0,0:0:0:0:
256,192,234381,1,0,0:0:0:0:
256,192,234562,1,0,0:0:0:0:
256,192,234926,1,0,0:0:0:0:
256,192,235108,1,8,0:0:0:0:
256,192,235290,1,0,0:0:0:0:
256,192,235381,1,0,0:0:0:0:
256,192,235471,1,0,0:0:0:0:
256,192,235653,1,8,0:0:0:0:
256,192,235835,1,8,0:0:0:0:
256,192,236017,1,0,0:0:0:0:
256,192,236290,1,8,0:0:0:0:
256,192,236562,1,8,0:0:0:0:
256,192,236744,1,0,0:0:0:0:
256,192,236926,1,8,0:0:0:0:
256,192,237017,1,8,0:0:0:0:
256,192,237108,1,8,0:0:0:0:
256,192,237290,1,8,0:0:0:0:
256,192,237471,1,0,0:0:0:0:
256,192,237835,1,0,0:0:0:0:
256,192,238017,1,8,0:0:0:0:
256,192,238199,1,4,0:0:0:0:
256,192,238562,1,8,0:0:0:0:
256,192,238744,1,8,0:0:0:0:
256,192,238926,1,0,0:0:0:0:
256,192,239199,1,8,0:0:0:0:
256,192,239471,1,8,0:0:0:0:
256,192,239653,1,4,0:0:0:0:
256,192,239835,1,8,0:0:0:0:
256,192,240017,1,0,0:0:0:0:
256,192,240199,1,8,0:0:0:0:
256,192,240381,1,0,0:0:0:0:
256,192,240562,1,8,0:0:0:0:
256,192,240653,1,8,0:0:0:0:
256,192,240744,1,8,0:0:0:0:
256,192,240926,1,8,0:0:0:0:
256,192,241108,1,4,0:0:0:0:
256,192,241471,1,8,0:0:0:0:
256,192,241653,1,0,0:0:0:0:
256,192,241835,1,8,0:0:0:0:
256,192,242199,1,8,0:0:0:0:
256,192,242381,1,0,0:0:0:0:
256,192,242744,1,0,0:0:0:0:
256,192,242926,1,8,0:0:0:0:
256,192,243108,1,0,0:0:0:0:
256,192,243471,1,8,0:0:0:0:
256,192,243653,1,8,0:0:0:0:
256,192,243835,1,4,0:0:0:0:
256,192,244199,1,8,0:0:0:0:
256,192,244290,1,8,0:0:0:0:
256,192,244381,1,8,0:0:0:0:
256,192,244562,1,0,0:0:0:0:
256,192,244744,1,8,0:0:0:0:
256,192,244926,1,0,0:0:0:0:
256,192,245108,1,8,0:0:0:0:
256,192,245471,1,8,0:0:0:0:
256,192,245653,1,0,0:0:0:0:
256,192,245835,1,8,0:0:0:0:
256,192,246017,1,0,0:0:0:0:
256,192,246199,1,8,0:0:0:0:
256,192,246290,1,8,0:0:0:0:
256,192,246381,1,8,0:0:0:0:
256,192,246562,1,8,0:0:0:0:
256,192,246744,1,4,0:0:0:0:
256,192,247108,1,0,0:0:0:0:
256,192,247290,1,8,0:0:0:0:
256,192,247471,1,0,0:0:0:0:
256,192,247562,1,0,0:0:0:0:
256,192,247653,1,0,0:0:0:0:
256,192,247835,1,0,0:0:0:0:
256,192,248017,1,8,0:0:0:0:
256,192,248199,1,8,0:0:0:0:
256,192,248381,1,4,0:0:0:0:
256,192,249835,1,4,0:0:0:0:
256,192,250199,1,8,0:0:0:0:
256,192,250381,1,4,0:0:0:0:
256,192,250744,1,0,0:0:0:0:
256,192,250926,1,8,0:0:0:0:
256,192,251108,1,4,0:0:0:0:
256,192,251471,1,0,0:0:0:0:
256,192,251653,1,8,0:0:0:0:
256,192,251835,1,0,0:0:0:0:
256,192,252017,1,8,0:0:0:0:
256,192,252108,1,8,0:0:0:0:
256,192,252199,1,8,0:0:0:0:
256,192,252381,1,8,0:0:0:0:
256,192,252562,1,4,0:0:0:0:
256,192,252744,12,0,255653,0:0:0:0:
