osu file format v14

[General]
AudioFilename: Velvet Rays.mp3
AudioLeadIn: 0
PreviewTime: 58926
Countdown: 0
SampleSet: Normal
StackLeniency: 0.7
Mode: 1
LetterboxInBreaks: 0
WidescreenStoryboard: 0

[Editor]
DistanceSpacing: 1.1
BeatDivisor: 4
GridSize: 32
TimelineZoom: 1

[Metadata]
Title:Velvet Rays
TitleUnicode:Velvet Rays
Artist:Amamiya Sora
ArtistUnicode:雨宮天
Creator:Nardoxyribonucleic
Version:Kantan
Source:ヴァリアントナイツ
Tags:Taiko Valiant Knights Opening qoot8123
BeatmapID:803671
BeatmapSetID:354587

[Difficulty]
HPDrainRate:4
CircleSize:5
OverallDifficulty:3
ApproachRate:3
SliderMultiplier:1.4
SliderTickRate:1

[Events]
//Background and Video events
0,0,"BG.jpg",0,0
//Break Periods
//Storyboard Layer 0 (Background)
//Storyboard Layer 1 (Fail)
//Storyboard Layer 2 (Pass)
//Storyboard Layer 3 (Foreground)
//Storyboard Sound Samples

[TimingPoints]
930,357.142857142857,4,1,0,50,1,0
1644,368.890255149093,4,1,0,50,1,8
1644,-96.8054211035818,4,1,0,50,0,0
2381,347.423277359583,4,1,0,50,1,0
2381,-102.774922918808,4,1,0,50,0,0
3075,403.090359422237,4,1,0,50,1,8
3075,-88.5739592559787,4,1,0,50,0,0
3881,385.232744783307,4,1,0,50,1,0
3881,-92.678405931418,4,1,0,50,0,0
5421,366.524129505192,4,1,0,50,1,0
5421,-97.4658869395711,4,1,0,50,0,0
6887,373.59900373599,4,1,0,50,1,0
6887,-95.6022944550669,4,1,0,50,0,0
8381,363.636363636364,4,1,0,65,1,0
14199,-100,4,1,0,80,0,0
20017,-100,4,1,0,75,0,0
43290,-100,4,1,0,60,0,0
48926,-100,4,1,0,80,0,0
59290,-100,4,1,0,90,0,1
88381,-100,4,1,0,80,0,0
98563,-100,4,1,0,75,0,0
121835,-100,4,1,0,60,0,0
127472,-100,4,1,0,80,0,0
137835,-100,4,1,0,90,0,1
166926,-100,4,1,0,80,0,0
181472,-100,4,1,0,70,0,0
198926,-100,4,1,0,60,0,0
220744,-100,4,1,0,90,0,1
249835,-100,4,1,0,80,0,0
252744,-100,4,1,0,50,0,0
254199,-100,4,1,0,40,0,0
255654,-100,4,1,0,30,0,0

[HitObjects]
256,192,930,5,8,0:0:0:0:
256,192,2381,1,8,0:0:0:0:
256,192,3478,1,0,0:0:0:0:
256,192,3881,1,8,0:0:0:0:
256,192,4651,1,0,0:0:0:0:
256,192,5421,1,8,0:0:0:0:
256,192,6887,12,0,8007,0:0:0:0:
256,192,8381,5,12,0:0:0:0:
256,192,9471,1,8,0:0:0:0:
256,192,9835,1,0,0:0:0:0:
256,192,10562,1,8,0:0:0:0:
256,192,11290,1,4,0:0:0:0:
256,192,12381,1,8,0:0:0:0:
256,192,12744,1,12,0:0:0:0:
256,192,13471,1,0,0:0:0:0:
256,192,13835,1,8,0:0:0:0:
256,192,14199,1,4,0:0:0:0:
256,192,14926,1,8,0:0:0:0:
256,192,15653,1,0,0:0:0:0:
256,192,16017,1,0,0:0:0:0:
256,192,16381,1,8,0:0:0:0:
256,192,17108,1,4,0:0:0:0:
256,192,18381,1,12,0:0:0:0:
256,192,19108,1,4,0:0:0:0:
256,192,20017,1,4,0:0:0:0:
256,192,20744,1,0,0:0:0:0:
256,192,21108,1,8,0:0:0:0:
256,192,21471,1,0,0:0:0:0:
256,192,22926,1,8,0:0:0:0:
256,192,23653,1,8,0:0:0:0:
256,192,24017,1,0,0:0:0:0:
256,192,24381,1,8,0:0:0:0:
256,192,25835,1,0,0:0:0:0:
256,192,26562,1,0,0:0:0:0:
256,192,26926,1,8,0:0:0:0:
256,192,27290,1,0,0:0:0:0:
256,192,28017,1,8,0:0:0:0:
256,192,28381,1,8,0:0:0:0:
256,192,28744,1,0,0:0:0:0:
256,192,30017,1,4,0:0:0:0:
256,192,30744,1,12,0:0:0:0:
256,192,31653,1,4,0:0:0:0:
256,192,32381,1,0,0:0:0:0:
256,192,32744,1,8,0:0:0:0:
256,192,33108,1,0,0:0:0:0:
256,192,34562,1,0,0:0:0:0:
256,192,35290,1,8,0:0:0:0:
256,192,35653,1,8,0:0:0:0:
256,192,36017,1,0,0:0:0:0:
256,192,37471,1,4,0:0:0:0:
256,192,38199,1,8,0:0:0:0:
256,192,38926,1,0,0:0:0:0:
256,192,39290,1,8,0:0:0:0:
256,192,39653,1,0,0:0:0:0:
256,192,40381,1,12,0:0:0:0:
256,192,40744,1,0,0:0:0:0:
256,192,41108,1,8,0:0:0:0:
256,192,41471,1,8,0:0:0:0:
256,192,41835,1,0,0:0:0:0:
256,192,42381,1,4,0:0:0:0:
256,192,43290,1,4,0:0:0:0:
256,192,44744,1,0,0:0:0:0:
256,192,45471,1,8,0:0:0:0:
256,192,46199,1,4,0:0:0:0:
256,192,47653,1,0,0:0:0:0:
256,192,48199,1,8,0:0:0:0:
256,192,48926,1,4,0:0:0:0:
256,192,49653,1,4,0:0:0:0:
256,192,50562,1,4,0:0:0:0:
256,192,50926,1,12,0:0:0:0:
256,192,51290,1,12,0:0:0:0:
256,192,51835,1,4,0:0:0:0:
256,192,52744,1,0,0:0:0:0:
256,192,53471,1,8,0:0:0:0:
256,192,54199,1,8,0:0:0:0:
256,192,54562,1,8,0:0:0:0:
256,192,54926,1,4,0:0:0:0:
256,192,56199,1,4,0:0:0:0:
256,192,57108,1,8,0:0:0:0:
256,192,57653,1,4,0:0:0:0:
256,192,59290,5,4,0:0:0:0:
256,192,60017,1,8,0:0:0:0:
256,192,60381,1,0,0:0:0:0:
256,192,60744,1,8,0:0:0:0:
256,192,61471,1,0,0:0:0:0:
256,192,62199,1,0,0:0:0:0:
256,192,62562,1,8,0:0:0:0:
256,192,62926,1,0,0:0:0:0:
256,192,63653,1,8,0:0:0:0:
256,192,65108,1,4,0:0:0:0:
256,192,65471,1,8,0:0:0:0:
256,192,65835,1,0,0:0:0:0:
256,192,66562,1,8,0:0:0:0:
256,192,66926,1,0,0:0:0:0:
256,192,67290,1,8,0:0:0:0:
256,192,68017,1,4,0:0:0:0:
256,192,68744,1,8,0:0:0:0:
256,192,69290,1,4,0:0:0:0:
256,192,70017,1,12,0:0:0:0:
256,192,70926,1,4,0:0:0:0:
256,192,71653,1,8,0:0:0:0:
256,192,72017,1,0,0:0:0:0:
256,192,72381,1,8,0:0:0:0:
256,192,73108,1,0,0:0:0:0:
256,192,73835,1,0,0:0:0:0:
256,192,74199,1,8,0:0:0:0:
256,192,74562,1,0,0:0:0:0:
256,192,75290,1,8,0:0:0:0:
256,192,76744,1,12,0:0:0:0:
256,192,77471,1,0,0:0:0:0:
256,192,78199,1,8,0:0:0:0:
256,192,78562,1,8,0:0:0:0:
256,192,78926,1,0,0:0:0:0:
256,192,79653,1,4,0:0:0:0:
256,192,80381,1,8,0:0:0:0:
256,192,81108,1,0,0:0:0:0:
256,192,81471,1,8,0:0:0:0:
256,192,81835,1,0,0:0:0:0:
256,192,82381,1,4,0:0:0:0:
256,192,83290,1,0,0:0:0:0:
256,192,83653,1,8,0:0:0:0:
256,192,84017,1,8,0:0:0:0:
256,192,84744,1,8,0:0:0:0:
256,192,85290,1,4,0:0:0:0:
256,192,86199,1,8,0:0:0:0:
256,192,86562,1,8,0:0:0:0:
256,192,86926,1,4,0:0:0:0:
256,192,88381,1,12,0:0:0:0:
256,192,88926,1,12,0:0:0:0:
256,192,89653,1,4,0:0:0:0:
256,192,90562,1,8,0:0:0:0:
256,192,91108,1,4,0:0:0:0:
256,192,92017,1,8,0:0:0:0:
256,192,92562,1,8,0:0:0:0:
256,192,93471,1,0,0:0:0:0:
256,192,94017,1,4,0:0:0:0:
256,192,94926,1,0,0:0:0:0:
256,192,95471,1,12,0:0:0:0:
256,192,96199,1,4,0:0:0:0:
256,192,96926,1,12,0:0:0:0:
256,192,97653,1,4,0:0:0:0:
256,192,98562,1,4,0:0:0:0:
256,192,99290,1,0,0:0:0:0:
256,192,99653,1,8,0:0:0:0:
256,192,100017,1,0,0:0:0:0:
256,192,101471,1,8,0:0:0:0:
256,192,102199,1,8,0:0:0:0:
256,192,102562,1,0,0:0:0:0:
256,192,102926,1,8,0:0:0:0:
256,192,104381,1,0,0:0:0:0:
256,192,105108,1,0,0:0:0:0:
256,192,105471,1,8,0:0:0:0:
256,192,105835,1,0,0:0:0:0:
256,192,106562,1,8,0:0:0:0:
256,192,106926,1,8,0:0:0:0:
256,192,107290,1,0,0:0:0:0:
256,192,108562,1,4,0:0:0:0:
256,192,109290,1,12,0:0:0:0:
256,192,110199,1,4,0:0:0:0:
256,192,110926,1,0,0:0:0:0:
256,192,111290,1,8,0:0:0:0:
256,192,111653,1,0,0:0:0:0:
256,192,113108,1,0,0:0:0:0:
256,192,113835,1,8,0:0:0:0:
256,192,114199,1,8,0:0:0:0:
256,192,114562,1,0,0:0:0:0:
256,192,116017,1,4,0:0:0:0:
256,192,116744,1,8,0:0:0:0:
256,192,117471,1,0,0:0:0:0:
256,192,117835,1,8,0:0:0:0:
256,192,118199,1,0,0:0:0:0:
256,192,118926,1,12,0:0:0:0:
256,192,119290,1,0,0:0:0:0:
256,192,119653,1,8,0:0:0:0:
256,192,120017,1,8,0:0:0:0:
256,192,120381,1,0,0:0:0:0:
256,192,120926,1,4,0:0:0:0:
256,192,121835,1,4,0:0:0:0:
256,192,123290,1,8,0:0:0:0:
256,192,124017,1,8,0:0:0:0:
256,192,124744,1,4,0:0:0:0:
256,192,126199,1,0,0:0:0:0:
256,192,126744,1,8,0:0:0:0:
256,192,127471,1,4,0:0:0:0:
256,192,128199,1,4,0:0:0:0:
256,192,129108,1,4,0:0:0:0:
256,192,129471,1,12,0:0:0:0:
256,192,129835,1,12,0:0:0:0:
256,192,130381,1,4,0:0:0:0:
256,192,131290,1,0,0:0:0:0:
256,192,132017,1,8,0:0:0:0:
256,192,132744,1,8,0:0:0:0:
256,192,133108,1,8,0:0:0:0:
256,192,133471,1,4,0:0:0:0:
256,192,134744,1,4,0:0:0:0:
256,192,135653,1,8,0:0:0:0:
256,192,136199,1,4,0:0:0:0:
256,192,137835,5,4,0:0:0:0:
256,192,138562,1,8,0:0:0:0:
256,192,138926,1,0,0:0:0:0:
256,192,139290,1,8,0:0:0:0:
256,192,140017,1,0,0:0:0:0:
256,192,140744,1,0,0:0:0:0:
256,192,141108,1,8,0:0:0:0:
256,192,141471,1,0,0:0:0:0:
256,192,142199,1,8,0:0:0:0:
256,192,143653,1,4,0:0:0:0:
256,192,144017,1,8,0:0:0:0:
256,192,144381,1,0,0:0:0:0:
256,192,145108,1,8,0:0:0:0:
256,192,145471,1,0,0:0:0:0:
256,192,145835,1,8,0:0:0:0:
256,192,146562,1,4,0:0:0:0:
256,192,147290,1,8,0:0:0:0:
256,192,147835,1,4,0:0:0:0:
256,192,148562,1,12,0:0:0:0:
256,192,149471,1,4,0:0:0:0:
256,192,150199,1,8,0:0:0:0:
256,192,150562,1,0,0:0:0:0:
256,192,150926,1,8,0:0:0:0:
256,192,151653,1,0,0:0:0:0:
256,192,152381,1,0,0:0:0:0:
256,192,152744,1,8,0:0:0:0:
256,192,153108,1,0,0:0:0:0:
256,192,153835,1,8,0:0:0:0:
256,192,155290,1,12,0:0:0:0:
256,192,156017,1,0,0:0:0:0:
256,192,156744,1,8,0:0:0:0:
256,192,157108,1,8,0:0:0:0:
256,192,157471,1,0,0:0:0:0:
256,192,158199,1,4,0:0:0:0:
256,192,158926,1,8,0:0:0:0:
256,192,159653,1,0,0:0:0:0:
256,192,160017,1,8,0:0:0:0:
256,192,160381,1,0,0:0:0:0:
256,192,160926,1,4,0:0:0:0:
256,192,161835,1,0,0:0:0:0:
256,192,162199,1,8,0:0:0:0:
256,192,162562,1,8,0:0:0:0:
256,192,163290,1,8,0:0:0:0:
256,192,163835,1,4,0:0:0:0:
256,192,164744,1,8,0:0:0:0:
256,192,165108,1,8,0:0:0:0:
256,192,165471,1,4,0:0:0:0:
256,192,166926,1,4,0:0:0:0:
256,192,167471,1,12,0:0:0:0:
256,192,168199,1,4,0:0:0:0:
256,192,169108,1,8,0:0:0:0:
256,192,169471,1,8,0:0:0:0:
256,192,169835,1,4,0:0:0:0:
256,192,170562,1,0,0:0:0:0:
256,192,171290,1,8,0:0:0:0:
256,192,171653,1,0,0:0:0:0:
256,192,172017,1,8,0:0:0:0:
256,192,172744,1,0,0:0:0:0:
256,192,173471,1,8,0:0:0:0:
256,192,173835,1,8,0:0:0:0:
256,192,174199,1,0,0:0:0:0:
256,192,175653,1,4,0:0:0:0:
256,192,176381,1,0,0:0:0:0:
256,192,176744,1,8,0:0:0:0:
256,192,177108,1,0,0:0:0:0:
256,192,177835,1,0,0:0:0:0:
256,192,178562,1,12,0:0:0:0:
256,192,179290,1,8,0:0:0:0:
256,192,179835,1,12,0:0:0:0:
256,192,180562,1,4,0:0:0:0:
256,192,181471,1,4,0:0:0:0:
256,192,182199,1,8,0:0:0:0:
256,192,182926,1,0,0:0:0:0:
256,192,183653,1,8,0:0:0:0:
256,192,184017,1,8,0:0:0:0:
256,192,184381,1,4,0:0:0:0:
256,192,185108,1,8,0:0:0:0:
256,192,185835,1,12,0:0:0:0:
256,192,187290,1,4,0:0:0:0:
256,192,188017,1,8,0:0:0:0:
256,192,188744,1,0,0:0:0:0:
256,192,189108,1,0,0:0:0:0:
256,192,189471,1,8,0:0:0:0:
256,192,190199,1,4,0:0:0:0:
256,192,190926,1,8,0:0:0:0:
256,192,191290,1,8,0:0:0:0:
256,192,191653,1,0,0:0:0:0:
256,192,192017,1,0,0:0:0:0:
256,192,192381,1,8,0:0:0:0:
256,192,193108,1,12,0:0:0:0:
256,192,193653,1,12,0:0:0:0:
256,192,194199,1,12,0:0:0:0:
256,192,194744,1,12,0:0:0:0:
256,192,195290,1,8,0:0:0:0:
256,192,195653,1,8,0:0:0:0:
256,192,196017,1,4,0:0:0:0:
256,192,196744,1,0,0:0:0:0:
256,192,197290,1,12,0:0:0:0:
256,192,198926,1,8,0:0:0:0:
256,192,200381,1,0,0:0:0:0:
256,192,201108,1,8,0:0:0:0:
256,192,201835,1,0,0:0:0:0:
256,192,203290,1,0,0:0:0:0:
256,192,204017,1,0,0:0:0:0:
256,192,204562,1,8,0:0:0:0:
256,192,205290,1,0,0:0:0:0:
256,192,206199,1,0,0:0:0:0:
256,192,206562,1,8,0:0:0:0:
256,192,206926,1,8,0:0:0:0:
256,192,207471,1,0,0:0:0:0:
256,192,208381,1,0,0:0:0:0:
256,192,209108,1,8,0:0:0:0:
256,192,210562,1,8,0:0:0:0:
256,192,211290,1,8,0:0:0:0:
256,192,212017,1,0,0:0:0:0:
256,192,212744,1,0,0:0:0:0:
256,192,213108,1,8,0:0:0:0:
256,192,213471,1,0,0:0:0:0:
256,192,214199,1,8,0:0:0:0:
256,192,214926,1,0,0:0:0:0:
256,192,216381,1,8,0:0:0:0:
256,192,217835,1,0,0:0:0:0:
256,192,220017,1,8,0:0:0:0:
256,192,220381,1,8,0:0:0:0:
256,192,220744,1,4,0:0:0:0:
256,192,221471,1,8,0:0:0:0:
256,192,221835,1,0,0:0:0:0:
256,192,222199,1,8,0:0:0:0:
256,192,222926,1,0,0:0:0:0:
256,192,223653,1,0,0:0:0:0:
256,192,224017,1,8,0:0:0:0:
256,192,224381,1,0,0:0:0:0:
256,192,225108,1,8,0:0:0:0:
256,192,226562,1,4,0:0:0:0:
256,192,226926,1,8,0:0:0:0:
256,192,227290,1,0,0:0:0:0:
256,192,228017,1,8,0:0:0:0:
256,192,228381,1,0,0:0:0:0:
256,192,228744,1,8,0:0:0:0:
256,192,229471,1,4,0:0:0:0:
256,192,230199,1,8,0:0:0:0:
256,192,230744,1,4,0:0:0:0:
256,192,231471,1,12,0:0:0:0:
256,192,232381,1,4,0:0:0:0:
256,192,233108,1,8,0:0:0:0:
256,192,233471,1,0,0:0:0:0:
256,192,233835,1,8,0:0:0:0:
256,192,234562,1,0,0:0:0:0:
256,192,235290,1,0,0:0:0:0:
256,192,235653,1,8,0:0:0:0:
256,192,236017,1,0,0:0:0:0:
256,192,236744,1,8,0:0:0:0:
256,192,238199,1,12,0:0:0:0:
256,192,238926,1,0,0:0:0:0:
256,192,239653,1,8,0:0:0:0:
256,192,240017,1,8,0:0:0:0:
256,192,240381,1,0,0:0:0:0:
256,192,241108,1,4,0:0:0:0:
256,192,241835,1,8,0:0:0:0:
256,192,242562,1,0,0:0:0:0:
256,192,242926,1,8,0:0:0:0:
256,192,243290,1,0,0:0:0:0:
256,192,243835,1,4,0:0:0:0:
256,192,244744,1,0,0:0:0:0:
256,192,245108,1,8,0:0:0:0:
256,192,245471,1,8,0:0:0:0:
256,192,246199,1,8,0:0:0:0:
256,192,246744,1,4,0:0:0:0:
256,192,247653,1,8,0:0:0:0:
256,192,248017,1,8,0:0:0:0:
256,192,248381,1,4,0:0:0:0:
256,192,249835,1,4,0:0:0:0:
256,192,250381,1,12,0:0:0:0:
256,192,251108,1,4,0:0:0:0:
256,192,252017,1,8,0:0:0:0:
256,192,252562,1,4,0:0:0:0:
256,192,252744,12,0,255653,0:0:0:0:
