osu file format v13

[General]
AudioFilename: Tsuki Akari.mp3
AudioLeadIn: 1500
PreviewTime: 53122
Countdown: 0
SampleSet: Soft
StackLeniency: 0.7
Mode: 0
LetterboxInBreaks: 0
WidescreenStoryboard: 0

[Editor]
Bookmarks: 88391
DistanceSpacing: 0.7
BeatDivisor: 4
GridSize: 16
TimelineZoom: 1.8

[Metadata]
Title:Tsuki Akari
TitleUnicode:月灯り
Artist:Amamiya Sora
ArtistUnicode:雨宮 天
Creator:smallboat
Version:Insane
Source:アカメが斬る!
Tags:Akame ga Kill! tv size ending takahiro tetsuya square enix white fox gangan comic joker black red eye girl anigi king blood ice zan slash sword cut head kill death die night raid Oracle Minakami Yuki Amamiya Yuko
BeatmapID:523594
BeatmapSetID:224294

[Difficulty]
HPDrainRate:6
CircleSize:4
OverallDifficulty:7.7
ApproachRate:8.3
SliderMultiplier:2.4
SliderTickRate:1

[Events]
//Background and Video events
0,0,"bg.jpg",0,0
Video,0,"video.avi"
//Break Periods
//Storyboard Layer 0 (Background)
//Storyboard Layer 1 (Fail)
//Storyboard Layer 2 (Pass)
//Storyboard Layer 3 (Foreground)
//Storyboard Sound Samples
//Background Colour Transformations
3,100,163,162,255

[TimingPoints]
540,659.340659340659,4,2,1,35,1,0
540,-111.111111111111,4,2,1,35,0,0
32188,-100,4,2,2,65,0,0
32518,-100,4,2,2,50,0,0
37463,-100,4,2,2,55,0,0
40100,-100,4,2,2,60,0,0
42737,-100,4,2,2,30,0,0
43067,-100,4,2,2,50,0,0
44715,-100,4,2,4,30,0,0
45045,-100,4,2,2,50,0,0
47023,-100,4,3,1,25,0,0
47353,-100,4,2,4,30,0,0
47682,-100,4,2,2,50,0,0
48012,-100,4,2,3,30,0,0
48342,-100,4,2,2,50,0,0
49990,-100,4,2,4,30,0,0
50320,-100,4,2,2,50,0,0
50649,-100,4,2,2,65,0,0
50979,-100,4,2,2,50,0,0
53287,-90.9090909090909,4,2,3,35,0,1
53616,-90.9090909090909,4,2,3,80,0,1
63836,-90.9090909090909,4,2,3,40,0,1
64166,-90.9090909090909,4,2,3,80,0,1
74386,-100,4,2,3,45,0,1
74715,-100,4,2,3,80,0,1
77023,-100,4,2,3,50,0,1
77353,-100,4,2,3,80,0,1
77682,-100,4,2,3,50,0,1
78342,-100,4,2,1,65,0,0
79001,-100,4,2,1,65,0,0
79660,-90.9090909090909,4,2,2,30,0,1
79990,-90.9090909090909,4,2,3,70,0,1
83616,-90.9090909090909,4,2,3,80,0,1
84276,-90.9090909090909,4,2,3,70,0,0
84935,-100,4,2,1,40,0,0
85265,-100,4,2,1,30,0,0
86913,-200,4,2,1,30,0,0
87408,-200,4,2,4,20,0,0

[Colours]
Combo1 : 83,166,166
Combo2 : 176,0,0
Combo3 : 255,140,26
Combo4 : 244,244,0

[HitObjects]
152,108,540,5,2,0:0:0:0:
420,52,869,1,0,0:0:0:0:
360,108,1034,1,0,0:0:0:0:
420,332,1364,1,0,0:0:0:0:
360,276,1529,1,0,0:0:0:0:
152,108,1858,2,0,L|184:104,1,26.9999991760254,2|0,0:0|0:0,0:0:0:0:
80,292,3177,5,2,0:0:0:0:
80,92,3507,1,0,0:0:0:0:
257,169,3836,1,0,0:0:0:0:
432,92,4166,1,0,0:0:0:0:
470,159,4331,1,0,0:0:0:0:
432,292,4496,1,2,0:0:0:0:
42,159,5814,5,2,0:0:0:0:
105,272,6144,1,0,0:0:0:0:
213,342,6474,2,0,P|238:295|231:242,1,107.999996704102
174,126,7133,1,0,0:0:0:0:
81,35,7463,1,0,0:0:0:0:
207,6,7792,1,0,0:0:0:0:
302,93,8122,1,0,0:0:0:0:
271,218,8452,5,2,0:0:0:0:
271,218,9770,1,0,0:0:0:0:
468,40,11089,5,2,0:0:0:0:
444,160,11419,1,0,0:0:0:0:
356,256,11748,2,0,L|304:268,1,53.9999983520508
156,256,12078,2,0,L|208:268,1,53.9999983520508
256,352,12408,1,2,0:0:0:0:
52,236,12737,1,0,0:0:0:0:
460,236,13067,1,0,0:0:0:0:
320,180,13397,1,0,0:0:0:0:
288,108,13561,1,0,0:0:0:0:
256,32,13726,6,0,L|140:48,1,107.999996704102,2|0,0:0|0:0,0:0:0:0:
72,116,14386,1,0,0:0:0:0:
440,116,14715,1,0,0:0:0:0:
72,268,16364,5,2,0:0:0:0:
192,192,16693,1,0,0:0:0:0:
320,192,17023,2,0,L|336:140,1,53.9999983520508
432,76,17353,2,0,L|416:128,1,53.9999983520508
256,132,17682,2,0,L|272:80,1,53.9999983520508,2|0,0:0|0:0,0:0:0:0:
368,16,18012,2,0,L|352:68,1,53.9999983520508
256,8,18342,1,0,0:0:0:0:
256,252,18671,1,0,0:0:0:0:
152,70,19001,6,0,P|99:62|55:92,1,107.999996704102,2|0,0:0|0:0,0:0:0:0:
55,293,19660,2,0,P|99:322|152:314,1,107.999996704102,0|0,0:0|0:0,0:0:0:0:
360,70,20320,1,0,0:0:0:0:
460,312,21638,5,2,0:0:0:0:
460,72,21968,1,0,0:0:0:0:
320,192,22298,2,0,L|266:183,1,53.9999983520508
140,216,22627,2,0,L|193:224,1,53.9999983520508
324,112,22957,2,0,L|270:103,1,53.9999983520508,2|0,0:0|0:0,0:0:0:0:
144,136,23287,2,0,L|197:144,1,53.9999983520508
72,168,23616,1,0,0:0:0:0:
440,168,23946,1,0,0:0:0:0:
184,40,24276,6,0,L|77:55,1,107.999996704102,2|0,0:0|0:0,0:0:0:0:
328,40,24935,2,0,L|434:55,1,107.999996704102
434,328,25594,2,0,L|328:344,1,107.999996704102,2|0,0:0|0:0,0:0:0:0:
77,329,26254,1,0,0:0:0:0:
52,104,26583,2,0,P|38:81|35:54,1,53.9999983520508,0|0,0:0|0:0,0:0:0:0:
116,56,26913,6,0,P|133:111|104:163,1,107.999996704102,2|0,0:0|0:0,0:0:0:0:
257,192,27572,1,0,0:0:0:0:
460,104,27902,2,0,P|474:81|477:54,1,53.9999983520508,0|0,0:0|0:0,0:0:0:0:
396,56,28232,2,0,P|378:111|407:163,1,107.999996704102,2|0,0:0|0:0,0:0:0:0:
488,276,28891,1,0,0:0:0:0:
257,192,29221,2,0,P|243:169|240:142,1,53.9999983520508,0|0,0:0|0:0,0:0:0:0:
256,44,29550,5,2,0:0:0:0:
256,340,29880,1,0,0:0:0:0:
68,192,30210,1,0,0:0:0:0:
444,192,30539,2,0,P|409:234|341:232,1,107.999996704102
160,120,31199,1,0,0:0:0:0:
352,120,31529,1,0,0:0:0:0:
256,265,31858,1,0,0:0:0:0:
445,89,32188,6,0,P|413:39|357:19,1,120,8|0,0:0|0:0,0:0:0:0:
94,72,32847,1,8,0:0:0:0:
94,312,33177,1,0,0:0:0:0:
418,310,33507,2,0,P|466:240|421:168,1,180,10|0,0:0|0:0,0:0:0:0:
352,120,34166,1,8,0:0:0:0:
197,275,34496,1,0,0:0:0:0:
71,81,34825,6,0,P|116:43|174:33,1,120,8|0,0:0|0:0,0:0:0:0:
440,81,35485,2,0,P|395:43|337:33,1,120,8|0,0:0|0:0,0:0:0:0:
256,63,35979,1,0,0:0:0:0:
196,122,36144,1,10,0:0:0:0:
63,343,36474,5,0,0:0:0:0:
42,262,36638,1,0,0:0:0:0:
108,206,36803,1,8,0:0:0:0:
125,285,36968,1,0,0:0:0:0:
29,177,37133,1,0,0:0:0:0:
188,224,37298,1,0,0:0:0:0:
317,308,37463,6,0,P|375:303|416:261,1,120,8|0,0:0|0:0,0:0:0:0:
195,76,38122,2,0,P|136:80|95:122,1,120,8|0,0:0|0:0,0:0:0:0:
416,122,38781,2,0,P|375:80|317:76,1,120,10|0,0:0|0:0,0:0:0:0:
95,261,39441,2,0,P|136:303|195:308,1,120,8|0,0:0|0:0,0:0:0:0:
442,192,40100,5,8,0:0:0:0:
70,192,40430,1,0,0:0:0:0:
256,35,40759,1,8,0:0:0:0:
256,349,41089,1,0,0:0:0:0:
128,76,41419,2,0,P|201:119|201:205,1,180,10|0,0:0|0:0,0:0:0:0:
196,226,41996,1,0,0:0:0:0:
191,246,42078,2,0,L|272:228,1,60,8|0,0:0|0:0,0:0:0:0:
408,127,42408,2,0,L|489:109,1,60,8|0,0:0|0:0,0:0:0:0:
443,301,42737,6,0,P|396:268|388:211,1,120,12|0,0:0|0:0,0:0:0:0:
68,301,43397,2,0,P|115:268|123:211,1,120,8|0,0:0|0:0,0:0:0:0:
203,69,44056,2,0,P|256:46|310:71,1,120,10|0,0:0|0:0,0:0:0:0:
416,193,44715,1,8,0:0:0:0:
96,193,45045,1,0,0:0:0:0:
321,253,45375,6,0,P|378:238|416:193,1,120,8|0,0:0|0:0,0:0:0:0:
96,193,46034,2,0,P|134:239|191:253,1,120,8|0,0:0|0:0,0:0:0:0:
448,119,46693,1,10,0:0:0:0:
64,119,47023,1,8,0:0:0:0:
470,41,47353,1,8,0:0:0:0:
42,41,47682,1,0,0:0:0:0:
297,113,48012,6,0,P|355:106|393:62,1,120,4|0,0:0|0:0,0:0:0:0:
214,113,48671,2,0,P|156:106|118:62,1,120,8|0,0:0|0:0,0:0:0:0:
31,193,49331,1,8,0:0:0:0:
481,193,49660,1,0,0:0:0:0:
257,50,49990,1,8,0:0:0:0:
257,334,50320,1,0,0:0:0:0:
427,46,50649,5,8,0:0:0:0:
85,338,51968,1,10,0:0:0:0:
44,145,52298,5,0,0:0:0:0:
135,38,52463,1,0,0:0:0:0:
135,38,52545,1,0,0:0:0:0:
135,38,52627,2,0,L|172:26,2,30,0|0|0,0:0|0:0|0:0,0:0:0:0:
132,127,52957,1,0,0:0:0:0:
175,210,53122,1,0,0:0:0:0:
256,259,53287,5,4,0:0:0:0:
377,38,53616,1,0,0:0:0:0:
380,127,53781,1,0,0:0:0:0:
337,210,53946,2,0,P|378:221|418:209,1,66.0000020141602,8|0,0:0|0:0,0:0:0:0:
470,153,54276,1,0,0:0:0:0:
239,63,54605,6,0,P|254:92|256:125,1,66.0000020141602,2|0,0:0|0:0,0:0:0:0:
71,176,54935,2,0,P|55:146|54:114,1,66.0000020141602,2|0,0:0|0:0,0:0:0:0:
103,38,55265,1,8,0:0:0:0:
156,119,55430,1,0,0:0:0:0:
175,211,55594,1,0,0:0:0:0:
256,272,55759,1,0,0:0:0:0:
337,210,55924,5,2,0:0:0:0:
164,317,56254,1,0,0:0:0:0:
87,268,56419,1,0,0:0:0:0:
71,176,56583,2,0,L|61:110,1,66.0000020141602,8|0,0:0|0:0,0:0:0:0:
103,38,56913,1,0,0:0:0:0:
409,38,57243,5,2,0:0:0:0:
450,111,57408,1,0,0:0:0:0:
485,188,57572,2,0,L|473:252,1,66.0000020141602
390,293,57902,1,8,0:0:0:0:
313,352,58067,1,0,0:0:0:0:
390,293,58232,1,0,0:0:0:0:
337,210,58397,1,0,0:0:0:0:
256,124,58561,6,0,P|198:93|135:104,1,132.00000402832,2|0,0:0|0:0,0:0:0:0:
134,279,59221,2,0,P|198:290|256:260,1,132.00000402832,8|0,0:0|0:0,0:0:0:0:
473,337,59880,5,2,0:0:0:0:
473,47,60210,1,2,0:0:0:0:
39,47,60539,1,8,0:0:0:0:
39,337,60869,1,0,0:0:0:0:
257,193,61199,5,2,0:0:0:0:
256,212,61529,1,0,0:0:0:0:
186,276,61693,1,0,0:0:0:0:
96,257,61858,2,0,P|60:202|71:137,1,132.00000402832,8|0,0:0|0:0,0:0:0:0:
196,31,62518,2,0,B|206:113,1,66.0000020141602,2|0,0:0|0:0,0:0:0:0:
308,96,62847,2,0,B|316:31,1,66.0000020141602,2|0,0:0|0:0,0:0:0:0:
462,149,63177,5,8,0:0:0:0:
369,163,63342,1,0,0:0:0:0:
431,242,63507,1,0,0:0:0:0:
402,76,63671,1,0,0:0:0:0:
321,282,63836,6,0,P|344:306|376:312,1,66.0000020141602,4|0,0:0|0:0,0:0:0:0:
190,282,64166,2,0,P|167:306|136:312,1,66.0000020141602
256,340,64496,1,8,0:0:0:0:
256,44,64825,1,0,0:0:0:0:
78,192,65155,1,2,0:0:0:0:
434,192,65485,1,2,0:0:0:0:
256,226,65814,1,8,0:0:0:0:
464,271,66144,1,0,0:0:0:0:
400,328,66309,1,0,0:0:0:0:
320,295,66474,6,0,P|350:237|335:174,1,132.00000402832,2|0,0:0|0:0,0:0:0:0:
176,175,67133,2,0,P|161:238|199:301,1,132.00000402832,8|0,0:0|0:0,0:0:0:0:
434,192,67792,2,0,P|464:134|449:71,1,132.00000402832,2|2,0:0|0:0,0:0:0:0:
299,113,68452,1,8,0:0:0:0:
213,271,68781,1,0,0:0:0:0:
101,66,69111,5,2,0:0:0:0:
411,318,69441,1,0,0:0:0:0:
411,66,69770,1,8,0:0:0:0:
101,318,70100,1,0,0:0:0:0:
205,35,70430,5,2,0:0:0:0:
307,349,70759,1,2,0:0:0:0:
307,35,71089,1,8,0:0:0:0:
205,349,71419,1,0,0:0:0:0:
44,147,71748,6,0,B|89:139|89:139|126:148|126:148|173:140,1,132.00000402832,2|0,0:0|0:0,0:0:0:0:
468,237,72408,2,0,B|423:245|423:245|386:236|386:236|338:243,1,132.00000402832,8|0,0:0|0:0,0:0:0:0:
148,288,73067,1,2,0:0:0:0:
364,96,73397,1,2,0:0:0:0:
222,257,73726,2,0,L|292:271,1,66.0000020141602,8|0,0:0|0:0,0:0:0:0:
290,127,74056,2,0,L|220:113,1,66.0000020141602
137,189,74386,6,0,P|65:152|57:62,1,180,4|0,0:0|0:0,0:0:0:0:
148,96,75045,1,8,0:0:0:0:
364,96,75375,1,0,0:0:0:0:
364,288,75704,1,2,0:0:0:0:
148,288,76034,1,2,0:0:0:0:
222,77,76364,2,0,P|251:82|278:105,1,60,8|0,0:0|0:0,0:0:0:0:
290,307,76693,2,0,P|260:301|234:279,1,60
190,208,77023,5,4,0:0:0:0:
322,208,77353,1,0,0:0:0:0:
90,150,77682,1,12,0:0:0:0:
422,150,78012,1,0,0:0:0:0:
38,52,78342,5,4,0:0:0:0:
474,52,79001,1,0,0:0:0:0:
474,332,79331,1,0,0:0:0:0:
479,235,79496,1,0,0:0:0:0:
422,150,79660,6,0,P|380:100|316:85,1,132.00000402832,4|0,0:0|0:0,0:0:0:0:
89,233,80320,2,0,P|131:283|195:298,1,132.00000402832,8|0,0:0|0:0,0:0:0:0:
352,281,80979,1,2,0:0:0:0:
160,103,81309,1,2,0:0:0:0:
352,103,81638,1,8,0:0:0:0:
160,281,81968,1,0,0:0:0:0:
276,65,82298,6,0,P|211:63|160:103,1,132.00000402832,2|0,0:0|0:0,0:0:0:0:
160,281,82957,2,0,P|211:321|276:319,1,132.00000402832,8|0,0:0|0:0,0:0:0:0:
472,239,83616,5,8,0:0:0:0:
40,145,83946,1,8,0:0:0:0:
256,23,84276,5,0,0:0:0:0:
256,108,84441,1,0,0:0:0:0:
256,193,84605,1,0,0:0:0:0:
409,290,84935,5,6,0:0:0:0:
103,290,85265,1,0,0:0:0:0:
103,94,85594,1,0,0:0:0:0:
409,94,85924,1,0,0:0:0:0:
256,193,86254,1,0,0:0:0:0:
31,191,86583,1,0,0:0:0:0:
256,23,86913,6,0,L|256:123,1,90,2|6,0:0|0:0,0:0:0:0:
