osu file format v13

[General]
AudioFilename: Tsuki Akari.mp3
AudioLeadIn: 1500
PreviewTime: 53122
Countdown: 0
SampleSet: Soft
StackLeniency: 0.7
Mode: 0
LetterboxInBreaks: 0
WidescreenStoryboard: 0

[Editor]
DistanceSpacing: 1
BeatDivisor: 4
GridSize: 16
TimelineZoom: 1

[Metadata]
Title:Tsuki Akari
TitleUnicode:月灯り
Artist:Amamiya Sora
ArtistUnicode:雨宮 天
Creator:smallboat
Version:Hard
Source:アカメが斬る!
Tags:Akame ga Kill! tv size ending takahiro tetsuya square enix white fox gangan comic joker black red eye girl anigi king blood ice zan slash sword cut head kill death die night raid Oracle Minakami Yuki Amamiya Yuko
BeatmapID:523593
BeatmapSetID:224294

[Difficulty]
HPDrainRate:6
CircleSize:4
OverallDifficulty:6.5
ApproachRate:7
SliderMultiplier:2
SliderTickRate:1

[Events]
//Background and Video events
0,0,"bg.jpg",0,0
Video,0,"video.avi"
//Break Periods
//Storyboard Layer 0 (Background)
//Storyboard Layer 1 (Fail)
//Storyboard Layer 2 (Pass)
//Storyboard Layer 3 (Foreground)
//Storyboard Sound Samples
//Background Colour Transformations
3,100,163,162,255

[TimingPoints]
540,659.340659340659,4,2,1,35,1,0
540,-111.111111111111,4,2,1,35,0,0
32188,-100,4,2,2,65,0,0
32518,-100,4,2,2,50,0,0
37463,-100,4,2,2,55,0,0
40100,-100,4,2,2,60,0,0
42737,-100,4,2,2,30,0,0
43067,-100,4,2,2,50,0,0
44715,-100,4,2,4,30,0,0
45045,-100,4,2,2,50,0,0
47023,-100,4,3,1,25,0,0
47353,-100,4,2,4,30,0,0
47682,-100,4,2,2,50,0,0
48012,-100,4,2,3,30,0,0
48342,-100,4,2,2,50,0,0
49990,-100,4,2,4,30,0,0
50320,-100,4,2,2,50,0,0
50649,-100,4,2,2,65,0,0
50979,-100,4,2,2,50,0,0
53287,-100,4,2,3,35,0,1
53616,-100,4,2,3,80,0,1
63836,-100,4,2,3,40,0,1
64166,-100,4,2,3,80,0,1
74386,-100,4,2,3,45,0,1
74715,-100,4,2,3,80,0,1
77023,-100,4,2,3,50,0,1
77353,-100,4,2,3,80,0,1
77682,-100,4,2,3,50,0,1
78342,-100,4,2,1,65,0,0
79001,-100,4,2,1,65,0,0
79660,-100,4,2,2,30,0,1
79990,-100,4,2,3,70,0,1
83616,-100,4,2,3,80,0,1
84276,-100,4,2,3,70,0,0
84935,-100,4,2,1,40,0,0
85265,-100,4,2,1,30,0,0
86913,-200,4,2,4,20,0,0

[Colours]
Combo1 : 83,166,166
Combo2 : 176,0,0
Combo3 : 255,140,26
Combo4 : 244,244,0

[HitObjects]
112,168,540,5,2,0:0:0:0:
160,92,869,2,0,L|228:80,1,44.999998626709
352,92,1364,2,0,L|284:80,1,44.999998626709
256,156,1858,1,2,0:0:0:0:
400,168,3177,5,2,0:0:0:0:
323,215,3507,2,0,P|353:253|397:258,1,89.9999972534181,0|0,0:0|0:0,0:0:0:0:
256,156,4166,1,0,0:0:0:0:
235,116,4331,1,0,0:0:0:0:
240,71,4496,1,2,0:0:0:0:
179,260,5814,5,2,0:0:0:0:
91,282,6144,1,0,0:0:0:0:
11,238,6474,2,0,L|27:143,1,89.9999972534181
116,149,7133,2,0,L|130:60,2,89.9999972534181,0|0|0,0:0|0:0|0:0,0:0:0:0:
200,120,8122,1,0,0:0:0:0:
312,264,8452,5,2,0:0:0:0:
35,33,9770,1,0,0:0:0:0:
168,356,11089,5,2,0:0:0:0:
256,336,11419,1,0,0:0:0:0:
344,356,11748,2,0,L|408:344,3,44.999998626709,0|0|0|0,0:0|0:0|0:0|0:0,0:0:0:0:
422,318,12408,1,2,0:0:0:0:
412,228,12737,1,0,0:0:0:0:
464,152,13067,1,0,0:0:0:0:
444,64,13397,2,0,P|423:52|388:52,1,44.999998626709
360,64,13726,6,0,L|316:156,1,89.9999972534181,2|0,0:0|0:0,0:0:0:0:
190,145,14386,2,0,L|152:64,1,89.9999972534181
256,260,16364,5,2,0:0:0:0:
188,320,16693,1,0,0:0:0:0:
104,356,17023,2,0,L|56:332,3,44.999998626709,0|0|0|0,0:0|0:0|0:0|0:0,0:0:0:0:
36,300,17682,1,2,0:0:0:0:
96,233,18012,1,0,0:0:0:0:
48,156,18342,1,0,0:0:0:0:
119,104,18671,1,0,0:0:0:0:
151,19,19001,6,0,P|189:43|209:83,1,89.9999972534181,2|0,0:0|0:0,0:0:0:0:
302,83,19660,2,0,P|322:43|360:19,2,89.9999972534181,0|0|0,0:0|0:0|0:0,0:0:0:0:
468,156,21638,5,2,0:0:0:0:
444,244,21968,1,0,0:0:0:0:
396,320,22298,2,0,L|351:314,3,44.999998626709,0|0|0|0,0:0|0:0|0:0|0:0,0:0:0:0:
320,284,22957,2,0,L|228:268,1,89.9999972534181,2|0,0:0|0:0,0:0:0:0:
231,115,23616,2,0,L|320:100,1,89.9999972534181
385,192,24276,6,0,L|295:192,1,89.9999972534181,2|0,0:0|0:0,0:0:0:0:
141,115,24935,2,0,L|249:115,1,89.9999972534181
234,269,25594,2,0,L|127:269,1,89.9999972534181,2|0,0:0|0:0,0:0:0:0:
60,240,26254,1,0,0:0:0:0:
20,160,26583,1,0,0:0:0:0:
141,115,26913,6,0,L|208:47,1,89.9999972534181,2|0,0:0|0:0,0:0:0:0:
256,127,27572,1,0,0:0:0:0:
256,127,27902,1,0,0:0:0:0:
371,115,28232,6,0,L|304:47,1,89.9999972534181,2|0,0:0|0:0,0:0:0:0:
424,44,28891,2,0,L|512:22,1,89.9999972534181
444,156,29550,5,2,0:0:0:0:
424,261,29880,1,0,0:0:0:0:
338,195,30210,1,0,0:0:0:0:
326,302,30539,1,0,0:0:0:0:
113,345,31199,6,0,P|70:352|31:330,2,89.9999972534181,0|0|0,0:0|0:0|0:0,0:0:0:0:
228,272,32188,6,0,P|257:231|252:176,1,100,8|0,0:0|0:0,0:0:0:0:
216,92,32847,1,8,0:0:0:0:
132,36,33177,1,0,0:0:0:0:
64,194,33507,2,0,P|110:171|139:122,1,100,10|0,0:0|0:0,0:0:0:0:
267,23,34166,2,0,P|292:65|294:115,1,100,8|0,0:0|0:0,0:0:0:0:
380,195,34825,6,0,P|430:207|483:186,1,100,8|0,0:0|0:0,0:0:0:0:
436,14,35485,2,0,P|416:62|428:118,1,100,8|0,0:0|0:0,0:0:0:0:
475,192,36144,1,10,0:0:0:0:
492,300,36474,1,0,0:0:0:0:
448,322,36638,1,0,0:0:0:0:
402,335,36803,2,0,L|330:327,3,50,8|0|0|0,0:0|0:0|0:0|0:0,0:0:0:0:
316,296,37463,6,0,P|292:256|304:192,1,100,8|0,0:0|0:0,0:0:0:0:
372,140,38122,2,0,P|396:180|384:244,1,100,8|0,0:0|0:0,0:0:0:0:
297,205,38781,2,0,P|273:165|285:101,1,100,10|0,0:0|0:0,0:0:0:0:
464,158,39441,2,0,P|415:164|372:139,1,100,8|0,0:0|0:0,0:0:0:0:
152,116,40100,5,8,0:0:0:0:
145,235,40430,1,0,0:0:0:0:
36,285,40759,1,8,0:0:0:0:
35,164,41089,1,0,0:0:0:0:
76,55,41419,2,0,P|114:24|163:19,1,100,10|0,0:0|0:0,0:0:0:0:
256,94,42078,2,0,P|298:118|347:115,1,100,8|0,0:0|0:0,0:0:0:0:
496,127,42737,6,0,P|497:77|469:37,1,100,12|0,0:0|0:0,0:0:0:0:
310,205,43397,2,0,P|332:249|375:270,1,100,8|0,0:0|0:0,0:0:0:0:
135,271,44056,2,0,P|179:248|201:205,1,100,10|0,0:0|0:0,0:0:0:0:
54,123,44715,2,0,P|75:167|119:189,1,100,8|0,0:0|0:0,0:0:0:0:
310,205,45375,6,0,P|356:188|385:149,1,100,8|0,0:0|0:0,0:0:0:0:
375,52,46034,2,0,P|328:68|300:108,1,100,8|0,0:0|0:0,0:0:0:0:
134,53,46693,2,0,P|181:67|211:107,1,100,10|8,0:0|0:0,0:0:0:0:
256,194,47353,1,8,0:0:0:0:
207,305,47682,1,0,0:0:0:0:
380,358,48012,6,0,P|333:344|304:305,1,100,4|0,0:0|0:0,0:0:0:0:
430,132,48671,2,0,P|390:161|375:208,1,100,8|0,0:0|0:0,0:0:0:0:
500,280,49331,1,8,0:0:0:0:
304,305,49660,1,0,0:0:0:0:
461,210,49990,1,8,0:0:0:0:
316,123,50320,1,0,0:0:0:0:
477,32,50649,5,8,0:0:0:0:
35,32,51968,1,10,0:0:0:0:
45,260,52627,2,0,L|67:204,3,50,0|0|0|0,0:0|0:0|0:0|0:0,0:0:0:0:
107,212,53287,5,4,0:0:0:0:
208,232,53616,1,0,0:0:0:0:
208,232,53781,1,0,0:0:0:0:
208,232,53946,2,0,P|194:280|129:311,1,100,8|0,0:0|0:0,0:0:0:0:
107,212,54605,2,0,P|125:166|167:141,1,100,2|2,0:0|0:0,0:0:0:0:
268,137,55265,1,8,0:0:0:0:
367,149,55594,1,0,0:0:0:0:
465,132,55924,5,2,0:0:0:0:
419,50,56254,1,0,0:0:0:0:
372,40,56419,1,0,0:0:0:0:
330,62,56583,2,0,P|335:110|367:149,1,100,8|0,0:0|0:0,0:0:0:0:
488,216,57243,1,2,0:0:0:0:
442,299,57572,1,0,0:0:0:0:
408,336,57737,1,0,0:0:0:0:
364,360,57902,2,0,L|263:335,1,100,8|0,0:0|0:0,0:0:0:0:
160,175,58561,6,0,L|261:200,1,100,2|0,0:0|0:0,0:0:0:0:
111,265,59221,2,0,L|10:240,1,100,8|0,0:0|0:0,0:0:0:0:
64,148,59880,1,2,0:0:0:0:
136,80,60210,1,2,0:0:0:0:
200,4,60539,1,8,0:0:0:0:
256,80,60869,1,0,0:0:0:0:
312,4,61199,5,2,0:0:0:0:
376,80,61529,1,0,0:0:0:0:
392,116,61693,1,0,0:0:0:0:
408,152,61858,2,0,L|290:177,1,100,8|0,0:0|0:0,0:0:0:0:
256,256,62518,2,0,B|236:316,3,50,2|0|2|0,0:0|0:0|0:0|0:0,0:0:0:0:
216,348,63177,2,0,L|168:360,1,50,8|0,0:0|0:0,0:0:0:0:
64,320,63507,2,0,L|112:308,1,50
132,264,63836,5,4,0:0:0:0:
33,213,64166,1,0,0:0:0:0:
118,143,64496,1,8,0:0:0:0:
19,94,64825,1,0,0:0:0:0:
112,36,65155,2,0,L|224:12,1,100,2|2,0:0|0:0,0:0:0:0:
256,104,65814,1,8,0:0:0:0:
302,15,66144,1,0,0:0:0:0:
320,52,66309,1,0,0:0:0:0:
336,88,66474,6,0,L|433:65,1,100,2|0,0:0|0:0,0:0:0:0:
510,192,67133,2,0,L|412:169,1,100,8|0,0:0|0:0,0:0:0:0:
328,291,67792,2,0,L|425:268,1,100,2|2,0:0|0:0,0:0:0:0:
324,192,68452,1,8,0:0:0:0:
256,120,68781,1,0,0:0:0:0:
188,192,69111,5,2,0:0:0:0:
256,264,69441,1,0,0:0:0:0:
160,288,69770,2,0,L|61:307,1,100,8|0,0:0|0:0,0:0:0:0:
92,212,70430,1,2,0:0:0:0:
124,116,70759,1,2,0:0:0:0:
192,44,71089,2,0,L|290:24,1,100,8|0,0:0|0:0,0:0:0:0:
444,72,71748,6,0,L|345:91,1,100,2|0,0:0|0:0,0:0:0:0:
250,197,72408,2,0,L|348:177,1,100,8|0,0:0|0:0,0:0:0:0:
432,229,73067,1,2,0:0:0:0:
443,328,73397,1,2,0:0:0:0:
351,368,73726,2,0,L|300:358,3,50,8|0|0|0,0:0|0:0|0:0|0:0,0:0:0:0:
256,336,74386,6,0,P|222:299|213:251,1,100,4|0,0:0|0:0,0:0:0:0:
224,152,75045,1,8,0:0:0:0:
260,60,75375,1,0,0:0:0:0:
160,75,75704,2,0,P|113:91|65:80,1,100,2|2,0:0|0:0,0:0:0:0:
20,172,76364,2,0,L|9:220,3,50,8|0|0|0,0:0|0:0|0:0|0:0,0:0:0:0:
16,272,77023,5,4,0:0:0:0:
107,377,77353,1,0,0:0:0:0:
148,239,77682,1,12,0:0:0:0:
243,341,78012,1,0,0:0:0:0:
286,207,78342,5,4,0:0:0:0:
501,28,79001,1,0,0:0:0:0:
499,168,79331,1,0,0:0:0:0:
499,168,79496,1,0,0:0:0:0:
499,168,79660,6,0,P|478:212|433:231,1,100,4|0,0:0|0:0,0:0:0:0:
323,142,80320,2,0,P|286:108|237:104,1,100,8|0,0:0|0:0,0:0:0:0:
141,131,80979,1,2,0:0:0:0:
68,200,81309,1,2,0:0:0:0:
161,234,81638,1,8,0:0:0:0:
212,319,81968,1,0,0:0:0:0:
311,321,82298,6,0,P|357:306|387:266,1,100,2|0,0:0|0:0,0:0:0:0:
387,116,82957,2,0,P|358:77|311:63,1,100,8|0,0:0|0:0,0:0:0:0:
201,63,83616,5,8,0:0:0:0:
311,321,83946,1,8,0:0:0:0:
387,116,84276,1,0,0:0:0:0:
338,107,84441,1,0,0:0:0:0:
289,99,84605,1,0,0:0:0:0:
256,192,84935,12,6,87408,0:0:0:0:
