osu file format v13

[General]
AudioFilename: AgKED2.mp3
AudioLeadIn: 1340
PreviewTime: 53407
Countdown: 0
SampleSet: Soft
StackLeniency: 0.7
Mode: 0
LetterboxInBreaks: 0
WidescreenStoryboard: 0

[Editor]
Bookmarks: 11183,32282,42831,53381,63930,74480
DistanceSpacing: 1.5
BeatDivisor: 4
GridSize: 4
TimelineZoom: 1.5

[Metadata]
Title:Tsuki Akari
TitleUnicode:月灯り
Artist:Amamiya Sora
ArtistUnicode:雨宮 天
Creator:LixRei
Version:Moonlight
Source:アカメが斬る!
Tags:Akame ga Kill! Kiru! Ending ED TV Anime Version Night Raid Square Enix
BeatmapID:559853
BeatmapSetID:242580

[Difficulty]
HPDrainRate:7
CircleSize:4
OverallDifficulty:7.6
ApproachRate:8
SliderMultiplier:1.6
SliderTickRate:1

[Events]
//Background and Video events
Video,0,"a.avi"
0,0,"BG.png",0,0
//Break Periods
//Storyboard Layer 0 (Background)
//Storyboard Layer 1 (Fail)
//Storyboard Layer 2 (Pass)
//Storyboard Layer 3 (Foreground)
//Storyboard Sound Samples

[TimingPoints]
660,659.340659340659,4,2,1,35,1,0
2638,-100,4,2,1,5,0,0
3297,-100,4,2,1,35,0,0
5275,-100,4,2,1,5,0,0
5934,-100,4,2,1,35,0,0
8572,-200,4,2,1,35,0,0
11209,-133.333333333333,4,2,1,35,0,0
15495,-133.333333333333,4,2,1,5,0,0
16484,-133.333333333333,4,2,1,35,0,0
21099,-133.333333333333,4,2,1,5,0,0
21758,-133.333333333333,4,2,1,35,0,0
25714,-133.333333333333,4,2,1,40,0,0
32308,-100,4,2,1,50,0,0
42857,-100,4,2,1,60,0,0
50769,-200,4,2,1,55,0,0
52088,-80,4,2,1,55,0,0
53407,-80,4,2,0,65,0,1
63956,-80,4,2,1,65,0,0
74506,-80,4,2,0,65,0,1
78462,-133.333333333333,4,2,1,65,0,1
79121,-80,4,2,0,65,0,1
84725,-80,4,2,1,45,0,1
85055,-100,4,2,1,35,0,0

[Colours]
Combo1 : 255,217,100
Combo2 : 128,128,128
Combo3 : 79,158,255
Combo4 : 255,70,70

[HitObjects]
136,104,660,6,0,P|172:84|216:80,1,80,2|0,0:0|0:0,0:0:0:0:
248,84,1153,1,2,0:0:0:0:
208,204,1484,2,0,L|244:228,1,40,2|0,0:0|0:0,0:0:0:0:
348,296,1978,2,0,B|416:244|388:224|450:173,1,160,2|0,0:0|0:0,0:0:0:0:
196,148,3297,5,2,0:0:0:0:
175,21,3627,1,0,0:0:0:0:
76,102,3956,1,0,0:0:0:0:
96,228,4286,2,0,L|108:272,1,40,2|0,0:0|0:0,0:0:0:0:
140,340,4616,2,0,B|199:287|178:269|242:218,1,160,2|0,0:0|0:0,0:0:0:0:
352,40,5934,5,2,0:0:0:0:
352,269,6264,1,0,0:0:0:0:
433,73,6593,1,0,0:0:0:0:
270,236,6922,1,0,0:0:0:0:
466,154,7253,1,0,0:0:0:0:
237,154,7582,1,0,0:0:0:0:
433,236,7912,1,0,0:0:0:0:
270,73,8241,1,0,0:0:0:0:
433,73,8572,6,0,B|364:116|400:152|330:194,1,160,2|0,0:0|0:0,0:0:0:0:
329,194,11209,5,4,0:0:0:0:
244,109,11539,1,0,0:0:0:0:
158,194,11868,2,0,P|132:224|128:252,1,60.0000022888184
242,278,12529,2,0,P|262:299|291:308,1,60.0000022888184,2|0,0:0|0:0,0:0:0:0:
329,194,13187,1,0,0:0:0:0:
328,72,13517,1,0,0:0:0:0:
328,72,13681,1,0,0:0:0:0:
328,72,13846,6,0,P|356:80|377:102,1,60.0000022888184,2|0,0:0|0:0,0:0:0:0:
476,168,14506,1,0,0:0:0:0:
476,168,14835,2,0,B|407:230|386:201|328:271,1,180.000006866455,2|0,0:0|0:0,0:0:0:0:
100,344,16484,5,2,0:0:0:0:
184,259,16813,1,0,0:0:0:0:
272,180,17143,2,0,L|252:156,1,30.0000011444092
226,142,17473,2,0,L|192:140,1,30.0000011444092
168,144,17802,2,0,P|132:152|112:168,1,60.0000022888184,2|0,0:0|0:0,0:0:0:0:
28,252,18462,1,0,0:0:0:0:
104,348,18791,1,0,0:0:0:0:
183,259,19121,6,0,P|212:249|234:229,2,60.0000022888184,2|0|0,0:0|0:0|0:0,0:0:0:0:
324,148,20110,1,0,0:0:0:0:
404,60,20440,2,0,P|440:120|440:172,1,120.000004577637,2|0,0:0|0:0,0:0:0:0:
284,352,21758,5,2,0:0:0:0:
284,352,22088,1,0,0:0:0:0:
228,248,22419,2,0,L|192:196,1,60.0000022888184
278,113,23078,2,0,L|314:61,1,60.0000022888184,2|0,0:0|0:0,0:0:0:0:
193,198,23736,2,0,L|157:250,1,60.0000022888184,0|0,0:0|0:0,0:0:0:0:
312,63,24396,6,0,P|348:123|348:175,1,120.000004577637,2|0,0:0|0:0,0:0:0:0:
304,284,25385,1,0,0:0:0:0:
192,324,25714,2,0,L|128:344,1,60.0000022888184,2|0,0:0|0:0,0:0:0:0:
72,240,26373,2,0,L|14:222,1,60.0000022888184
191,240,27033,6,0,L|248:222,1,60.0000022888184,2|0,0:0|0:0,0:0:0:0:
390,289,27692,2,0,L|333:307,1,60.0000022888184,0|0,0:0|0:0,0:0:0:0:
332,136,28352,2,0,L|389:118,2,60.0000022888184,2|0|0,0:0|0:0|0:0,0:0:0:0:
216,164,29341,1,0,0:0:0:0:
108,216,29670,6,0,B|163:251|141:269|183:306,1,120.000004577637,2|0,0:0|0:0,0:0:0:0:
328,306,30659,2,0,B|370:269|348:251|404:216,1,120.000004577637,0|0,0:0|0:0,0:0:0:0:
256,208,31649,1,0,0:0:0:0:
256,208,31978,1,0,0:0:0:0:
256,79,32308,5,4,0:0:0:0:
256,79,32638,1,0,0:0:0:0:
346,169,32967,2,0,L|404:228,1,80,0|0,3:0|0:0,0:0:0:0:
256,60,33627,1,0,0:0:0:0:
256,60,33957,1,0,0:0:0:0:
256,208,34286,2,0,L|256:290,1,80,0|0,3:0|0:0,0:0:0:0:
256,79,34945,5,2,0:0:0:0:
256,79,35275,1,0,0:0:0:0:
165,169,35605,2,0,L|107:228,1,80,0|0,3:0|0:0,0:0:0:0:
32,328,36264,1,0,0:0:0:0:
156,356,36594,2,0,L|196:368,1,40,2|0,0:0|0:0,0:0:0:0:
250,310,36923,2,0,L|288:298,1,40,0|0,3:0|0:0,0:0:0:0:
345,354,37253,2,0,L|385:366,1,40,2|0,0:0|0:0,0:0:0:0:
440,309,37583,5,4,0:0:0:0:
440,309,37912,1,0,0:0:0:0:
384,212,38242,2,0,L|348:140,1,80,0|0,3:0|0:0,0:0:0:0:
448,320,38901,1,0,0:0:0:0:
448,320,39230,1,0,0:0:0:0:
324,268,39561,2,0,L|260:216,1,80,0|0,3:0|0:0,0:0:0:0:
456,328,40220,5,2,0:0:0:0:
456,328,40549,1,0,0:0:0:0:
296,344,40879,2,0,L|217:317,1,80,0|0,3:0|0:0,0:0:0:0:
220,189,41539,2,0,L|141:162,1,80,0|0,0:0|0:0,0:0:0:0:
108,148,42033,2,0,L|80:136,2,20,0|0|4,3:0|0:0|3:0,0:0:0:0:
240,200,42528,1,0,0:0:0:0:
240,200,42857,6,0,P|276:228|312:228,1,80,4|0,0:0|0:0,0:0:0:0:
467,165,43517,2,0,P|438:140|399:137,1,80,0|0,3:0|0:0,0:0:0:0:
280,116,44176,2,0,L|204:80,1,80,0|0,0:0|0:0,0:0:0:0:
400,232,44835,1,0,3:0:0:0:
400,232,45165,1,0,0:0:0:0:
280,192,45495,6,0,L|204:160,2,80,2|0|0,0:0|0:0|3:0,0:0:0:0:
336,308,46484,2,0,L|260:276,1,80,0|0,0:0|0:0,0:0:0:0:
228,260,46978,1,0,0:0:0:0:
192,240,47143,1,0,0:0:0:0:
68,184,47473,1,0,3:0:0:0:
68,184,47802,1,0,0:0:0:0:
173,94,48132,5,4,0:0:0:0:
173,94,48462,1,0,0:0:0:0:
274,195,48791,1,0,3:0:0:0:
274,195,49121,1,0,0:0:0:0:
172,296,49451,1,0,0:0:0:0:
172,296,49780,1,0,0:0:0:0:
173,94,50110,1,0,3:0:0:0:
71,195,50440,1,0,0:0:0:0:
274,195,50769,6,0,B|352:216|352:172|434:194,1,160,4|0,0:0|0:0,0:0:0:0:
481,202,52253,5,0,0:0:0:0:
484,252,52418,1,0,0:0:0:0:
464,296,52583,1,0,0:0:0:0:
416,300,52747,1,4,3:0:0:0:
372,280,52912,1,8,3:0:0:0:
324,288,53077,1,0,0:0:0:0:
276,308,53242,1,0,0:0:0:0:
224,308,53407,6,0,P|176:292|144:248,1,100,4|0,0:0|0:0,0:0:0:0:
128,192,53901,1,0,0:0:0:0:
132,124,54066,2,0,P|160:132|184:156,1,50,0|0,3:0|0:0,0:0:0:0:
224,192,54396,1,0,0:0:0:0:
316,308,54725,2,0,P|364:292|396:248,1,100,0|0,0:0|0:0,0:0:0:0:
388,188,55220,1,0,0:0:0:0:
384,120,55385,2,0,P|356:128|332:152,1,50,0|0,3:0|0:0,0:0:0:0:
292,188,55715,1,0,0:0:0:0:
174,204,56044,6,0,P|124:176|100:136,1,100,2|0,0:0|0:0,0:0:0:0:
216,52,56539,1,0,0:0:0:0:
296,80,56703,2,0,L|328:120,1,50,0|0,3:0|0:0,0:0:0:0:
338,204,57033,2,0,P|388:176|412:136,2,100,0|0|0,0:0|0:0|0:0,0:0:0:0:
216,80,57857,1,0,0:0:0:0:
216,80,58022,2,0,L|184:120,1,50,0|0,3:0|0:0,0:0:0:0:
102,193,58352,1,0,0:0:0:0:
214,305,58681,5,2,0:0:0:0:
312,133,59011,1,0,0:0:0:0:
177,169,59341,1,0,3:0:0:0:
349,268,59670,1,0,0:0:0:0:
404,105,60000,2,0,P|354:107|312:133,1,100,0|0,0:0|0:0,0:0:0:0:
97,264,60659,2,0,P|146:261|189:236,1,100,0|0,3:0|0:0,0:0:0:0:
392,236,61319,5,2,0:0:0:0:
112,132,61649,2,0,L|64:152,2,50,0|0|0,0:0|0:0|3:0,0:0:0:0:
256,84,62308,1,0,0:0:0:0:
392,236,62638,2,0,L|344:216,1,50,2|0,0:0|0:0,0:0:0:0:
284,276,62967,2,0,L|236:296,1,50,0|0,3:0|0:0,0:0:0:0:
180,232,63297,2,0,L|132:212,1,50,2|0,0:0|0:0,0:0:0:0:
72,272,63627,2,0,L|24:292,1,50,0|0,3:0|0:0,0:0:0:0:
64,188,63956,5,4,0:0:0:0:
139,92,64121,1,0,0:0:0:0:
21,124,64286,1,0,0:0:0:0:
135,168,64451,1,0,0:0:0:0:
69,65,64616,1,0,3:0:0:0:
232,176,64945,2,0,P|272:136|324:124,1,100
352,272,65605,1,0,0:0:0:0:
352,272,65934,1,0,3:0:0:0:
212,328,66264,1,0,0:0:0:0:
212,328,66429,1,0,0:0:0:0:
212,328,66594,6,0,P|168:304|140:260,1,100,2|0,0:0|0:0,0:0:0:0:
272,192,67253,2,0,P|316:168|344:124,2,100,0|0|0,3:0|0:0|0:0,0:0:0:0:
141,263,68242,1,0,0:0:0:0:
141,263,68572,1,0,3:0:0:0:
216,52,68901,1,0,0:0:0:0:
216,365,69231,5,4,0:0:0:0:
326,97,69560,1,0,0:0:0:0:
105,319,69890,1,0,3:0:0:0:
372,208,70220,1,0,0:0:0:0:
59,208,70549,1,0,0:0:0:0:
326,319,70879,1,0,0:0:0:0:
105,97,71209,1,0,3:0:0:0:
216,365,71539,1,0,0:0:0:0:
216,52,71868,6,0,L|252:88,1,50,2|0,0:0|0:0,0:0:0:0:
322,158,72198,2,0,L|286:194,1,50,0|0,0:0|0:0,0:0:0:0:
215,264,72528,2,0,L|251:300,1,50,0|0,3:0|0:0,0:0:0:0:
321,370,72857,2,0,L|357:334,1,50,0|0,0:0|0:0,0:0:0:0:
427,263,73187,2,0,L|391:227,1,50,0|0,0:0|0:0,0:0:0:0:
357,122,73517,2,0,L|321:158,1,50,0|0,0:0|0:0,0:0:0:0:
249,226,73846,2,0,L|213:190,1,50,0|0,3:0|0:0,0:0:0:0:
142,119,74176,1,4,3:0:0:0:
60,144,74341,1,0,0:0:0:0:
35,225,74506,6,0,P|80:280|160:300,1,150,4|0,0:0|0:0,0:0:0:0:
240,300,75165,2,0,P|289:297|333:274,2,100,0|0|0,3:0|0:0|0:0,0:0:0:0:
432,180,76154,1,0,0:0:0:0:
325,73,76484,1,0,3:0:0:0:
325,73,76649,1,0,0:0:0:0:
325,73,76813,2,0,L|274:73,1,50
174,73,77143,6,0,L|124:160,1,100,2|0,0:0|0:0,0:0:0:0:
230,265,77802,2,0,L|280:352,1,100,0|0,3:0|0:0,0:0:0:0:
400,351,78462,6,0,L|339:247,1,120.000004577637,4|0,0:0|3:0,0:0:0:0:
248,68,79451,5,0,0:0:0:0:
248,68,79616,1,0,0:0:0:0:
248,68,79780,2,0,L|152:108,1,100,4|0,0:0|0:0,0:0:0:0:
155,257,80440,2,0,L|86:335,2,100,0|0|0,3:0|0:0|0:0,0:0:0:0:
248,68,81429,1,0,0:0:0:0:
177,138,81758,1,0,3:0:0:0:
248,68,82088,1,0,0:0:0:0:
248,188,82418,5,2,0:0:0:0:
248,68,82747,1,0,0:0:0:0:
347,167,83077,2,0,P|375:207|384:256,1,100,0|0,3:0|0:0,0:0:0:0:
201,130,83736,1,4,0:0:0:0:
346,95,84066,1,0,0:0:0:0:
302,239,84396,1,0,0:0:0:0:
302,239,84561,1,0,0:0:0:0:
302,239,84725,1,4,0:0:0:0:
256,192,84890,12,2,86374,0:0:0:0:
256,192,86703,5,0,0:0:0:0:
280,312,87033,2,0,P|336:280|368:236,1,120,0|4,0:0|0:0,0:0:0:0:
