osu file format v14

[General]
AudioFilename: Tsuki Akari.mp3
AudioLeadIn: 1500
PreviewTime: 51768
Countdown: 0
SampleSet: Soft
StackLeniency: 0.7
Mode: 0
LetterboxInBreaks: 1
WidescreenStoryboard: 0

[Editor]
DistanceSpacing: 1
BeatDivisor: 4
GridSize: 4
TimelineZoom: 1.5

[Metadata]
Title:Tsuki Akari
TitleUnicode:月灯り
Artist:Amamiya Sora
ArtistUnicode:雨宮天
Creator:Hinsvar
Version:Easy
Source:アカメが斬る!
Tags:Akame ga Kill! 2nd ending ED2
BeatmapID:742216
BeatmapSetID:334748

[Difficulty]
HPDrainRate:2
CircleSize:3
OverallDifficulty:2
ApproachRate:3
SliderMultiplier:1.2
SliderTickRate:2

[Events]
//Background and Video events
0,0,"Akame.jpg",0,0
//Break Periods
2,84735,93845
2,183836,191426
//Storyboard Layer 0 (Background)
//Storyboard Layer 1 (Fail)
//Storyboard Layer 2 (Pass)
//Storyboard Layer 3 (Foreground)
//Storyboard Sound Samples

[TimingPoints]
340,659.340659340659,4,2,1,20,1,0
8581,-100,4,2,1,5,0,0
9570,-100,4,2,1,15,0,0
10889,-100,4,2,1,20,0,0
20120,-100,4,2,1,15,0,0
21438,-100,4,2,1,20,0,0
31988,-100,4,2,1,35,0,0
51768,-100,4,2,1,20,0,0
53087,-100,4,2,1,55,0,1
83746,-100,4,2,1,55,0,0
95285,-100,4,2,1,25,0,0
99900,-100,4,2,1,10,0,0
100559,-100,4,2,1,25,0,0
116383,-100,4,2,1,35,0,0
136164,-100,4,2,1,45,0,0
137482,-100,4,2,1,55,0,1
168471,-100,4,2,1,20,0,0
169131,-100,4,2,1,55,0,1
169296,-100,4,2,1,55,0,0
180339,-100,4,2,1,35,0,0
182318,-100,4,2,1,45,0,0
183636,659.340659340659,4,2,1,45,1,0
192866,-100,4,2,1,55,0,0
194185,-100,4,2,1,70,0,1
199460,-100,4,2,1,45,0,1
199789,-100,4,2,1,70,0,1
214295,-100,4,2,1,70,0,0
216603,659.340659340659,4,2,1,20,1,0
243646,659.340659340659,4,2,1,20,1,8
245617,659.340659340659,4,2,1,20,1,0
247303,821.917808219178,4,2,1,20,1,8
247713,952.380952380952,4,2,1,15,1,8
248189,714.285714285714,4,2,1,20,1,8
248903,1111.11111111111,4,2,1,20,1,0
249458,882.352941176471,4,2,1,20,1,8
249899,888.888888888889,4,2,1,15,1,8
250787,983.606557377049,4,2,1,15,1,8
251278,1153.84615384615,4,2,1,15,1,8
252431,983.606557377049,4,2,1,15,1,0
253414,-100,4,2,1,25,0,0

[Colours]
Combo1 : 0,128,192
Combo2 : 0,64,128
Combo3 : 128,64,64
Combo4 : 128,0,0

[HitObjects]
124,61,340,6,0,B|83:171|83:171|108:301,1,240,2|2,0:0|0:0,0:0:0:0:
342,332,2977,2,0,B|383:222|383:222|358:92,1,240,2|2,0:0|0:0,0:0:0:0:
129,32,5614,6,0,P|82:66|61:147,1,120,2|0,0:0|0:0,0:0:0:0:
71,241,6933,1,0,0:0:0:0:
176,297,7592,1,0,0:0:0:0:
253,205,8252,2,0,B|303:177|369:208|369:208|438:235|491:203,1,240,2|2,0:0|0:0,0:0:0:0:
324,27,10889,6,0,P|285:73|293:142,1,120,2|2,0:0|0:0,0:0:0:0:
200,213,12208,2,0,P|248:246|314:247,1,120,2|2,0:0|0:0,0:0:0:0:
315,368,13526,2,0,P|396:332|429:247,1,180,2|2,0:0|0:0,0:0:0:0:
242,15,16164,6,0,L|234:140,1,120,2|2,0:0|0:0,0:0:0:0:
148,219,17482,2,0,L|156:344,1,120,2|2,0:0|0:0,0:0:0:0:
279,360,18801,2,0,B|342:362|342:362|407:266|507:296,1,240,2|2,0:0|0:0,0:0:0:0:
318,165,21438,6,0,P|285:114|307:47,1,120,2|2,0:0|0:0,0:0:0:0:
410,35,22757,2,0,P|443:86|421:153,1,120,2|2,0:0|0:0,0:0:0:0:
330,206,24076,2,0,L|202:196,1,120,2|2,0:0|0:0,0:0:0:0:
163,90,25394,2,0,L|35:100,1,120,2|2,0:0|0:0,0:0:0:0:
21,217,26713,5,2,0:0:0:0:
21,217,28032,1,2,0:0:0:0:
98,304,28691,1,2,0:0:0:0:
215,276,29350,2,0,P|291:259|384:305,1,180,2|2,0:0|0:0,0:0:0:0:
473,225,30999,2,0,L|483:153,1,60,0|2,0:0|0:0,0:0:0:0:
394,82,31988,6,0,P|336:63|273:76,1,120,4|2,3:2|3:2,0:0:0:0:
179,140,33307,2,0,L|170:15,1,120,0|2,3:0|3:2,0:0:0:0:
76,94,34625,2,0,P|31:69|14:5,2,120,2|0|2,3:2|3:0|3:2,0:0:0:0:
145,191,36603,1,8,0:0:0:0:
225,280,37263,6,0,P|281:293|342:263,1,120,2|0,3:2|3:0,0:0:0:0:
324,149,38581,2,0,P|268:136|207:166,1,120,2|2,3:2|3:2,0:0:0:0:
116,233,39900,2,0,L|104:112,1,120,2|0,3:2|3:0,0:0:0:0:
212,161,41219,2,0,P|265:161|319:117,1,120,2|2,3:2|3:2,0:0:0:0:
435,105,42537,6,0,P|469:229|423:327,1,240,4|2,3:2|3:2,0:0:0:0:
316,379,44515,1,2,1:2:0:0:
286,262,45175,2,0,P|191:200|79:257,1,240,2|2,3:2|3:2,0:0:0:0:
92,368,47153,1,2,1:2:0:0:
209,342,47812,6,0,P|272:334|338:368,2,120,4|0|2,3:2|3:0|3:2,0:0:0:0:
107,277,49790,1,8,0:0:0:0:
166,172,50449,2,0,B|221:156|278:183|278:183|336:208|401:188,1,240,4|2,3:2|3:0,0:0:0:0:
483,101,52427,1,2,3:2:0:0:
394,20,53087,6,0,P|338:1|277:28,1,120,4|8,3:2|0:0,0:0:0:0:
255,138,54405,1,2,3:2:0:0:
313,242,55065,1,8,0:0:0:0:
264,351,55724,2,0,P|201:359|138:337,1,120,2|8,3:2|0:0,0:0:0:0:
82,241,57043,2,0,P|74:178|96:115,1,120,2|10,3:2|0:0,0:0:0:0:
193,63,58361,6,0,L|316:79,2,120,2|8|2,3:2|0:0|3:2,0:0:0:0:
162,179,60339,1,8,0:0:0:0:
98,77,60999,2,0,P|53:115|43:174,1,120,2|8,3:2|0:0,0:0:0:0:
73,288,62318,2,0,P|123:315|192:298,1,120,2|8,3:2|0:0,0:0:0:0:
248,204,63636,6,0,P|295:195|367:229,2,120,4|8|2,3:2|0:0|3:2,0:0:0:0:
137,244,65614,1,8,0:0:0:0:
171,128,66274,2,0,P|176:75|146:17,2,120,2|10|2,3:2|0:0|3:2,0:0:0:0:
137,244,68252,1,10,0:0:0:0:
223,326,68911,6,0,B|253:274|253:274|246:213,1,120,2|8,3:2|0:0,0:0:0:0:
263,98,70230,2,0,B|204:99|204:99|153:134,1,120,2|10,3:2|0:0,0:0:0:0:
43,170,71548,2,0,B|68:224|68:224|129:246,1,120,2|8,3:2|0:0,0:0:0:0:
241,215,72867,1,2,3:2:0:0:
310,116,73526,1,8,0:0:0:0:
365,222,74186,6,0,P|422:230|493:204,2,120,4|8|2,3:2|0:0|3:2,0:0:0:0:
253,176,76164,1,8,0:0:0:0:
141,219,76823,2,0,P|123:169|152:109,2,120,4|4|4,0:0|3:2|3:2,0:0:0:0:
227,303,78801,1,2,3:2:0:0:
290,201,79460,6,0,P|349:188|419:200,2,120,4|8|2,0:0|3:2|0:2,0:0:0:0:
207,288,81438,1,8,3:2:0:0:
111,211,82098,2,0,P|94:161|116:97,1,120,2|8,3:2|3:2,0:0:0:0:
227,59,83416,2,0,L|291:74,1,60,2|2,3:2|3:2,0:0:0:0:
115,314,95285,6,0,P|90:268|109:203,1,120,2|2,0:0|0:0,0:0:0:0:
188,117,96603,2,0,P|234:92|299:111,1,120,2|2,0:0|0:0,0:0:0:0:
351,215,97922,2,0,P|432:199|457:111,2,180,2|2|0,0:0|0:0|0:0,0:0:0:0:
231,215,100559,6,0,P|204:267|211:336,1,120,2|0,0:0|0:0,0:0:0:0:
323,358,101878,2,0,P|350:306|343:237,1,120,2|0,0:0|0:0,0:0:0:0:
333,124,103197,2,0,P|396:62|486:93,2,180,2|2|2,0:0|0:0|0:0,0:0:0:0:
242,202,105834,6,0,P|183:215|116:190,1,120,2|2,0:0|0:0,0:0:0:0:
137,78,107153,2,0,P|196:65|263:90,1,120,2|2,0:0|0:0,0:0:0:0:
349,151,108471,2,0,B|408:162|408:162|480:133,2,120,2|2|2,0:0|0:0|0:0,0:0:0:0:
247,214,110449,1,0,0:0:0:0:
194,106,111109,5,2,0:0:0:0:
194,106,112427,1,2,0:0:0:0:
282,24,113087,1,0,0:0:0:0:
312,140,113746,2,0,P|338:243|295:303,1,180,2|2,0:0|0:0,0:0:0:0:
180,303,115394,2,0,L|112:279,1,60,0|2,0:0|0:0,0:0:0:0:
93,166,116383,6,0,P|139:129|215:127,2,120,4|2|0,3:2|3:2|3:0,0:0:0:0:
124,281,118361,1,2,3:2:0:0:
229,338,119021,2,0,B|292:338|292:338|351:290,1,120,2|0,3:2|3:0,0:0:0:0:
310,184,120339,2,0,B|247:184|247:184|188:232,1,120,2|8,3:2|0:0,0:0:0:0:
102,286,121658,6,0,P|76:229|94:168,2,120,2|0|2,3:2|3:0|3:2,0:0:0:0:
207,344,123636,1,10,0:0:0:0:
304,273,124296,2,0,P|362:268|426:310,2,120,2|8|2,3:2|0:0|3:2,0:0:0:0:
193,225,126274,1,2,3:2:0:0:
93,157,126933,6,0,P|81:98|104:39,2,120,4|0|2,0:0|3:0|3:2,0:0:0:0:
203,108,128911,1,2,1:2:0:0:
304,44,129570,2,0,P|323:99|311:157,2,120,2|2|0,3:2|3:2|3:2,0:0:0:0:
203,108,131548,1,2,1:2:0:0:
240,221,132208,6,0,B|291:247|291:247|373:232,2,120,4|0|2,3:2|3:0|3:2,0:0:0:0:
187,116,134186,1,8,3:2:0:0:
81,173,134845,2,0,P|50:288|142:356,1,240,4|0,0:0|1:0,0:0:0:0:
232,286,136823,1,0,3:0:0:0:
335,345,137482,6,0,P|394:337|450:288,2,120,4|8|2,3:2|0:0|3:2,0:0:0:0:
344,224,139460,1,10,0:0:0:0:
268,131,140120,2,0,P|231:178|226:253,2,120,2|8|2,3:2|0:0|3:2,0:0:0:0:
383,96,142098,1,10,0:0:0:0:
440,201,142757,6,0,B|456:258|456:258|434:329,1,120,2|8,0:0|0:0,0:0:0:0:
327,364,144076,2,0,B|270:380|270:380|199:358,1,120,2|8,0:0|0:0,0:0:0:0:
122,282,145394,2,0,B|106:225|106:225|128:154,1,120,2|8,0:0|0:0,0:0:0:0:
229,110,146713,1,2,0:0:0:0:
327,178,147372,1,10,3:2:0:0:
424,107,148032,6,0,P|448:162|433:231,1,120,4|10,0:0|0:0,0:0:0:0:
356,306,149350,1,2,3:2:0:0:
260,233,150010,1,8,0:0:0:0:
169,312,150669,2,0,P|110:322|42:289,2,120,2|8|2,3:2|0:0|3:2,0:0:0:0:
236,212,152647,1,10,0:0:0:0:
345,161,153307,6,0,P|387:201|405:271,1,120,2|8,3:2|0:0,0:0:0:0:
331,353,154625,2,0,P|275:369|205:349,1,120,2|10,3:2|0:0,0:0:0:0:
163,248,155944,2,0,P|176:191|228:141,1,120,2|8,3:2|3:2,0:3:0:0:
331,108,157263,1,2,3:2:0:0:
310,226,157922,1,8,0:0:0:0:
217,147,158581,6,0,P|162:119|102:121,2,120,4|10|2,0:0|0:0|3:2,0:0:0:0:
270,255,160559,1,10,0:0:0:0:
343,160,161219,2,0,P|400:139|470:164,1,120,4|4,0:0|3:2,0:0:0:0:
408,264,162537,1,4,3:2:0:0:
300,316,163197,1,2,3:2:0:0:
209,236,163856,6,0,P|148:226|91:257,2,120,4|8|2,0:0|3:2|3:2,0:0:0:0:
295,319,165834,1,8,3:2:0:0:
379,234,166493,2,0,P|396:176|378:112,1,120,2|8,3:2|0:0,0:0:0:0:
279,57,167812,2,0,L|216:63,2,60,2|2|8,3:2|3:2|0:0,0:0:0:0:
378,143,169131,6,0,P|396:195|368:257,2,120,4|8|2,0:0|0:0|0:0,0:0:0:0:
260,117,171109,1,8,0:0:0:0:
214,227,171768,2,0,B|204:287|204:287|233:356,1,120,2|8,0:0|0:0,0:0:0:0:
345,323,173087,2,0,B|355:263|355:263|326:194,1,120,2|8,0:0|0:0,0:0:0:0:
232,141,174405,6,0,P|170:143|117:186,2,120,4|10|2,3:2|3:2|3:2,0:0:0:0:
330,209,176383,1,10,3:2:0:0:
439,158,177043,2,0,P|469:107|454:24,1,120,2|8,0:0|3:2,0:0:0:0:
349,75,178361,2,0,B|306:75|306:75|276:57|276:57|224:57,2,120,0|2|0,3:0|3:2|0:0,0:0:0:0:
399,186,180339,5,4,0:0:0:0:
346,294,180999,2,0,P|292:317|223:298,1,120,2|8,0:0|0:0,0:0:0:0:
140,228,182318,2,0,P|117:174|136:105,2,120,2|2|2,0:0|0:0|0:0,0:0:0:0:
165,58,192866,5,4,1:2:0:0:
102,160,193526,1,2,0:0:0:0:
152,268,194185,6,0,P|204:290|276:277,1,120,4|8,0:0|0:0,0:0:0:0:
340,188,195504,1,2,3:2:0:0:
288,79,196163,1,10,0:0:0:0:
187,143,196822,2,0,L|161:268,2,120,2|10|2,3:2|0:0|3:2,0:0:0:0:
121,42,198800,1,10,0:0:0:0:
236,74,199460,6,0,P|299:81|353:49,1,120,4|8,0:0|0:0,0:0:0:0:
442,127,200778,2,0,P|435:190|467:244,1,120,2|10,0:0|0:0,0:0:0:0:
385,331,202097,2,0,P|322:324|268:356,1,120,2|2,3:2|3:2,0:0:0:0:
170,287,203416,1,2,0:0:0:0:
241,190,204075,1,2,3:2:0:0:
333,265,204734,6,0,P|387:273|450:231,2,120,4|10|2,3:2|0:0|3:2,0:0:0:0:
248,350,206712,1,10,0:0:0:0:
154,274,207372,1,4,0:0:0:0:
164,154,208031,1,4,3:2:0:0:
246,67,208690,2,0,P|302:49|375:68,1,120,2|2,3:2|0:0,0:0:0:0:
427,160,210009,6,0,L|439:290,1,120,4|8,0:0|3:2,0:0:0:0:
328,329,211328,2,0,L|316:199,1,120,2|8,3:2|3:2,0:0:0:0:
219,139,212646,1,2,3:2:0:0:
132,221,213306,1,8,3:2:0:0:
159,337,213965,2,0,L|229:353,1,60,2|2,3:2|3:2,0:0:0:0:
416,255,216603,6,0,P|439:205|414:140,1,120,2|2,0:0|0:0,0:0:0:0:
334,60,217921,2,0,P|284:37|219:62,1,120,2|2,0:0|0:0,0:0:0:0:
139,140,219240,2,0,P|116:190|141:255,1,120,2|2,0:0|0:0,0:0:0:0:
221,335,220559,2,0,P|271:358|336:333,1,120,2|2,0:0|0:0,0:0:0:0:
403,243,221877,6,0,B|417:188|417:188|395:127,1,120,2|2,0:0|0:0,0:0:0:0:
293,65,223196,2,0,B|238:80|238:80|196:129,1,120,2|2,0:0|0:0,0:0:0:0:
186,248,224515,2,0,B|226:287|226:287|290:299,2,120,2|2|2,0:0|0:0|0:0,0:0:0:0:
413,41,227152,6,0,P|440:97|425:167,1,120,2|2,0:0|0:0,0:0:0:0:
328,212,228471,2,0,L|201:224,1,120,2|2,0:0|0:0,0:0:0:0:
93,190,229789,2,0,B|77:158|99:122|99:122|64:72|93:5,1,180,2|2,0:0|0:0,0:0:0:0:
326,47,232427,6,0,P|282:84|212:79,1,120,2|2,0:0|0:0,0:0:0:0:
154,182,233745,2,0,P|191:226|186:296,1,120,2|2,0:0|0:0,0:0:0:0:
291,351,235064,2,0,P|355:253|475:258,1,240,2|2,0:0|0:0,0:0:0:0:
410,359,237042,1,2,0:0:0:0:
340,261,237701,6,0,P|322:207|346:150,1,120,2|2,0:0|0:0,0:0:0:0:
464,156,239020,2,0,P|482:210|458:267,1,120,2|2,0:0|0:0,0:0:0:0:
340,261,240339,2,0,L|218:251,2,120,2|2|2,0:0|0:0|0:0,0:0:0:0:
404,159,242317,1,2,0:0:0:0:
340,57,242976,5,2,0:0:0:0:
249,170,245617,5,2,0:0:0:0:
192,85,247303,5,2,0:0:0:0:
256,192,248903,12,2,253414,0:0:0:0:
