osu file format v14

[General]
AudioFilename: Skyreach (Full ver.).mp3
AudioLeadIn: 1500
PreviewTime: 135896
Countdown: 0
SampleSet: Soft
StackLeniency: 0.7
Mode: 0
LetterboxInBreaks: 0
WidescreenStoryboard: 0

[Editor]
DistanceSpacing: 0.9
BeatDivisor: 4
GridSize: 32
TimelineZoom: 2

[Metadata]
Title:Skyreach
TitleUnicode:Skyreach
Artist:Amamiya Sora
ArtistUnicode:雨宮天
Creator:smallboat
Version:Normal Slash
Source:アカメが斬る!
Tags:Akame ga Kill! full ver opening takahiro tetsuya square enix white fox gangan comic joker black red eye girl anigi king blood ice zan slash sword cut head kill death die night raid Kawaiwkyik
BeatmapID:549836
BeatmapSetID:237490

[Difficulty]
HPDrainRate:4
CircleSize:2.9
OverallDifficulty:4.2
ApproachRate:5
SliderMultiplier:1.1
SliderTickRate:1

[Events]
//Background and Video events
Video,500,"video.flv"
0,0,"bg.jpg",0,0
//Break Periods
2,178200,187276
2,234328,240591
//Storyboard Layer 0 (Background)
//Storyboard Layer 1 (Fail)
//Storyboard Layer 2 (Pass)
//Storyboard Layer 3 (Foreground)
//Storyboard Sound Samples

[TimingPoints]
1304,326.086956521739,4,2,2,60,1,0
1793,-100,4,3,2,65,0,0
1956,-100,4,3,2,55,0,0
2445,-100,4,3,2,45,0,0
3097,-100,4,2,2,70,0,0
4401,-100,4,3,2,65,0,0
4564,-100,4,3,2,55,0,0
5053,-100,4,3,2,45,0,0
5706,-100,4,2,2,70,0,0
7010,-100,4,3,2,65,0,0
7173,-100,4,3,2,55,0,0
7662,-100,4,3,2,45,0,0
8314,-100,4,2,1,70,0,0
10760,-100,4,2,1,50,0,0
13043,-100,4,2,1,40,0,0
13369,-100,4,2,1,60,0,0
13695,-100,4,3,2,60,0,0
13858,-100,4,2,1,60,0,0
15651,-100,4,2,1,50,0,0
16303,-100,4,3,2,50,0,0
16467,-100,4,2,1,50,0,0
16956,-100,4,3,2,50,0,0
17119,-100,4,2,1,45,0,0
18260,-100,4,2,1,60,0,0
18912,-100,4,3,2,50,0,0
19075,-100,4,2,1,60,0,0
20869,-100,4,2,1,45,0,0
21521,-100,4,3,2,45,0,0
21684,-100,4,2,1,45,0,0
21847,-100,4,3,2,45,0,0
22010,-100,4,2,1,45,0,0
22173,-100,4,3,2,45,0,0
22336,-100,4,3,2,45,0,0
22499,-100,4,2,1,45,0,0
22662,-100,4,2,1,45,0,0
23314,-100,4,2,2,65,0,0
24619,-100,4,2,2,60,0,0
28532,-100,4,2,1,60,0,0
28695,-100,4,2,0,60,0,0
28858,-100,4,2,2,60,0,0
29347,-100,4,2,2,70,0,0
31303,-100,4,2,0,70,0,0
31467,-100,4,2,2,70,0,0
33749,-100,4,2,1,70,0,0
34238,-100,4,2,2,65,0,0
35053,-100,4,2,1,60,0,0
35543,-100,4,2,2,65,0,0
36358,-100,4,2,1,60,0,0
36847,-100,4,2,2,65,0,0
37662,-100,4,2,1,60,0,0
38151,-100,4,2,2,60,0,0
39130,-100,4,2,1,70,0,0
39456,-100,4,2,2,60,0,0
40434,-100,4,3,2,70,0,0
40597,-100,4,2,2,60,0,0
41738,-100,4,2,1,50,0,0
43695,-100,4,3,2,60,0,0
44184,-100,4,2,1,60,0,0
44673,-100,4,2,2,50,0,0
44999,-100,4,2,2,30,0,0
45488,-100,4,2,1,75,0,1
45651,-100,4,2,2,70,0,1
46303,-100,4,3,2,70,0,1
46467,-100,4,2,2,70,0,1
48260,-100,4,2,1,75,0,1
48423,-100,4,2,2,70,0,1
49401,-100,4,2,1,80,0,1
49564,-100,4,2,2,70,0,1
50217,-100,4,2,2,75,0,1
50706,-100,4,2,1,75,0,1
51195,-100,4,2,2,70,0,1
52010,-100,4,2,1,70,0,1
52336,-100,4,2,2,70,0,1
53477,-100,4,2,1,70,0,1
53803,-100,4,2,2,70,0,1
54619,-100,4,2,1,70,0,1
54782,-100,4,2,2,70,0,1
55434,-100,4,2,2,75,0,1
55923,-100,4,2,1,70,0,1
56086,-100,4,2,2,80,0,1
57227,-100,4,2,1,80,0,1
57553,-100,4,2,2,70,0,1
58695,-100,4,2,1,70,0,1
58858,-100,4,2,2,70,0,1
59836,-100,4,2,1,70,0,1
59999,-100,4,2,2,70,0,1
60651,-100,4,2,2,75,0,1
61140,-100,4,2,1,70,0,1
61303,-100,4,2,2,70,0,1
62445,-100,4,2,1,70,0,1
62608,-100,4,2,2,70,0,1
63912,-100,4,2,1,70,0,1
64075,-100,4,2,2,70,0,1
64727,-100,4,3,2,70,0,1
64890,-100,4,2,2,70,0,1
65053,-100,4,2,1,70,0,1
65217,-100,4,2,2,70,0,1
65869,-100,4,2,2,60,0,1
66521,-100,4,2,1,70,0,1
66684,-100,4,2,2,70,0,1
67336,-100,4,3,2,70,0,1
67499,-100,4,2,2,70,0,1
67662,-100,4,3,2,70,0,1
67825,-100,4,2,2,70,0,1
68314,-100,4,3,2,70,0,1
68477,-100,4,2,2,70,0,1
69130,-100,4,2,1,70,0,1
69293,-100,4,2,2,70,0,1
69619,-100,4,3,2,70,0,1
69782,-100,4,2,2,70,0,1
70271,-100,4,2,1,70,0,1
70434,-100,4,2,2,70,0,1
71086,-100,4,2,2,75,0,1
71738,-100,4,2,1,70,0,1
71901,-100,4,2,2,70,0,1
72880,-100,4,2,1,70,0,1
73043,-100,4,2,2,50,0,1
74184,-100,4,2,1,60,0,1
74673,-100,4,3,2,65,0,1
74836,-100,4,2,2,50,0,1
75651,-100,4,2,1,80,0,0
76793,-100,4,2,1,70,0,0
77282,-100,4,3,2,70,0,0
77608,-100,4,2,2,50,0,0
77934,-100,4,3,2,70,0,0
78749,-100,4,2,2,60,0,0
79401,-100,4,2,1,50,0,0
80217,-100,4,2,2,50,0,0
80543,-100,4,3,2,70,0,0
82010,-100,4,2,1,55,0,0
82499,-100,4,2,1,60,0,0
82825,-100,4,3,2,60,0,0
82988,-100,4,2,1,60,0,0
83967,-100,4,3,2,60,0,0
84130,-100,4,2,1,60,0,0
84782,-100,4,2,1,50,0,0
85271,-100,4,3,2,50,0,0
85434,-100,4,2,1,50,0,0
86086,-100,4,3,2,50,0,0
86249,-100,4,2,1,45,0,0
87390,-100,4,2,1,60,0,0
88043,-100,4,3,2,50,0,0
88206,-100,4,2,1,60,0,0
89999,-100,4,2,1,45,0,0
90651,-100,4,3,2,45,0,0
90814,-100,4,2,1,45,0,0
90977,-100,4,3,2,45,0,0
91140,-100,4,2,1,45,0,0
91303,-100,4,3,2,45,0,0
91630,-100,4,2,1,45,0,0
91956,-100,4,2,2,30,0,0
92608,-100,4,2,2,65,0,0
93749,-100,4,2,2,60,0,0
97662,-100,4,2,1,60,0,0
97825,-100,4,2,2,60,0,0
98477,-100,4,2,2,70,0,0
102880,-100,4,2,1,70,0,0
103369,-100,4,2,2,65,0,0
104184,-100,4,2,1,60,0,0
104673,-100,4,2,2,65,0,0
105488,-100,4,2,1,60,0,0
105977,-100,4,2,2,65,0,0
106793,-100,4,2,1,60,0,0
107608,-100,4,2,2,60,0,0
108260,-100,4,2,1,70,0,0
108586,-100,4,2,2,60,0,0
109564,-100,4,3,2,70,0,0
109727,-100,4,2,2,60,0,0
110869,-100,4,2,1,50,0,0
112825,-100,4,3,2,60,0,0
113314,-100,4,2,1,60,0,0
113803,-100,4,2,2,50,0,0
114130,-100,4,2,2,30,0,0
114619,-100,4,2,1,75,0,1
114782,-100,4,2,2,70,0,1
115434,-100,4,3,2,70,0,1
115597,-100,4,2,2,70,0,1
117390,-100,4,2,1,75,0,1
117553,-100,4,2,2,70,0,1
118532,-100,4,2,1,80,0,1
118695,-100,4,2,2,70,0,1
119347,-100,4,2,2,75,0,1
119836,-100,4,2,1,75,0,1
120325,-100,4,2,2,70,0,1
121140,-100,4,2,1,70,0,1
121467,-100,4,2,2,70,0,1
122608,-100,4,2,1,70,0,1
122934,-100,4,2,2,70,0,1
123749,-100,4,2,1,70,0,1
123912,-100,4,2,2,70,0,1
124564,-100,4,2,2,75,0,1
125053,-100,4,2,1,70,0,1
125217,-100,4,2,2,80,0,1
126358,-100,4,2,1,80,0,1
126521,-100,4,2,2,70,0,1
127825,-100,4,2,1,70,0,1
127988,-100,4,2,2,70,0,1
128967,-100,4,2,1,70,0,1
129130,-100,4,2,2,70,0,1
129782,-100,4,2,2,75,0,1
130271,-100,4,2,1,70,0,1
130434,-100,4,2,2,70,0,1
131575,-100,4,2,1,70,0,1
131738,-100,4,2,2,70,0,1
133043,-100,4,2,1,70,0,1
133206,-100,4,2,2,70,0,1
133858,-100,4,3,2,70,0,1
134021,-100,4,2,2,70,0,1
134184,-100,4,2,1,70,0,1
134347,-100,4,2,2,70,0,1
134999,-100,4,2,2,60,0,1
135651,-100,4,2,1,70,0,1
135814,-100,4,2,2,70,0,1
136467,-100,4,3,2,70,0,1
136630,-100,4,2,2,70,0,1
136793,-100,4,3,2,70,0,1
136956,-100,4,2,2,70,0,1
137445,-100,4,3,2,70,0,1
137608,-100,4,2,2,70,0,1
138260,-100,4,2,1,70,0,1
138423,-100,4,2,2,70,0,1
138749,-100,4,3,2,70,0,1
138912,-100,4,2,2,70,0,1
139401,-100,4,2,1,70,0,1
139564,-100,4,2,2,70,0,1
140217,-100,4,2,2,75,0,1
140869,-100,4,2,1,70,0,1
141032,-100,4,2,2,70,0,1
142010,-100,4,2,1,70,0,1
142173,-100,4,2,2,50,0,1
143314,-100,4,2,1,60,0,1
143803,-100,4,3,2,65,0,1
143967,-100,4,2,2,50,0,1
144782,-100,4,2,1,80,0,0
145923,-100,4,2,1,70,0,0
146412,-100,4,3,2,70,0,0
146738,-100,4,2,2,50,0,0
147064,-100,4,3,2,70,0,0
147880,-100,4,2,2,60,0,0
148532,-100,4,2,1,50,0,0
149347,-100,4,2,2,50,0,0
149673,-100,4,3,2,70,0,0
151140,-100,4,2,1,55,0,0
151630,-100,4,3,2,60,0,0
151956,-100,4,2,2,50,0,0
153423,-100,4,2,2,60,0,0
153912,-100,4,2,1,60,0,0
154890,-100,4,2,2,60,0,0
155053,-100,4,2,1,65,0,0
155380,-100,4,3,2,70,0,0
155543,-100,4,2,1,65,0,0
155869,-100,4,2,2,50,0,0
156195,-100,4,2,1,50,0,0
156521,-100,4,2,2,20,0,0
157173,326.086956521739,4,2,2,55,1,0
158314,-100,4,2,1,70,0,0
158640,-100,4,2,2,70,0,0
159129,-100,4,2,2,60,0,0
161412,-100,4,2,2,50,0,0
161738,-100,4,3,2,55,0,0
162227,-100,4,2,1,50,0,0
162716,-100,4,2,2,50,0,0
163531,-100,4,2,1,50,0,0
163694,-100,4,2,2,50,0,0
164999,-100,4,2,1,50,0,0
165651,-100,4,2,2,50,0,0
166140,-100,4,2,1,55,0,0
166303,-100,4,2,2,50,0,0
167444,-100,4,2,1,50,0,0
167607,-100,4,2,2,50,0,0
168749,-100,4,2,1,50,0,0
168912,-100,4,2,2,50,0,0
170053,-100,4,2,1,50,0,0
170216,-100,4,2,2,50,0,0
171357,-100,4,2,1,50,0,0
171520,-100,4,2,2,50,0,0
172825,320.285267411508,4,2,2,55,1,0
175066,326.086956521739,4,2,2,55,1,0
175392,326.086956521739,4,2,2,55,1,0
177022,-100,4,2,2,40,0,0
177348,-100,4,3,2,40,0,0
177837,-100,4,3,2,30,0,0
178000,326.086956521739,4,2,2,55,1,0
178000,-100,4,2,2,55,0,0
178163,-100,4,2,2,20,0,0
183260,326.086956521739,4,2,2,30,1,0
188477,-100,4,2,2,50,0,0
197607,-100,4,2,1,50,0,0
199727,-100,4,3,2,60,0,0
200216,-100,4,2,1,60,0,0
200705,-100,4,2,2,50,0,0
202173,-100,4,2,2,30,0,0
202662,-100,4,2,1,75,0,1
202825,-100,4,2,2,70,0,1
203477,-100,4,3,2,70,0,1
203640,-100,4,2,2,70,0,1
205433,-100,4,2,1,75,0,1
205596,-100,4,2,2,70,0,1
206575,-100,4,2,1,80,0,1
206738,-100,4,2,2,70,0,1
207390,-100,4,2,2,75,0,1
207879,-100,4,2,1,75,0,1
208368,-100,4,2,2,70,0,1
209183,-100,4,2,1,70,0,1
209510,-100,4,2,2,70,0,1
210651,-100,4,2,1,70,0,1
210977,-100,4,2,2,70,0,1
211792,-100,4,2,1,70,0,1
211955,-100,4,2,2,70,0,1
212607,-100,4,2,2,75,0,1
213096,-100,4,2,1,70,0,1
213260,-100,4,2,2,80,0,1
214727,-100,4,2,2,70,0,1
215868,-100,4,2,1,70,0,1
216031,-100,4,2,2,70,0,1
217010,-100,4,2,1,70,0,1
217173,-100,4,2,2,70,0,1
217825,-100,4,2,2,75,0,1
218314,-100,4,2,1,70,0,1
218477,-100,4,2,2,70,0,1
219618,-100,4,2,1,70,0,1
219781,-100,4,2,2,70,0,1
221086,-100,4,2,1,70,0,1
221249,-100,4,2,2,70,0,1
221901,-100,4,3,2,70,0,1
222064,-100,4,2,2,70,0,1
222227,-100,4,2,1,70,0,1
222390,-100,4,2,2,70,0,1
223042,-100,4,2,2,60,0,1
223694,-100,4,2,1,70,0,1
223857,-100,4,2,2,70,0,1
224510,-100,4,3,2,70,0,1
224673,-100,4,2,2,70,0,1
224836,-100,4,3,2,70,0,1
224999,-100,4,2,2,70,0,1
225488,-100,4,3,2,70,0,1
225651,-100,4,2,2,70,0,1
226303,-100,4,2,1,70,0,1
226466,-100,4,2,2,70,0,1
226792,-100,4,3,2,70,0,1
226955,-100,4,2,2,70,0,1
227444,-100,4,2,1,70,0,1
227607,-100,4,2,2,70,0,1
228260,-100,4,2,2,75,0,1
228912,-100,4,2,1,70,0,1
229075,-100,4,2,2,70,0,1
230053,-100,4,2,1,70,0,1
230216,-100,4,2,2,50,0,1
231357,-100,4,2,1,60,0,1
231846,-100,4,3,2,55,0,1
232010,-100,4,2,2,50,0,1
232662,-100,4,2,1,50,0,1
233151,-100,4,2,2,35,0,1
234129,-100,4,2,1,50,0,0
234292,-100,4,2,2,50,0,0
235270,-100,4,2,1,50,0,0
235596,-100,4,2,2,50,0,0
236575,-100,4,2,1,50,0,0
236738,-100,4,2,2,50,0,0
237879,-100,4,2,1,50,0,0
238042,-100,4,2,2,50,0,0
240488,-100,4,2,2,40,0,0
241303,-100,4,2,2,50,0,0
248314,-100,4,2,1,50,0,0
248803,-100,4,2,2,50,0,0
249618,-100,4,2,1,70,0,0
250107,-100,4,3,2,70,0,0
250433,-100,4,2,2,50,0,0
250759,-100,4,3,2,70,0,0
251575,-100,4,2,2,60,0,0
252227,-100,4,2,1,50,0,0
253042,-100,4,2,2,50,0,0
253368,-100,4,3,2,70,0,0
254836,-100,4,2,1,55,0,0
255325,-100,4,3,2,60,0,0
255651,-100,4,2,2,50,0,0
257118,-100,4,2,2,35,0,0
257607,-100,4,2,1,60,0,0
258586,-100,4,2,2,60,0,0
258749,-100,4,2,1,70,0,0
259075,-100,4,3,2,70,0,0
259238,-100,4,2,1,70,0,0
259564,-100,4,2,2,50,0,0
259890,-100,4,2,1,50,0,0
260216,-100,4,2,3,45,0,0
260379,-100,4,3,2,55,0,0
260542,-100,4,2,1,60,0,0
260705,-100,4,3,2,60,0,0
260868,-100,4,2,2,60,0,0
261031,-100,4,3,2,60,0,0
261194,-100,4,2,2,60,0,0
261357,-100,4,2,3,50,0,0
261520,-100,4,2,1,40,0,0
262173,-100,4,3,2,35,0,0

[Colours]
Combo1 : 206,0,206
Combo2 : 176,0,0
Combo3 : 232,116,0
Combo4 : 219,219,0

[HitObjects]
28,342,1304,6,0,B|150:326|150:326,1,110,4|0,0:0|0:0,0:0:0:0:
226,285,1956,2,0,L|347:267,1,110
418,215,2608,1,0,0:0:0:0:
458,124,2934,1,0,0:0:0:0:
429,83,3097,2,0,B|374:73|374:73|314:112,1,110,12|12,0:0|0:0,0:0:0:0:
218,204,3912,6,0,B|171:229|171:229|101:227,1,110,12|0,0:0|0:0,0:0:0:0:
47,154,4565,2,0,B|67:105|67:105|124:62,1,110,0|0,0:0|0:0,0:0:0:0:
204,33,5217,1,0,0:0:0:0:
296,68,5542,1,0,0:0:0:0:
344,79,5705,2,0,B|401:81|401:81|447:34,1,110,12|12,0:0|0:0,0:0:0:0:
462,188,6520,6,0,B|340:181,1,110,12|0,0:0|0:0,0:0:0:0:
301,266,7172,2,0,B|410:272,1,110,0|0,0:0|0:0,0:0:0:0:
506,296,7825,1,0,0:0:0:0:
438,368,8151,1,0,0:0:0:0:
388,364,8314,2,0,L|262:355,1,110,12|8,0:0|0:0,0:0:0:0:
228,352,8803,1,8,0:0:0:0:
128,344,9129,6,0,B|79:328|79:328|55:258,1,110,4|8,0:0|0:0,0:0:0:0:
50,224,9618,2,0,B|86:182|86:182|134:208|134:208|190:170,1,165,4|8,0:0|0:0,0:0:0:0:
205,135,10270,2,0,B|206:79|206:79|135:41,1,110,4|0,0:0|0:0,0:0:0:0:
112,36,10759,5,4,0:0:0:0:
466,293,12390,6,0,L|476:347,2,55,8|0|8,0:0|0:0|0:0,0:0:0:0:
391,226,13042,5,12,0:0:0:0:
299,264,13368,2,0,B|247:287|247:287|174:280,1,110,2|0,0:0|0:0,0:0:0:0:
96,262,14020,1,2,0:0:0:0:
34,184,14346,2,0,B|64:139|64:139|124:121,1,110,0|2,0:0|0:0,0:0:0:0:
216,123,14998,1,0,0:0:0:0:
306,163,15325,1,2,0:0:0:0:
299,264,15651,6,0,P|351:314|410:319,1,110,4|0,0:0|0:0,0:0:0:0:
435,327,16140,2,0,P|476:261|458:165,1,165,0|2,0:0|0:0,0:0:0:0:
425,87,16955,2,0,P|343:88|278:40,1,165,0|10,0:0|0:0,0:0:0:0:
183,11,17770,2,0,P|107:38|70:110,1,165,10|8,0:0|0:0,0:0:0:0:
61,208,18585,6,0,B|77:263|77:263|144:295,1,110,2|4,0:0|0:0,0:0:0:0:
215,325,19238,1,2,0:0:0:0:
309,354,19564,2,0,B|365:355|365:355|424:310,1,110,4|2,0:0|0:0,0:0:0:0:
477,251,20216,1,0,0:0:0:0:
493,153,20542,1,2,0:0:0:0:
468,57,20868,6,0,L|359:75,1,110,12|2,0:0|0:0,0:0:0:0:
263,100,21520,2,8,P|211:117|159:102,1,110,0|0,0:0|0:0,0:0:0:0:
64,73,22172,2,0,B|46:143|103:183|103:183|116:239,1,165,0|12,0:0|0:0,0:0:0:0:
158,308,22988,1,10,0:0:0:0:
202,330,23151,1,14,0:0:0:0:
301,347,23477,5,4,0:0:0:0:
399,345,23803,2,0,B|434:305|434:305|443:230,1,110,10|0,0:0|0:0,0:0:0:0:
444,148,24455,1,10,0:0:0:0:
361,93,24781,2,0,B|297:71|297:71|280:32,1,110,0|10,0:0|0:0,0:0:0:0:
182,17,25433,1,0,0:0:0:0:
85,39,25759,1,10,0:0:0:0:
23,116,26085,6,0,P|59:151|126:154,1,110,0|10,0:0|0:0,0:0:0:0:
163,140,26575,2,0,P|208:112|259:127,1,110
289,167,27064,1,10,0:0:0:0:
327,261,27390,6,0,P|362:304|413:321,1,110,0|10,0:0|0:0,0:0:0:0:
460,310,27879,2,0,L|443:181,1,110
475,161,28368,2,0,L|467:103,1,55,10|0,0:0|0:0,0:0:0:0:
440,64,28694,6,0,P|391:77|330:58,1,110,4|10,0:0|0:0,0:0:0:0:
239,34,29346,1,0,0:0:0:0:
144,63,29672,2,0,P|203:151|308:147,1,220,10|10,0:0|0:0,0:0:0:0:
395,192,30651,2,0,P|392:240|333:296,1,110,0|10,0:0|0:0,0:0:0:0:
260,253,31303,5,4,0:0:0:0:
226,346,31629,2,0,P|274:374|329:361,1,110,10|0,0:0|0:0,0:0:0:0:
419,336,32281,1,10,0:0:0:0:
495,273,32607,2,0,B|471:235|471:235|487:159,1,110,0|10,0:0|0:0,0:0:0:0:
478,72,33259,2,0,L|503:18,2,55,10|0|0,0:0|0:0|0:0,0:0:0:0:
436,98,33748,6,0,P|389:126|335:125,1,110,4|0,0:0|0:0,0:0:0:0:
286,113,34238,1,10,0:0:0:0:
194,76,34564,1,0,0:0:0:0:
97,103,34890,1,10,0:0:0:0:
97,103,35053,2,0,P|72:156|98:214,1,110,4|0,0:0|0:0,0:0:0:0:
118,241,35542,1,10,0:0:0:0:
194,303,35868,1,2,0:0:0:0:
292,314,36194,1,0,0:0:0:0:
292,314,36357,6,0,P|347:294|398:317,1,110,4|0,0:0|0:0,0:0:0:0:
432,339,36846,1,2,0:0:0:0:
500,267,37172,1,2,0:0:0:0:
493,168,37498,1,0,0:0:0:0:
493,168,37661,2,0,P|437:174|392:146,1,110,4|0,0:0|0:0,0:0:0:0:
363,107,38151,1,2,0:0:0:0:
265,92,38477,2,0,L|140:109,1,110,2|10,0:0|0:0,0:0:0:0:
63,148,39129,6,0,P|94:191|146:207,1,110,4|10,0:0|0:0,0:0:0:0:
244,193,39781,1,0,0:0:0:0:
336,227,40107,1,10,0:0:0:0:
433,246,40433,2,0,P|409:295|365:326,1,110,0|10,0:0|0:0,0:0:0:0:
267,347,41085,1,0,0:0:0:0:
170,325,41411,1,10,0:0:0:0:
72,340,41738,6,0,L|82:279,1,55,12|12,0:0|0:0,0:0:0:0:
16,210,42227,2,0,L|27:148,1,55,12|12,0:0|0:0,0:0:0:0:
121,183,42716,2,0,L|132:120,1,55,12|12,0:0|0:0,0:0:0:0:
226,153,43205,2,0,L|234:98,1,55,12|4,0:0|0:0,0:0:0:0:
332,91,43694,6,0,L|310:273,1,165,4|6,0:0|0:0,0:0:0:0:
422,352,44672,1,12,0:0:0:0:
437,254,44998,2,0,L|444:189,2,55,10|0|0,0:0|0:0|0:0,0:0:0:0:
393,276,45488,5,4,0:0:0:0:
263,349,45977,2,0,P|209:355|162:328,1,110,10|0,0:0|0:0,0:0:0:0:
84,266,46629,1,10,0:0:0:0:
74,217,46792,2,0,L|205:194,1,110
230,185,47281,1,10,0:0:0:0:
279,182,47444,2,0,P|384:196|426:163,1,165,0|10,0:0|0:0,0:0:0:0:
465,72,48259,6,0,P|420:37|347:31,1,110,4|10,0:0|0:0,0:0:0:0:
324,49,48748,2,0,P|272:64|196:39,1,110
170,38,49238,1,10,0:0:0:0:
120,32,49401,2,0,B|149:95|149:95|98:177,1,165,4|10,0:0|0:0,0:0:0:0:
66,270,50216,2,0,B|11:321,2,55,2|0|10,0:0|0:0|0:0,0:0:0:0:
104,300,50705,5,4,0:0:0:0:
245,343,51194,2,0,P|300:342|348:316,1,110,10|0,0:0|0:0,0:0:0:0:
423,253,51846,1,10,0:0:0:0:
437,205,52009,6,0,P|380:210|330:167,1,110,4|0,0:0|0:0,0:0:0:0:
302,147,52498,1,10,0:0:0:0:
272,106,52661,2,0,P|209:56|118:71,1,165,0|10,0:0|0:0,0:0:0:0:
62,138,53477,6,0,P|110:162|163:153,1,110,4|10,0:0|0:0,0:0:0:0:
202,244,54129,2,0,L|208:298,1,55,2|0,0:0|0:0,0:0:0:0:
236,339,54455,1,10,0:0:0:0:
282,355,54618,2,0,P|338:299|330:219,1,165,4|10,0:0|0:0,0:0:0:0:
293,126,55433,2,0,L|302:70,2,55,2|0|10,0:0|0:0|0:0,0:0:0:0:
245,141,55922,5,4,0:0:0:0:
120,221,56411,2,0,P|68:203|38:158,1,110,10|0,0:0|0:0,0:0:0:0:
23,61,57064,1,10,0:0:0:0:
61,29,57227,2,0,L|177:17,1,110,4|0,0:0|0:0,0:0:0:0:
268,29,57879,1,0,0:0:0:0:
356,73,58205,2,0,L|367:12,2,55,0|10|0,0:0|0:0|0:0,0:0:0:0:
347,121,58694,6,0,P|295:134|236:113,1,110,4|10,0:0|0:0,0:0:0:0:
195,101,59183,2,0,P|140:95|80:117,1,110
54,147,59672,1,10,0:0:0:0:
35,193,59835,2,0,B|73:266|73:266|153:250,1,165,4|10,0:0|0:0,0:0:0:0:
252,236,60651,2,0,L|262:173,2,55,2|2|10,0:0|0:0|0:0,0:0:0:0:
297,254,61140,5,4,0:0:0:0:
424,331,61629,2,0,B|463:290|463:290|457:211,1,110,10|0,0:0|0:0,0:0:0:0:
450,138,62281,1,10,0:0:0:0:
435,90,62444,2,0,P|385:98|327:70,1,110,4|0,0:0|0:0,0:0:0:0:
293,43,62933,1,10,0:0:0:0:
249,18,63096,2,0,B|197:76|197:76|98:57,1,165,0|10,0:0|0:0,0:0:0:0:
33,120,63911,6,0,B|49:171|49:171|118:200,1,110,4|10,0:0|0:0,0:0:0:0:
184,245,64564,2,0,L|197:186,2,55,2|4|10,0:0|0:0|0:0,0:0:0:0:
221,277,65053,2,0,P|300:270|346:192,1,165,4|10,0:0|0:0,0:0:0:0:
350,104,65868,2,0,B|322:99|322:99|275:73|275:73|250:87|250:87|223:74|223:74|197:85|197:85|172:73|172:73|147:83,1,220,2|4,0:0|0:0,0:0:0:0:
58,117,66846,5,10,0:0:0:0:
36,161,67009,2,0,P|69:203|121:219,1,110
170,214,67499,1,10,0:0:0:0:
220,202,67661,2,0,P|264:169|337:177,1,110
366,175,68151,1,10,0:0:0:0:
409,197,68314,2,0,B|432:280|432:280|338:317,1,165,0|10,0:0|0:0,0:0:0:0:
268,350,69129,5,4,0:0:0:0:
169,349,69455,1,10,0:0:0:0:
119,342,69618,2,0,B|65:329|65:329|39:282,1,110,0|0,0:0|0:0,0:0:0:0:
47,232,70107,1,10,0:0:0:0:
73,190,70270,2,0,P|150:171|188:100,1,165,4|10,0:0|0:0,0:0:0:0:
260,32,71085,2,0,P|295:10|355:9,2,82.5,2|2|2,0:0|0:0|0:0,0:0:0:0:
274,79,71738,6,0,P|321:108|375:105,1,110,4|10,0:0|0:0,0:0:0:0:
422,95,72227,2,0,L|466:223,1,110,2|2,0:0|0:0,0:0:0:0:
471,246,72716,1,10,0:0:0:0:
456,293,72879,2,0,P|376:310|304:274,1,165,4|2,0:0|0:0,0:0:0:0:
247,193,73694,2,0,L|221:120,2,55,2|0|2,0:0|0:0|0:0,0:0:0:0:
212,228,74183,6,0,P|79:226|58:98,1,275,4|2,0:0|0:0,0:0:0:0:
105,23,75325,1,2,0:0:0:0:
202,5,75651,2,0,B|280:27,1,55,4|0,0:0|0:0,0:0:0:0:
388,84,76303,2,0,L|412:150,1,55,4|0,0:0|0:0,0:0:0:0:
443,227,76792,6,0,B|459:291|459:291|358:276,1,165,4|0,0:0|0:0,0:0:0:0:
263,261,77607,1,2,0:0:0:0:
177,210,77933,2,0,P|209:174|286:165,1,110,0|0,0:0|0:0,0:0:0:0:
317,169,78422,2,0,P|321:138|304:94,1,55
305,66,78748,2,0,P|255:54|197:70,1,110,12|12,0:0|0:0,0:0:0:0:
119,126,79401,6,0,P|82:199|112:287,1,165,4|0,0:0|0:0,0:0:0:0:
191,321,80216,1,10,0:0:0:0:
289,314,80542,1,0,0:0:0:0:
337,324,80705,2,0,P|407:289|429:206,1,165,0|4,0:0|0:0,0:0:0:0:
426,111,81520,2,0,L|482:88,2,55,4|0|4,0:0|0:0|0:0,0:0:0:0:
403,67,82009,1,8,0:0:0:0:
269,130,82498,6,0,P|219:102|183:54,1,110,4|0,0:0|0:0,0:0:0:0:
139,44,82988,1,0,0:0:0:0:
88,44,83151,2,0,P|52:117|75:195,1,165,8|0,0:0|0:0,0:0:0:0:
105,231,83803,1,8,0:0:0:0:
153,243,83967,2,0,P|207:236|270:275,1,110
302,274,84455,1,8,0:0:0:0:
335,182,84781,6,0,P|379:211|398:283,1,110,4|8,0:0|0:0,0:0:0:0:
408,311,85270,2,0,P|462:304|495:262,1,110
502,213,85759,1,8,0:0:0:0:
493,114,86085,6,0,P|467:70|397:46,1,110,4|8,0:0|0:0,0:0:0:0:
365,40,86575,1,0,0:0:0:0:
266,44,86901,1,0,0:0:0:0:
217,54,87064,2,0,P|162:55|116:27,1,110,8|4,0:0|0:0,0:0:0:0:
57,106,87716,6,0,P|100:139|152:153,1,110,8|4,0:0|0:0,0:0:0:0:
202,149,88206,1,0,0:0:0:0:
249,142,88368,2,0,P|323:106|403:119,1,165,8|0,0:0|0:0,0:0:0:0:
435,157,89021,1,8,0:0:0:0:
454,202,89184,2,0,B|449:257|449:257|482:309,1,110
465,350,89672,1,8,0:0:0:0:
367,369,89998,6,0,P|312:362|270:325,2,110,4|8|4,0:0|0:0|0:0,0:0:0:0:
350,271,90977,1,0,0:0:0:0:
332,224,91140,2,0,P|279:196|223:210,1,110,4|4,0:0|0:0,0:0:0:0:
187,227,91629,1,8,0:0:0:0:
109,165,91955,2,0,B|140:151|140:151|153:116|153:116|190:113|190:113|202:82|202:82|234:83|234:83|243:56|243:56|283:46,1,220,2|4,0:0|0:0,0:0:0:0:
343,107,92933,6,0,B|394:135|394:135|445:115,1,110,10|0,0:0|0:0,0:0:0:0:
509,188,93585,1,10,0:0:0:0:
501,286,93911,2,0,P|474:323|408:348,1,110,0|10,0:0|0:0,0:0:0:0:
320,322,94564,1,0,0:0:0:0:
222,340,94890,1,10,0:0:0:0:
126,313,95216,6,0,P|77:286|53:234,1,110,0|10,0:0|0:0,0:0:0:0:
89,204,95705,2,0,P|124:163|140:108,1,110
172,73,96194,1,10,0:0:0:0:
263,35,96520,2,0,P|319:34|376:77,1,110,0|10,0:0|0:0,0:0:0:0:
400,94,97009,2,0,P|407:146|461:204,1,110
485,217,97498,2,0,L|479:283,1,55,10|0,0:0|0:0,0:0:0:0:
454,314,97825,6,0,P|397:317|342:276,1,110,4|10,0:0|0:0,0:0:0:0:
285,217,98477,1,0,0:0:0:0:
241,128,98803,2,0,P|151:69|47:93,1,220,10|10,0:0|0:0,0:0:0:0:
11,185,99781,2,0,P|8:231|51:290,1,110,0|10,0:0|0:0,0:0:0:0:
120,343,100433,5,4,0:0:0:0:
216,366,100759,2,0,P|272:373|319:344,1,110,10|0,0:0|0:0,0:0:0:0:
387,279,101411,1,10,0:0:0:0:
430,189,101738,6,0,P|330:157|276:190,1,165,0|0,0:0|0:0,0:0:0:0:
259,226,102390,2,0,L|276:292,2,55,2|0|10,0:0|0:0|0:0,0:0:0:0:
215,201,102879,6,0,P|161:179|100:202,1,110,4|0,0:0|0:0,0:0:0:0:
74,223,103368,1,10,0:0:0:0:
20,306,103694,1,0,0:0:0:0:
101,361,104020,1,10,0:0:0:0:
101,361,104183,2,0,P|153:381|216:351,1,110,4|0,0:0|0:0,0:0:0:0:
242,336,104672,1,10,0:0:0:0:
324,280,104998,1,0,0:0:0:0:
421,263,105325,1,10,0:0:0:0:
421,263,105488,6,0,P|437:206|420:137,1,110,4|0,0:0|0:0,0:0:0:0:
409,111,105977,1,10,0:0:0:0:
325,57,106303,1,10,0:0:0:0:
230,87,106629,1,10,0:0:0:0:
230,87,106792,2,0,L|106:82,1,110,4|0,0:0|0:0,0:0:0:0:
88,120,107281,1,10,0:0:0:0:
49,211,107607,2,0,L|158:217,1,110,10|10,0:0|0:0,0:0:0:0:
222,295,108259,6,0,P|263:332|336:342,1,110,4|10,0:0|0:0,0:0:0:0:
411,322,108911,1,0,0:0:0:0:
487,258,109238,1,10,0:0:0:0:
486,159,109564,2,0,P|443:130|381:131,1,110,0|10,0:0|0:0,0:0:0:0:
294,167,110216,1,2,0:0:0:0:
205,211,110542,1,2,0:0:0:0:
158,194,110705,2,0,L|147:84,1,110,2|0,0:0|0:0,0:0:0:0:
256,192,111194,12,4,113314,0:0:0:0:
81,159,114129,6,0,L|71:91,2,55,10|0|0,0:0|0:0|0:0,0:0:0:0:
72,207,114618,5,4,0:0:0:0:
163,323,115107,2,0,P|221:315|268:265,1,110,10|0,0:0|0:0,0:0:0:0:
298,191,115759,1,10,0:0:0:0:
321,148,115922,2,0,P|378:163|420:222,1,110
430,245,116411,1,10,0:0:0:0:
471,271,116575,2,0,P|495:209|436:108,1,165,0|10,0:0|0:0,0:0:0:0:
386,53,117390,6,0,P|333:69|259:48,1,110,4|10,0:0|0:0,0:0:0:0:
235,38,117879,2,0,L|150:129,1,110
128,156,118368,1,10,0:0:0:0:
102,198,118531,2,0,P|172:238|252:225,1,165,4|10,0:0|0:0,0:0:0:0:
345,191,119346,2,0,L|402:210,2,55,2|0|10,0:0|0:0|0:0,0:0:0:0:
361,144,119835,5,4,0:0:0:0:
253,41,120325,2,0,P|203:18|151:30,1,110,10|0,0:0|0:0,0:0:0:0:
60,69,120977,1,10,0:0:0:0:
34,111,121140,2,0,L|41:227,1,110,4|0,0:0|0:0,0:0:0:0:
44,270,121629,1,10,0:0:0:0:
73,309,121792,2,0,P|154:316|215:264,1,165,0|10,0:0|0:0,0:0:0:0:
247,171,122607,6,0,P|298:162|354:192,1,110,4|10,0:0|0:0,0:0:0:0:
387,277,123259,2,0,L|456:258,1,55,2|0,0:0|0:0,0:0:0:0:
482,236,123585,1,10,0:0:0:0:
496,188,123748,2,0,P|473:111|405:69,1,165,4|10,0:0|0:0,0:0:0:0:
304,72,124564,2,0,L|323:134,2,55,2|0|10,0:0|0:0|0:0,0:0:0:0:
257,90,125053,5,4,0:0:0:0:
117,141,125542,2,0,P|105:193|133:248,1,110,10|0,0:0|0:0,0:0:0:0:
194,316,126194,1,10,0:0:0:0:
230,349,126357,2,0,P|282:363|333:345,1,110,4|0,0:0|0:0,0:0:0:0:
418,294,127009,1,0,0:0:0:0:
487,223,127335,2,0,L|514:275,2,55,0|10|0,0:0|0:0|0:0,0:0:0:0:
467,177,127825,6,0,P|432:133|367:118,1,110,4|10,0:0|0:0,0:0:0:0:
333,127,128314,2,0,P|280:139|230:118,1,110
189,89,128803,1,10,0:0:0:0:
144,66,128966,2,0,B|96:130|96:130|3:97,1,165,4|10,0:0|0:0,0:0:0:0:
21,200,129781,2,0,L|80:221,2,55,2|0|10,0:0|0:0|0:0,0:0:0:0:
6,247,130270,5,4,0:0:0:0:
102,360,130759,2,0,B|153:349|153:349|194:280,1,110,10|0,0:0|0:0,0:0:0:0:
230,212,131411,1,10,0:0:0:0:
270,183,131575,2,0,P|321:202|352:247,1,110,4|0,0:0|0:0,0:0:0:0:
365,293,132064,1,10,0:0:0:0:
375,341,132227,2,0,P|448:306|475:230,1,165,0|10,0:0|0:0,0:0:0:0:
485,131,133042,6,0,B|434:143|434:143|376:115,1,110,4|10,0:0|0:0,0:0:0:0:
309,51,133694,2,0,L|358:8,2,55,2|0|10,0:0|0:0|0:0,0:0:0:0:
270,81,134183,2,0,P|201:118|103:84,1,165,4|10,0:0|0:0,0:0:0:0:
22,85,134998,2,0,B|37:138|37:138|30:161|30:161|41:180|41:180|33:208|33:208|46:228|46:228|37:251|37:251|49:271|49:271|42:291,1,220,2|4,0:0|0:0,0:0:0:0:
105,364,135977,5,10,0:0:0:0:
153,373,136140,2,0,P|205:368|248:328,1,110,0|0,0:0|0:0,0:0:0:0:
272,288,136629,1,10,0:0:0:0:
287,240,136792,2,0,P|340:222|405:254,1,110
425,272,137281,1,10,0:0:0:0:
465,299,137444,2,0,P|492:240|460:140,1,165,0|10,0:0|0:0,0:0:0:0:
396,76,138259,5,4,0:0:0:0:
300,99,138585,1,10,0:0:0:0:
253,116,138748,2,0,P|174:102|149:63,1,110,0|0,0:0|0:0,0:0:0:0:
139,36,139238,1,10,0:0:0:0:
92,19,139401,2,0,P|67:95|108:164,1,165,4|10,0:0|0:0,0:0:0:0:
176,235,140216,2,0,P|142:258|77:251,2,82.5,2|2|2,0:0|0:0|0:0,0:0:0:0:
218,208,140868,6,0,P|268:193|327:222,1,110,4|10,0:0|0:0,0:0:0:0:
362,240,141357,2,0,P|411:216|432:167,1,110,2|2,0:0|0:0,0:0:0:0:
440,118,141846,1,10,0:0:0:0:
441,68,142009,2,0,P|372:109|291:85,1,165,4|2,0:0|0:0,0:0:0:0:
224,18,142825,2,0,L|156:4,2,55,2|0|10,0:0|0:0|0:0,0:0:0:0:
216,66,143314,6,0,P|133:168|6:126,1,275,4|2,0:0|0:0,0:0:0:0:
6,230,144455,1,2,0:0:0:0:
55,316,144781,2,0,L|119:332,1,55,4|0,0:0|0:0,0:0:0:0:
236,255,145433,2,0,L|182:242,1,55,4|0,0:0|0:0,0:0:0:0:
202,339,145922,6,0,B|302:358|302:358|354:318,1,165,4|0,0:0|0:0,0:0:0:0:
422,250,146738,1,10,0:0:0:0:
457,157,147064,2,0,B|402:167|402:167|350:120,1,110,0|0,0:0|0:0,0:0:0:0:
331,91,147553,2,0,L|265:77,1,55
228,71,147879,2,0,B|178:115|178:115|123:108,1,110
85,105,148369,1,10,0:0:0:0:
31,192,148694,6,0,L|159:205,1,110,4|0,0:0|0:0,0:0:0:0:
238,188,149346,1,10,0:0:0:0:
335,174,149672,2,0,P|392:197|413:257,1,110,0|0,0:0|0:0,0:0:0:0:
416,287,150161,2,0,L|394:340,1,55
356,368,150488,2,0,P|302:369|245:324,1,110,0|0,0:0|0:0,0:0:0:0:
226,300,150977,1,0,0:0:0:0:
159,226,151303,6,0,L|35:240,1,110,4|0,0:0|0:0,0:0:0:0:
16,144,151955,2,0,B|32:85|32:85|142:44,1,165,10|0,0:0|0:0,0:0:0:0:
177,38,152607,2,0,L|295:68,1,110,8|2,0:0|0:0,0:0:0:0:
361,126,153260,2,0,L|458:198,1,110,10|10,0:0|0:0,0:0:0:0:
465,290,153911,6,0,B|356:329,1,110,4|0,0:0|0:0,0:0:0:0:
265,351,154564,1,8,0:0:0:0:
182,296,154890,1,0,0:0:0:0:
93,340,155216,2,0,P|60:296|61:242,1,110,4|8,0:0|0:0,0:0:0:0:
78,196,155706,1,0,0:0:0:0:
98,150,155869,2,0,P|176:133|199:98,1,110
407,16,157009,6,0,P|459:76|450:156,1,165,4|10,0:0|0:0,0:0:0:0:
417,249,157825,2,0,B|392:283|392:283|309:267,1,110,2|2,0:0|0:0,0:0:0:0:
277,257,158313,1,4,0:0:0:0:
137,306,158802,2,0,P|88:283|62:235,1,110,10|0,0:0|0:0,0:0:0:0:
37,139,159454,1,10,0:0:0:0:
51,41,159781,2,0,L|185:30,1,110,4|10,0:0|0:0,0:0:0:0:
246,80,160433,2,0,L|224:156,2,55,0|0|10,0:0|0:0|0:0,0:0:0:0:
294,70,160922,1,4,0:0:0:0:
399,170,161411,5,10,0:0:0:0:
446,256,161737,2,0,B|421:276|421:276|321:255,1,110,8|8,0:0|0:0,0:0:0:0:
296,250,162226,1,4,0:0:0:0:
231,115,162716,6,0,B|210:86|210:86|140:58,1,110,10|0,0:0|0:0,0:0:0:0:
92,64,163205,2,0,P|55:104|49:158,1,110,0|4,0:0|0:0,0:0:0:0:
79,197,163694,2,0,L|161:270,1,110,0|10,0:0|0:0,0:0:0:0:
210,268,164183,2,0,B|220:209|220:209|312:158,1,165,0|10,0:0|0:0,0:0:0:0:
256,192,164998,12,4,167444,0:0:0:0:
427,134,168748,5,4,0:0:0:0:
440,282,169237,2,0,L|385:271,1,55,2|0,0:0|0:0,0:0:0:0:
337,263,169563,2,0,B|279:264|279:264|248:307|248:307|176:318,1,165,2|4,0:0|0:0,0:0:0:0:
95,309,170378,1,0,0:0:0:0:
95,309,170541,5,2,0:0:0:0:
3,265,170867,2,0,B|32:244|32:244|26:152,1,110,0|10,0:0|0:0,0:0:0:0:
22,120,171357,2,0,B|40:104|40:104|149:123,1,110,4|0,0:0|0:0,0:0:0:0:
162,150,171846,2,0,B|181:192|181:192|268:209,2,110,2|0|10,0:0|0:0|0:0,0:0:0:0:
234,82,172825,6,0,B|278:68|278:68|310:85|310:85|327:58|327:58|377:47,1,165,8|8,0:0|0:0,0:0:0:0:
490,142,173785,2,0,B|439:152|439:152|422:179|422:179|391:163|391:163|346:176,1,165,8|8,0:0|0:0,0:0:0:0:
257,294,174746,2,0,B|246:267|246:267|264:243|264:243|252:217|252:217|259:173,1,110,8|12,0:0|0:0,0:0:0:0:
256,192,175392,12,4,176533,0:0:0:0:
256,192,178000,5,4,0:0:0:0:
61,289,188476,6,0,P|105:319|159:320,1,110,4|0,0:0|0:0,0:0:0:0:
256,298,189128,1,2,0:0:0:0:
248,199,189454,2,0,L|180:218,1,55
145,211,189781,2,0,P|108:171|101:117,1,110,0|0,0:0|0:0,0:0:0:0:
125,21,190433,1,6,0:0:0:0:
273,31,190922,1,0,0:0:0:0:
307,66,191085,6,0,P|357:88|405:65,1,110,0|0,0:0|0:0,0:0:0:0:
497,97,191737,1,2,0:0:0:0:
464,190,192063,1,0,0:0:0:0:
497,283,192389,2,0,P|457:320|403:325,1,110,2|6,0:0|0:0,0:0:0:0:
309,293,193041,1,2,0:0:0:0:
274,257,193204,2,0,L|256:136,1,110
239,101,193694,6,0,L|130:84,1,110,4|0,0:0|0:0,0:0:0:0:
32,95,194346,1,2,0:0:0:0:
64,188,194672,1,0,0:0:0:0:
44,284,194998,2,0,P|97:286|139:252,1,110,0|0,0:0|0:0,0:0:0:0:
194,169,195650,1,4,0:0:0:0:
292,184,195976,5,0,0:0:0:0:
374,129,196302,2,0,B|410:151|410:151|397:239,1,110,0|2,0:0|0:0,0:0:0:0:
343,299,196954,2,0,B|324:314|324:314|233:288,1,110,0|2,0:0|0:0,0:0:0:0:
256,192,197607,12,2,200868,0:0:0:0:
211,240,201520,6,0,L|272:122,1,110
290,49,202172,2,0,L|217:31,2,55,2|0|2,0:0|0:0|0:0,0:0:0:0:
330,77,202661,5,4,0:0:0:0:
434,182,203150,2,0,L|461:309,1,110,10|0,0:0|0:0,0:0:0:0:
386,360,203802,1,10,0:0:0:0:
337,367,203965,2,0,L|214:336,1,110
181,329,204454,1,10,0:0:0:0:
133,314,204618,2,0,P|87:252|107:155,1,165,0|10,0:0|0:0,0:0:0:0:
174,106,205433,6,0,P|227:122|291:95,1,110,4|10,0:0|0:0,0:0:0:0:
312,71,205922,2,0,P|360:48|435:62,1,110
445,91,206411,1,10,0:0:0:0:
465,136,206574,2,0,B|488:183|488:183|367:246,1,165,4|10,0:0|0:0,0:0:0:0:
297,276,207389,2,0,L|279:352,2,55,2|0|10,0:0|0:0|0:0,0:0:0:0:
249,260,207878,5,4,0:0:0:0:
102,234,208368,2,0,L|82:106,1,110,10|0,0:0|0:0,0:0:0:0:
134,39,209020,1,10,0:0:0:0:
179,19,209183,2,0,L|303:9,1,110,4|0,0:0|0:0,0:0:0:0:
312,53,209672,1,10,0:0:0:0:
325,100,209835,2,0,L|156:116,1,165,0|10,0:0|0:0,0:0:0:0:
138,212,210650,6,0,L|253:199,1,110,4|10,0:0|0:0,0:0:0:0:
343,222,211302,2,0,L|356:292,1,55,2|0,0:0|0:0,0:0:0:0:
347,325,211628,1,10,0:0:0:0:
306,353,211791,2,0,L|133:373,1,165,4|10,0:0|0:0,0:0:0:0:
55,324,212607,2,0,L|33:379,2,55,2|0|10,0:0|0:0|0:0,0:0:0:0:
22,287,213096,5,4,0:0:0:0:
16,140,213585,2,0,P|36:89|82:60,1,110,10|0,0:0|0:0,0:0:0:0:
178,41,214237,1,10,0:0:0:0:
223,59,214400,2,0,P|261:99|314:106,1,110,4|0,2:0|0:0,0:0:0:0:
409,81,215052,1,0,0:0:0:0:
445,173,215378,2,0,L|508:129,2,55,0|10|0,0:0|0:0|0:0,0:0:0:0:
402,197,215868,6,0,P|351:211|285:185,1,110,4|10,0:0|0:0,0:0:0:0:
254,171,216357,2,0,P|202:155|128:181,1,110
108,195,216846,1,10,0:0:0:0:
84,238,217009,6,0,B|90:290|90:290|218:317,1,165,4|10,0:0|0:0,0:0:0:0:
298,322,217824,2,0,L|282:263,2,55,2|0|10,0:0|0:0|0:0,0:0:0:0:
345,334,218313,5,4,0:0:0:0:
473,259,218802,2,0,B|494:218|494:218|473:152,1,110,10|0,0:0|0:0,0:0:0:0:
441,63,219454,1,10,0:0:0:0:
416,20,219618,2,0,L|286:10,1,110,4|0,0:0|0:0,0:0:0:0:
258,22,220107,1,10,0:0:0:0:
216,45,220270,2,0,B|139:85|139:85|63:65,1,165,0|10,0:0|0:0,0:0:0:0:
31,158,221085,6,0,B|54:209|54:209|123:232,1,110,4|10,0:0|0:0,0:0:0:0:
200,251,221737,2,0,L|194:192,2,55,2|0|10,0:0|0:0|0:0,0:0:0:0:
227,292,222226,2,0,P|305:311|378:275,1,165,4|10,0:0|0:0,0:0:0:0:
442,199,223041,2,0,B|412:142|412:142|390:130|390:130|390:106|390:106|366:97|366:97|366:70|366:70|343:58|343:58|329:26,1,220,2|4,0:0|0:0,0:0:0:0:
233,17,224020,5,10,0:0:0:0:
208,59,224183,2,0,P|162:86|107:83,1,110,0|0,0:0|0:0,0:0:0:0:
58,74,224672,1,10,0:0:0:0:
17,103,224835,2,0,P|4:156|22:208,1,110
46,249,225324,1,10,0:0:0:0:
82,282,225487,2,0,P|162:293|238:264,1,165,0|10,0:0|0:0,0:0:0:0:
322,209,226302,5,4,0:0:0:0:
417,233,226628,1,10,0:0:0:0:
417,233,226791,2,0,B|420:170|420:170|472:121,1,110,0|0,0:0|0:0,0:0:0:0:
493,107,227281,1,10,0:0:0:0:
510,64,227444,2,0,P|432:38|355:62,1,165,4|10,0:0|0:0,0:0:0:0:
270,112,228259,2,0,L|236:196,2,82.5,2|2|2,0:0|0:0|0:0,0:0:0:0:
258,63,228911,6,0,P|212:34|160:48,1,110,4|2,0:0|0:0,0:0:0:0:
124,80,229400,2,0,L|105:199,1,110,2|2,0:0|0:0,0:0:0:0:
101,238,229889,1,2,0:0:0:0:
115,285,230052,2,0,P|193:306|280:263,1,165,4|0,0:0|0:0,0:0:0:0:
333,200,230868,2,0,L|345:135,2,55,2|0|2,0:0|0:0|0:0,0:0:0:0:
256,192,231357,12,4,234128,0:0:0:0:
46,95,241791,6,0,P|112:44|212:51,1,165,4|10,0:0|0:0,0:0:0:0:
234,65,242444,1,0,0:0:0:0:
278,86,242607,2,0,L|405:65,1,110,10|10,0:0|0:0,0:0:0:0:
415,108,243096,1,0,0:0:0:0:
436,152,243259,2,0,L|315:173,1,110,10|10,0:0|0:0,0:0:0:0:
318,219,243748,1,0,0:0:0:0:
299,264,243911,2,0,L|176:292,1,110,10|10,0:0|0:0,0:0:0:0:
142,287,244400,1,0,0:0:0:0:
94,273,244563,6,0,L|71:159,1,110,10|10,0:0|0:0,0:0:0:0:
74,115,245052,1,0,0:0:0:0:
99,72,245215,2,0,L|206:47,1,110,10|10,0:0|0:0,0:0:0:0:
255,43,245704,1,0,0:0:0:0:
295,71,245867,2,0,P|313:125|373:157,1,110,10|10,0:0|0:0,0:0:0:0:
394,62,246520,1,10,0:0:0:0:
492,44,246846,1,10,0:0:0:0:
465,139,247172,6,0,B|457:222|457:222|404:267|404:267|340:246|340:246|269:278,1,275,10|0,0:0|0:0,0:0:0:0:
248,295,248150,1,2,0:0:0:0:
204,317,248313,2,0,B|140:308|140:308|85:214,1,165,4|0,0:0|0:0,0:0:0:0:
54,128,249128,6,0,B|73:73|73:73|136:62,1,110,0|4,0:0|0:0,0:0:0:0:
172,74,249617,2,0,P|228:94|299:72,1,110,4|0,0:0|0:0,0:0:0:0:
313,51,250107,2,0,P|364:68|405:132,1,110,0|10,0:0|0:0,0:0:0:0:
438,201,250759,1,0,0:0:0:0:
394,290,251086,2,0,P|341:275|291:295,1,110
264,336,251574,1,12,0:0:0:0:
227,369,251737,2,0,L|62:357,1,165,0|4,0:0|0:0,0:0:0:0:
27,220,252715,6,0,L|151:230,1,110,0|10,0:0|0:0,0:0:0:0:
234,212,253367,1,0,0:0:0:0:
321,257,253694,2,0,P|369:234|395:187,1,110
407,137,254183,2,0,L|464:30,2,110,0|0|4,0:0|0:0|0:0,0:0:0:0:
283,55,255324,6,0,P|231:32|154:40,1,110,0|10,0:0|0:0,0:0:0:0:
87,69,255976,1,2,0:0:0:0:
27,148,256302,1,0,0:0:0:0:
10,245,256628,2,0,B|30:306|30:306|81:328,1,110,10|10,0:0|0:0,0:0:0:0:
154,269,257281,1,2,0:0:0:0:
240,317,257607,6,0,B|282:283|282:283|360:302,1,110,4|8,0:0|0:0,0:0:0:0:
384,309,258096,1,4,0:0:0:0:
462,187,258585,1,2,0:0:0:0:
478,140,258748,2,0,B|493:102|493:102|373:40,1,165,4|4,0:0|0:0,0:0:0:0:
283,49,259563,2,0,B|279:92|279:92|253:113|253:113|242:158,1,110,2|4,0:0|0:0,0:0:0:0:
234,244,260215,5,0,0:0:0:0:
201,281,260378,2,0,B|152:283|152:283|117:339|117:339|44:326,1,165,4|10,0:0|0:0,0:0:0:0:
23,308,261031,1,4,0:0:0:0:
5,261,261194,1,10,0:0:0:0:
21,212,261357,2,0,B|98:207|112:128|112:128|192:140|213:55,1,275,4|2,0:0|0:0,0:0:0:0:
