osu file format v13

[General]
AudioFilename: Skyreach.mp3
AudioLeadIn: 1500
PreviewTime: 44419
Countdown: 0
SampleSet: Soft
StackLeniency: 0.7
Mode: 0
LetterboxInBreaks: 0
WidescreenStoryboard: 0

[Editor]
Bookmarks: 805,3413,6022,8631,12870,18087,22978,28848,38631,44989,49718,54935,60152,66022,71239,72381,75152,84283,86891
DistanceSpacing: 1.1
BeatDivisor: 4
GridSize: 4
TimelineZoom: 1

[Metadata]
Title:Skyreach
TitleUnicode:Skyreach
Artist:Amamiya Sora
ArtistUnicode:雨宮 天
Creator:smallboat
Version:Easy
Source:Akame ga Kill!
Tags:アカメが斬る! tv size opening takahiro tetsuya square enix white fox gangan comic joker black red eye girl anigi king blood ice zan slash sword cut head kill death die night raid Kawaiwkyik Zero__wind ZZHBOY Irie Miyuki Yuko chloe
BeatmapID:454537
BeatmapSetID:190851

[Difficulty]
HPDrainRate:2
CircleSize:2.4
OverallDifficulty:2
ApproachRate:3
SliderMultiplier:0.8
SliderTickRate:1

[Events]
//Background and Video events
0,0,"bg1.jpg",0,0
Video,210,"video.avi"
//Break Periods
//Storyboard Layer 0 (Background)
//Storyboard Layer 1 (Fail)
//Storyboard Layer 2 (Pass)
//Storyboard Layer 3 (Foreground)
//Storyboard Sound Samples
//Background Colour Transformations
3,100,163,162,255

[TimingPoints]
805,326.086956521739,4,2,2,60,1,0
1783,-100,4,3,2,55,0,0
1946,-100,4,3,2,45,0,0
2598,-100,4,2,2,70,0,0
4391,-100,4,3,2,55,0,0
4554,-100,4,3,2,45,0,0
5207,-100,4,2,2,70,0,0
7000,-100,4,3,2,55,0,0
7163,-100,4,3,2,45,0,0
7815,-100,4,2,1,70,0,0
10261,-100,4,2,1,50,0,0
12870,-100,4,2,1,60,0,0
13359,-100,4,2,1,60,0,0
15152,-100,4,2,1,50,0,0
15804,-100,4,3,2,50,0,0
15968,-100,4,2,1,50,0,0
16457,-100,4,3,2,50,0,0
16620,-100,4,2,1,45,0,0
17761,-100,4,2,1,60,0,0
18576,-100,4,2,1,60,0,0
20370,-100,4,2,1,45,0,0
21022,-100,4,3,2,45,0,0
21185,-100,4,2,1,45,0,0
21348,-100,4,3,2,45,0,0
21511,-100,4,2,1,45,0,0
21674,-100,4,3,2,45,0,0
21837,-100,4,2,1,45,0,0
22163,-100,4,2,1,45,0,0
22978,-100,4,2,2,65,0,0
27218,-100,4,2,3,65,0,0
27381,-100,4,2,2,65,0,0
28848,-100,4,2,2,70,0,0
33250,-100,4,2,1,70,0,0
33739,-100,4,2,2,65,0,0
34554,-100,4,2,1,60,0,0
35044,-100,4,2,2,65,0,0
35859,-100,4,2,1,60,0,0
36348,-100,4,2,2,65,0,0
37163,-100,4,2,1,60,0,0
37978,-100,4,2,2,60,0,0
38631,-100,4,2,1,70,0,0
38875,-100,4,2,3,60,0,0
39038,-100,4,2,2,60,0,0
39935,-100,4,3,2,70,0,0
40098,-100,4,2,2,60,0,0
40179,-100,4,2,3,60,0,0
40343,-100,4,2,2,60,0,0
41565,-100,4,2,1,50,0,0
43196,-100,4,3,2,60,0,0
43685,-100,4,2,1,60,0,0
44989,-100,4,2,1,75,0,1
45152,-100,4,2,2,70,0,1
45804,-100,4,3,2,70,0,1
45968,-100,4,2,2,70,0,1
47761,-100,4,2,1,75,0,1
47924,-100,4,2,2,70,0,1
48902,-100,4,2,1,80,0,1
49065,-100,4,2,2,70,0,1
49718,-100,4,2,2,75,0,1
50207,-100,4,2,1,75,0,1
50696,-100,4,2,2,70,0,1
51837,-100,4,2,2,70,0,1
52978,-100,4,2,1,70,0,1
53304,-100,4,2,2,70,0,1
54120,-100,4,2,1,70,0,1
54283,-100,4,2,2,70,0,1
54935,-100,4,2,2,75,0,1
55424,-100,4,2,1,70,0,1
55587,-100,4,2,2,80,0,1
57218,-100,4,2,3,80,0,1
57299,-100,4,2,2,80,0,1
58196,-100,4,2,1,70,0,1
58359,-100,4,2,2,70,0,1
59337,-100,4,2,1,70,0,1
59500,-100,4,2,2,70,0,1
60152,-100,4,2,2,75,0,1
60641,-100,4,2,1,70,0,1
60804,-100,4,2,2,70,0,1
62109,-100,4,2,2,70,0,1
63413,-100,4,2,1,70,0,1
63576,-100,4,2,2,70,0,1
64391,-100,4,2,2,70,0,1
64554,-100,4,2,1,70,0,1
64718,-100,4,2,2,70,0,1
65533,-100,4,2,2,60,0,1
66022,-100,4,2,1,70,0,1
66185,-100,4,2,2,70,0,1
66837,-100,4,3,2,70,0,1
67000,-100,4,2,2,70,0,1
67326,-100,4,2,2,70,0,1
67815,-100,4,3,2,70,0,1
67978,-100,4,2,2,70,0,1
68631,-100,4,2,1,70,0,1
68794,-100,4,2,2,70,0,1
69120,-100,4,3,2,70,0,1
69283,-100,4,2,2,70,0,1
69772,-100,4,2,1,70,0,1
69935,-100,4,2,2,70,0,1
70587,-100,4,2,2,75,0,1
71239,-100,4,2,1,70,0,1
71402,-100,4,2,2,70,0,1
72381,-100,4,2,1,70,0,1
72544,-100,4,2,2,50,0,1
73685,-100,4,2,1,60,0,1
74174,-100,4,3,2,65,0,1
74337,-100,4,2,2,50,0,1
75152,-100,4,2,1,80,0,0
76294,-100,4,2,1,70,0,0
76783,-100,4,3,2,70,0,0
77109,-100,4,2,2,50,0,0
77435,-100,4,3,1,70,0,0
78250,-100,4,2,2,60,0,0
78902,-100,4,2,1,50,0,0
79718,-100,4,2,2,50,0,0
80044,-100,4,3,2,70,0,0
81511,-100,4,2,1,55,0,0
82000,-100,4,3,2,60,0,0
82326,-100,4,2,2,50,0,0
83794,-100,4,2,2,35,0,0
84283,-100,4,2,1,60,0,0
85261,-100,4,2,2,60,0,0
85424,-100,4,2,1,70,0,0
86565,-100,4,2,1,50,0,0
86891,-100,4,2,3,45,0,0
87054,-100,4,3,2,55,0,0
87218,-100,4,2,1,60,0,0
87381,-100,4,3,2,60,0,0
87544,-100,4,2,2,60,0,0
87870,-100,4,2,2,60,0,0
88033,-100,4,2,3,50,0,0
88196,-100,4,2,1,40,0,0
88848,-100,4,3,2,35,0,0

[Colours]
Combo1 : 206,0,206
Combo2 : 176,0,0
Combo3 : 232,116,0
Combo4 : 219,219,0

[HitObjects]
44,264,805,6,0,P|112:340|248:336,1,240,14|0,0:0|0:0,0:0:0:0:
324,308,2109,1,0,0:0:0:0:
452,284,2598,2,0,L|464:188,1,80,10|8,0:0|0:0,0:0:0:0:
444,72,3413,6,0,B|360:20|312:160|218:39,1,240,14|0,0:0|0:0,0:0:0:0:
148,12,4718,1,0,0:0:0:0:
44,92,5207,2,0,L|32:188,1,80,10|8,0:0|0:0,0:0:0:0:
72,296,6022,6,0,B|116:284|116:284|152:216|152:216|216:256|216:256|260:236,1,240,14|0,0:0|0:0,0:0:0:0:
340,252,7326,1,0,0:0:0:0:
464,208,7815,2,0,L|428:128,1,80,8|8,0:0|0:0,0:0:0:0:
324,72,8631,6,0,B|264:60|264:60|204:88,2,120,4|4|8,0:0|0:0|0:0,0:0:0:0:
256,192,10261,12,4,12218,0:0:0:0:
328,280,12870,6,0,B|252:299|252:299|186:257,1,160,2|2,0:0|0:0,0:0:0:0:
104,220,13848,2,0,B|60:224|60:224|16:208,2,80,0|2|0,0:0|0:0|0:0,0:0:0:0:
152,144,14826,1,2,0:0:0:0:
224,92,15152,5,14,0:0:0:0:
388,28,15804,2,0,L|480:40,1,80,0|2,0:0|0:0,0:0:0:0:
492,124,16457,2,0,B|444:240|444:240|384:220|384:220|288:320,1,320,0|8,0:0|0:0,0:0:0:0:
200,304,18087,6,0,B|124:323|124:323|58:281,1,160,2|2,0:0|0:0,0:0:0:0:
16,200,19065,2,0,B|13:154|13:154|30:112,2,80,0|2|0,0:0|0:0|0:0,0:0:0:0:
104,200,20044,1,2,0:0:0:0:
152,128,20370,5,14,0:0:0:0:
300,32,21022,2,0,L|316:124,1,80
396,80,21674,2,0,B|456:184|456:184|380:228|380:228|384:352,1,320,0|4,0:0|0:0,0:0:0:0:
292,352,23304,6,0,B|216:371|216:371|192:336|192:336|150:329,1,160,10|10,0:0|0:0,0:0:0:0:
68,312,24283,2,0,B|29:289|29:289|2:250,2,80,0|10|0,0:0|0:0|0:0,0:0:0:0:
124,244,25261,1,10,0:0:0:0:
68,176,25587,6,0,L|80:96,1,80,4|10,0:0|0:0,0:0:0:0:
156,52,26239,2,0,L|252:28,1,80,0|10,0:0|0:0,0:0:0:0:
316,68,26891,2,0,L|432:100,2,120,4|0|10,0:0|0:0|0:0,0:0:0:0:
268,140,28196,6,0,L|184:176,1,80,4|10,0:0|0:0,0:0:0:0:
148,244,28848,1,0,0:0:0:0:
187,324,29174,2,0,P|110:328|60:264,2,160,10|10|10,0:0|0:0|0:0,0:0:0:0:
256,268,30804,5,4,0:0:0:0:
324,324,31131,2,0,P|401:328|450:269,1,160,10|10,0:0|0:0,0:0:0:0:
480,188,32109,2,0,B|440:168|440:168|416:140|416:140|384:140|384:140|347:111,1,160,0|8,0:0|0:0,0:0:0:0:
244,28,33250,6,0,B|184:24|184:24|120:64,1,120,4|10,0:0|0:0,0:0:0:0:
64,116,34065,1,8,0:0:0:0:
152,212,34554,2,0,P|209:223|261:196,1,120,4|10,0:0|0:0,0:0:0:0:
332,140,35370,1,10,0:0:0:0:
464,148,35859,6,0,P|500:196|484:268,1,120,4|10,0:0|0:0,0:0:0:0:
440,324,36674,1,10,0:0:0:0:
320,376,37163,2,0,L|202:352,1,120,4|4,0:0|0:0,0:0:0:0:
116,340,37978,2,0,L|60:264,1,80,10|10,0:0|0:0,0:0:0:0:
64,188,38631,6,0,P|138:164|192:100,1,160,4|0,0:0|0:0,0:0:0:0:
256,44,39609,1,10,0:0:0:0:
321,103,39935,2,0,P|372:164|448:188,1,160,0|10,0:0|0:0,0:0:0:0:
492,264,40913,1,10,0:0:0:0:
256,192,41565,12,4,43685,0:0:0:0:
368,96,44989,5,4,0:0:0:0:
440,208,45478,2,0,L|464:304,2,80,10|0|10,0:0|0:0|0:0,0:0:0:0:
280,276,46783,2,0,P|212:315|133:308,1,160,10|10,0:0|0:0,0:0:0:0:
56,268,47761,6,0,L|12:184,2,80,4|10|0,0:0|0:0|0:0,0:0:0:0:
128,220,48739,2,0,B|196:208|196:208|256:124,1,160,10|10,0:0|0:0,0:0:0:0:
312,72,49718,2,0,B|368:56|368:56|428:88,1,120,2|4,0:0|0:0,0:0:0:0:
488,200,50696,2,0,L|516:288,2,80,10|0|10,0:0|0:0|0:0,0:0:0:0:
344,300,52000,2,0,P|276:339|197:332,1,160,10|10,0:0|0:0,0:0:0:0:
126,277,52978,6,0,L|38:293,2,80,4|10|10,0:0|0:0|0:0,0:0:0:0:
204,236,53957,2,0,P|234:165|192:92,1,160,10|10,0:0|0:0,0:0:0:0:
128,44,54935,1,2,0:0:0:0:
16,120,55424,5,4,0:0:0:0:
60,244,55913,2,0,P|48:284|8:320,2,80,10|10|10,0:0|0:0|0:0,0:0:0:0:
132,192,56891,2,0,P|193:239|271:233,1,160,10|10,0:0|0:0,0:0:0:0:
356,204,57870,1,10,0:0:0:0:
440,172,58196,6,0,L|456:268,2,80,4|10|10,0:0|0:0|0:0,0:0:0:0:
396,96,59174,2,0,B|316:112|316:112|228:84,1,160,10|10,0:0|0:0,0:0:0:0:
156,64,60152,1,2,0:0:0:0:
56,148,60641,5,4,0:0:0:0:
36,280,61131,2,0,B|29:320|29:320|-8:361,2,80,10|10|10,0:0|0:0|0:0,0:0:0:0:
208,316,62435,2,0,B|284:336|284:336|364:300,1,160,10|10,0:0|0:0,0:0:0:0:
440,272,63413,6,0,B|456:308|456:308|492:340,2,80,4|10|10,0:0|0:0|0:0,0:0:0:0:
412,188,64391,2,0,P|338:161|296:88,1,160,10|10,0:0|0:0,0:0:0:0:
266,19,65370,1,10,0:0:0:0:
84,56,66022,1,4,0:0:0:0:
40,132,66348,6,0,P|105:174|183:164,1,160,10|10,0:0|0:0,0:0:0:0:
348,100,67652,2,0,B|424:128|424:128|448:216,1,160,10|10,0:0|0:0,0:0:0:0:
448,292,68631,5,4,0:0:0:0:
392,360,68957,2,0,B|332:379|332:379|274:356,1,120,10|0,0:0|0:0,0:0:0:0:
199,318,69772,2,0,P|163:270|163:202,1,120,4|10,0:0|0:0,0:0:0:0:
183,127,70587,2,0,L|270:160,1,80,2|0,0:0|0:0,0:0:0:0:
342,179,71239,6,0,P|378:165|402:124,2,80,4|10|10,0:0|0:0|0:0,0:0:0:0:
321,93,72218,2,0,P|255:45|163:44,1,160,10|14,0:0|0:0,0:0:0:0:
103,85,73196,1,14,0:0:0:0:
256,192,73685,12,4,75152,0:0:0:0:
120,232,75804,6,0,B|180:220|180:220|200:160,1,120,4|4,0:0|0:0,0:0:0:0:
312,88,76783,2,0,L|408:100,1,80,0|10,0:0|0:0,0:0:0:0:
444,168,77435,1,0,0:0:0:0:
428,256,77761,1,0,0:0:0:0:
312,316,78250,2,0,L|140:288,1,160,12|4,0:0|0:0,0:0:0:0:
79,181,79391,6,0,L|174:197,1,80,4|10,0:0|0:0,0:0:0:0:
216,128,80044,1,0,0:0:0:0:
292,80,80370,1,0,0:0:0:0:
416,120,80859,2,0,L|488:268,1,160,0|4,0:0|0:0,0:0:0:0:
380,344,82000,6,0,L|292:336,2,80,0|10|10,0:0|0:0|0:0,0:0:0:0:
384,256,82978,1,0,0:0:0:0:
300,236,83304,2,0,L|144:273,1,160,10|2,0:0|0:0,0:0:0:0:
256,192,84283,12,4,85913,0:0:0:0:
256,192,86565,5,4,0:0:0:0:
203,120,86891,2,0,P|168:188|198:259,1,160,4|10,0:0|0:0,0:0:0:0:
296,348,88033,2,0,B|392:324|392:324|500:356,1,200,4|0,0:0|0:0,0:0:0:0:
