osu file format v14

[General]
AudioFilename: Skyreach TV Size.mp3
AudioLeadIn: 0
PreviewTime: 44663
Countdown: 0
SampleSet: Normal
StackLeniency: 0.7
Mode: 1
LetterboxInBreaks: 0
WidescreenStoryboard: 0

[Editor]
DistanceSpacing: 1
BeatDivisor: 4
GridSize: 16
TimelineZoom: 0.900003

[Metadata]
Title:Skyreach
TitleUnicode:Skyreach
Artist:Amamiya Sora
ArtistUnicode:雨宮天
Creator:Nardoxyribonucleic
Version:Kantan
Source:アカメが斬る!
Tags:Taiko Akame ga Kill! Opening TV Size Various BLUE
BeatmapID:536821
BeatmapSetID:230891

[Difficulty]
HPDrainRate:7
CircleSize:5
OverallDifficulty:3
ApproachRate:3
SliderMultiplier:1.4
SliderTickRate:1

[Events]
//Background and Video events
0,0,"bg.jpg",0,105
//Break Periods
//Storyboard Layer 0 (Background)
//Storyboard Layer 1 (Fail)
//Storyboard Layer 2 (Pass)
//Storyboard Layer 3 (Foreground)
//Storyboard Sound Samples

[TimingPoints]
805,326.086956521739,4,1,0,90,1,0
12544,-100,4,1,0,70,0,0
22978,-100,4,1,0,90,0,0
33250,-100,4,1,0,80,0,0
44989,-100,4,1,0,100,0,1
76294,-100,4,1,0,90,0,0

[HitObjects]
256,192,805,5,4,0:0:0:0:
256,192,2598,1,12,0:0:0:0:
256,192,2924,1,12,0:0:0:0:
256,192,3413,1,4,0:0:0:0:
256,192,5207,1,12,0:0:0:0:
256,192,5533,1,12,0:0:0:0:
256,192,6022,1,4,0:0:0:0:
256,192,7815,1,12,0:0:0:0:
256,192,8141,1,12,0:0:0:0:
256,192,8631,1,4,0:0:0:0:
256,192,9772,1,12,0:0:0:0:
256,192,10098,12,0,11891,0:0:0:0:
256,192,12544,5,0,0:0:0:0:
256,192,13848,1,0,0:0:0:0:
256,192,14500,1,8,0:0:0:0:
256,192,15152,1,0,0:0:0:0:
256,192,16946,1,12,0:0:0:0:
256,192,17272,1,12,0:0:0:0:
256,192,17761,1,0,0:0:0:0:
256,192,19065,1,8,0:0:0:0:
256,192,19718,1,0,0:0:0:0:
256,192,20370,1,8,0:0:0:0:
256,192,22163,1,12,0:0:0:0:
256,192,22489,1,12,0:0:0:0:
256,192,22978,1,4,0:0:0:0:
256,192,23631,1,8,0:0:0:0:
256,192,24283,1,0,0:0:0:0:
256,192,24935,1,8,0:0:0:0:
256,192,25261,1,8,0:0:0:0:
256,192,25587,1,0,0:0:0:0:
256,192,26239,1,8,0:0:0:0:
256,192,27544,1,0,0:0:0:0:
256,192,27870,1,8,0:0:0:0:
256,192,28196,1,4,0:0:0:0:
256,192,28848,1,8,0:0:0:0:
256,192,29500,1,0,0:0:0:0:
256,192,29826,1,8,0:0:0:0:
256,192,30152,1,8,0:0:0:0:
256,192,30804,1,4,0:0:0:0:
256,192,32109,1,8,0:0:0:0:
256,192,33250,1,4,0:0:0:0:
256,192,33739,1,8,0:0:0:0:
256,192,34554,1,4,0:0:0:0:
256,192,35859,1,12,0:0:0:0:
256,192,36348,1,0,0:0:0:0:
256,192,37163,1,12,0:0:0:0:
256,192,38631,1,4,0:0:0:0:
256,192,39283,1,8,0:0:0:0:
256,192,39935,1,0,0:0:0:0:
256,192,40587,1,8,0:0:0:0:
256,192,40913,1,8,0:0:0:0:
256,192,41239,1,4,0:0:0:0:
256,192,42218,1,0,0:0:0:0:
256,192,43196,1,8,0:0:0:0:
256,192,43685,1,4,0:0:0:0:
256,192,44989,1,4,0:0:0:0:
256,192,45804,1,0,0:0:0:0:
256,192,46294,1,8,0:0:0:0:
256,192,47109,1,8,0:0:0:0:
256,192,47761,1,0,0:0:0:0:
256,192,48413,1,8,0:0:0:0:
256,192,48902,1,4,0:0:0:0:
256,192,50207,1,4,0:0:0:0:
256,192,51022,1,0,0:0:0:0:
256,192,51511,1,8,0:0:0:0:
256,192,52326,1,8,0:0:0:0:
256,192,52978,1,0,0:0:0:0:
256,192,53631,1,8,0:0:0:0:
256,192,54120,1,4,0:0:0:0:
256,192,55424,1,4,0:0:0:0:
256,192,56239,1,0,0:0:0:0:
256,192,56891,1,8,0:0:0:0:
256,192,57218,1,8,0:0:0:0:
256,192,57544,1,8,0:0:0:0:
256,192,58196,1,0,0:0:0:0:
256,192,58848,1,8,0:0:0:0:
256,192,59337,1,4,0:0:0:0:
256,192,60641,1,4,0:0:0:0:
256,192,61457,1,0,0:0:0:0:
256,192,62109,1,8,0:0:0:0:
256,192,62761,1,0,0:0:0:0:
256,192,63087,1,0,0:0:0:0:
256,192,63413,1,0,0:0:0:0:
256,192,64065,1,8,0:0:0:0:
256,192,64554,1,4,0:0:0:0:
256,192,66022,1,4,0:0:0:0:
256,192,66674,1,0,0:0:0:0:
256,192,67326,1,8,0:0:0:0:
256,192,67978,1,8,0:0:0:0:
256,192,68304,1,8,0:0:0:0:
256,192,68631,1,0,0:0:0:0:
256,192,69283,1,8,0:0:0:0:
256,192,69772,1,4,0:0:0:0:
256,192,71239,1,12,0:0:0:0:
256,192,71891,1,0,0:0:0:0:
256,192,72381,1,4,0:0:0:0:
256,192,73685,1,8,0:0:0:0:
256,192,74500,1,8,0:0:0:0:
256,192,75152,1,8,0:0:0:0:
256,192,75804,1,0,0:0:0:0:
256,192,76294,1,4,0:0:0:0:
256,192,77761,1,0,0:0:0:0:
256,192,78250,1,8,0:0:0:0:
256,192,78902,1,0,0:0:0:0:
256,192,80370,1,0,0:0:0:0:
256,192,80859,1,8,0:0:0:0:
256,192,81511,1,0,0:0:0:0:
256,192,82978,1,0,0:0:0:0:
256,192,83631,1,8,0:0:0:0:
256,192,84283,1,4,0:0:0:0:
256,192,85261,1,12,0:0:0:0:
256,192,86891,1,0,0:0:0:0:
256,192,87544,1,8,0:0:0:0:
256,192,88033,1,4,0:0:0:0:
