osu file format v14

[General]
AudioFilename: Skyreach TV Size.mp3
AudioLeadIn: 0
PreviewTime: 44663
Countdown: 0
SampleSet: Normal
StackLeniency: 0.7
Mode: 1
LetterboxInBreaks: 0
WidescreenStoryboard: 0

[Editor]
DistanceSpacing: 1
BeatDivisor: 4
GridSize: 16
TimelineZoom: 1.200003

[Metadata]
Title:Skyreach
TitleUnicode:Skyreach
Artist:Amamiya Sora
ArtistUnicode:雨宮天
Creator:Nardoxyribonucleic
Version:Futsuu
Source:アカメが斬る!
Tags:Taiko Akame ga Kill! Opening TV Size Various BLUE
BeatmapID:539109
BeatmapSetID:230891

[Difficulty]
HPDrainRate:6
CircleSize:5
OverallDifficulty:4
ApproachRate:4
SliderMultiplier:1.4
SliderTickRate:1

[Events]
//Background and Video events
0,0,"bg.jpg",0,105
//Break Periods
//Storyboard Layer 0 (Background)
//Storyboard Layer 1 (Fail)
//Storyboard Layer 2 (Pass)
//Storyboard Layer 3 (Foreground)
//Storyboard Sound Samples

[TimingPoints]
805,326.086956521739,4,1,0,90,1,0
12544,-100,4,1,0,70,0,0
22978,-100,4,1,0,90,0,0
33250,-100,4,1,0,80,0,0
44989,-100,4,1,0,100,0,1
76294,-100,4,1,0,90,0,0

[HitObjects]
256,192,805,5,4,0:0:0:0:
256,192,1457,1,0,0:0:0:0:
256,192,2109,1,0,0:0:0:0:
256,192,2598,1,12,0:0:0:0:
256,192,2924,1,12,0:0:0:0:
256,192,3413,1,4,0:0:0:0:
256,192,4065,1,0,0:0:0:0:
256,192,4718,1,0,0:0:0:0:
256,192,5207,1,12,0:0:0:0:
256,192,5533,1,12,0:0:0:0:
256,192,6022,1,4,0:0:0:0:
256,192,6674,1,0,0:0:0:0:
256,192,7326,1,0,0:0:0:0:
256,192,7815,1,12,0:0:0:0:
256,192,8141,1,12,0:0:0:0:
256,192,8631,1,4,0:0:0:0:
256,192,9120,1,4,0:0:0:0:
256,192,9772,1,12,0:0:0:0:
256,192,10098,12,0,11891,0:0:0:0:
256,192,12544,5,0,0:0:0:0:
256,192,13196,1,8,0:0:0:0:
256,192,13848,1,0,0:0:0:0:
256,192,14337,1,8,0:0:0:0:
256,192,14663,1,0,0:0:0:0:
256,192,14826,1,8,0:0:0:0:
256,192,15152,1,0,0:0:0:0:
256,192,16457,1,0,0:0:0:0:
256,192,16946,1,12,0:0:0:0:
256,192,17272,1,12,0:0:0:0:
256,192,17761,1,0,0:0:0:0:
256,192,18413,1,8,0:0:0:0:
256,192,19065,1,0,0:0:0:0:
256,192,19554,1,8,0:0:0:0:
256,192,19881,1,0,0:0:0:0:
256,192,20207,1,8,0:0:0:0:
256,192,20370,1,0,0:0:0:0:
256,192,22163,1,12,0:0:0:0:
256,192,22489,1,12,0:0:0:0:
256,192,22652,1,12,0:0:0:0:
256,192,22978,1,4,0:0:0:0:
256,192,23304,1,8,0:0:0:0:
256,192,23957,1,8,0:0:0:0:
256,192,24283,1,0,0:0:0:0:
256,192,24609,1,8,0:0:0:0:
256,192,24772,1,0,0:0:0:0:
256,192,25098,1,0,0:0:0:0:
256,192,25261,1,8,0:0:0:0:
256,192,25587,1,0,0:0:0:0:
256,192,25913,1,8,0:0:0:0:
256,192,26076,1,0,0:0:0:0:
256,192,26891,1,0,0:0:0:0:
256,192,27218,1,8,0:0:0:0:
256,192,27544,1,0,0:0:0:0:
256,192,27707,1,0,0:0:0:0:
256,192,27870,1,8,0:0:0:0:
256,192,28196,1,4,0:0:0:0:
256,192,28522,1,8,0:0:0:0:
256,192,29174,1,8,0:0:0:0:
256,192,29500,1,0,0:0:0:0:
256,192,29826,1,8,0:0:0:0:
256,192,30152,1,8,0:0:0:0:
256,192,30478,1,0,0:0:0:0:
256,192,30641,1,0,0:0:0:0:
256,192,30968,1,8,0:0:0:0:
256,192,31131,1,8,0:0:0:0:
256,192,31783,1,8,0:0:0:0:
256,192,32109,1,0,0:0:0:0:
256,192,32761,1,8,0:0:0:0:
256,192,33250,1,4,0:0:0:0:
256,192,33739,1,8,0:0:0:0:
256,192,34065,1,8,0:0:0:0:
256,192,34554,1,4,0:0:0:0:
256,192,35370,1,8,0:0:0:0:
256,192,35859,1,4,0:0:0:0:
256,192,36348,1,8,0:0:0:0:
256,192,36674,1,8,0:0:0:0:
256,192,37163,1,4,0:0:0:0:
256,192,37652,1,8,0:0:0:0:
256,192,38304,1,8,0:0:0:0:
256,192,38631,1,4,0:0:0:0:
256,192,39283,1,8,0:0:0:0:
256,192,39935,1,8,0:0:0:0:
256,192,40261,1,8,0:0:0:0:
256,192,40587,1,0,0:0:0:0:
256,192,40913,1,0,0:0:0:0:
256,192,41239,1,8,0:0:0:0:
256,192,41402,1,8,0:0:0:0:
256,192,41728,1,0,0:0:0:0:
256,192,42218,1,0,0:0:0:0:
256,192,42707,1,0,0:0:0:0:
256,192,43196,1,8,0:0:0:0:
256,192,43685,1,4,0:0:0:0:
256,192,44174,1,8,0:0:0:0:
256,192,44500,1,8,0:0:0:0:
256,192,44989,1,4,0:0:0:0:
256,192,45478,1,8,0:0:0:0:
256,192,45804,1,0,0:0:0:0:
256,192,46131,1,8,0:0:0:0:
256,192,46294,1,8,0:0:0:0:
256,192,46620,1,0,0:0:0:0:
256,192,46946,1,0,0:0:0:0:
256,192,47435,1,8,0:0:0:0:
256,192,47761,1,0,0:0:0:0:
256,192,48087,1,8,0:0:0:0:
256,192,48250,1,8,0:0:0:0:
256,192,48576,1,0,0:0:0:0:
256,192,48902,1,4,0:0:0:0:
256,192,49718,1,0,0:0:0:0:
256,192,50207,1,4,0:0:0:0:
256,192,50696,1,8,0:0:0:0:
256,192,51022,1,0,0:0:0:0:
256,192,51348,1,8,0:0:0:0:
256,192,51511,1,4,0:0:0:0:
256,192,51837,1,0,0:0:0:0:
256,192,52163,1,8,0:0:0:0:
256,192,52978,1,0,0:0:0:0:
256,192,53304,1,8,0:0:0:0:
256,192,53631,1,8,0:0:0:0:
256,192,54120,1,4,0:0:0:0:
256,192,54935,1,0,0:0:0:0:
256,192,55424,1,4,0:0:0:0:
256,192,55913,1,8,0:0:0:0:
256,192,56239,1,0,0:0:0:0:
256,192,56565,1,8,0:0:0:0:
256,192,56728,1,8,0:0:0:0:
256,192,57054,1,0,0:0:0:0:
256,192,57381,1,8,0:0:0:0:
256,192,57707,1,0,0:0:0:0:
256,192,57870,1,8,0:0:0:0:
256,192,58196,1,0,0:0:0:0:
256,192,58522,1,8,0:0:0:0:
256,192,58685,1,8,0:0:0:0:
256,192,59011,1,0,0:0:0:0:
256,192,59337,1,4,0:0:0:0:
256,192,60152,1,0,0:0:0:0:
256,192,60641,1,4,0:0:0:0:
256,192,61131,1,8,0:0:0:0:
256,192,61457,1,0,0:0:0:0:
256,192,61783,1,8,0:0:0:0:
256,192,61946,1,4,0:0:0:0:
256,192,62272,1,0,0:0:0:0:
256,192,62598,1,8,0:0:0:0:
256,192,63250,1,0,0:0:0:0:
256,192,63413,1,8,0:0:0:0:
256,192,63739,1,8,0:0:0:0:
256,192,64065,1,0,0:0:0:0:
256,192,64391,1,8,0:0:0:0:
256,192,64554,1,4,0:0:0:0:
256,192,65370,1,8,0:0:0:0:
256,192,65696,1,8,0:0:0:0:
256,192,66022,1,4,0:0:0:0:
256,192,66348,1,8,0:0:0:0:
256,192,66674,1,0,0:0:0:0:
256,192,66837,1,8,0:0:0:0:
256,192,67163,1,0,0:0:0:0:
256,192,67489,1,0,0:0:0:0:
256,192,67815,1,8,0:0:0:0:
256,192,68304,1,0,0:0:0:0:
256,192,68631,1,8,0:0:0:0:
256,192,68957,1,8,0:0:0:0:
256,192,69283,1,0,0:0:0:0:
256,192,69609,1,8,0:0:0:0:
256,192,69772,1,4,0:0:0:0:
256,192,70587,1,0,0:0:0:0:
256,192,71239,1,8,0:0:0:0:
256,192,71565,1,0,0:0:0:0:
256,192,71728,1,0,0:0:0:0:
256,192,72054,1,8,0:0:0:0:
256,192,72381,1,4,0:0:0:0:
256,192,73196,1,8,0:0:0:0:
256,192,73685,1,0,0:0:0:0:
256,192,74500,1,8,0:0:0:0:
256,192,75152,1,8,0:0:0:0:
256,192,75315,1,2,0:0:0:0:
256,192,75804,1,0,0:0:0:0:
256,192,75968,1,0,0:0:0:0:
256,192,76294,1,4,0:0:0:0:
256,192,76783,1,8,0:0:0:0:
256,192,77109,1,8,0:0:0:0:
256,192,77761,1,0,0:0:0:0:
256,192,78250,1,8,0:0:0:0:
256,192,78902,1,8,0:0:0:0:
256,192,79391,1,8,0:0:0:0:
256,192,79718,1,8,0:0:0:0:
256,192,80370,1,0,0:0:0:0:
256,192,80859,1,8,0:0:0:0:
256,192,81511,1,8,0:0:0:0:
256,192,82000,1,8,0:0:0:0:
256,192,82326,1,8,0:0:0:0:
256,192,82978,1,0,0:0:0:0:
256,192,83304,1,8,0:0:0:0:
256,192,83631,1,8,0:0:0:0:
256,192,83957,1,8,0:0:0:0:
256,192,84283,1,4,0:0:0:0:
256,192,84772,1,4,0:0:0:0:
256,192,85261,1,12,0:0:0:0:
256,192,85913,1,12,0:0:0:0:
256,192,86891,1,0,0:0:0:0:
256,192,87218,1,8,0:0:0:0:
256,192,87544,1,8,0:0:0:0:
256,192,88033,1,4,0:0:0:0:
