osu file format v14

[General]
AudioFilename: kanade (tv ver).mp3
AudioLeadIn: 0
PreviewTime: 68818
Countdown: 0
SampleSet: Soft
StackLeniency: 0.7
Mode: 3
LetterboxInBreaks: 0
SpecialStyle: 0
WidescreenStoryboard: 0

[Editor]
DistanceSpacing: 1
BeatDivisor: 4
GridSize: 4
TimelineZoom: 1

[Metadata]
Title:Kanade ~TV size ver.~
TitleUnicode:奏(かなで) ~TV size ver.~
Artist:Amamiya Sora
ArtistUnicode:雨宮 天
Creator:aisyahumairah22
Version:7K NM
Source:一週間フレンズ。
Tags:isshuukan friends one week ending ed
BeatmapID:726991
BeatmapSetID:327594

[Difficulty]
HPDrainRate:7
CircleSize:7
OverallDifficulty:7
ApproachRate:5
SliderMultiplier:1.4
SliderTickRate:1

[Events]
//Background and Video events
0,0,"ani.re-(isshuukan_friends)(1600x1200)-00122.jpg",0,0
//Break Periods
//Storyboard Layer 0 (Background)
//Storyboard Layer 1 (Fail)
//Storyboard Layer 2 (Pass)
//Storyboard Layer 3 (Foreground)
//Storyboard Sound Samples

[TimingPoints]
627,800,4,2,0,23,1,0
69427,800,4,2,0,23,1,1
98227,857.142857142857,4,2,0,23,1,0
99941,833.333333333333,4,2,0,23,1,0

[HitObjects]
475,192,627,128,0,1427:0:0:0:0:
256,192,1427,1,0,0:0:0:0:
402,192,2227,1,0,0:0:0:0:
182,192,2427,1,0,0:0:0:0:
182,192,3027,1,0,0:0:0:0:
36,192,3827,128,0,4627:0:0:0:0:
256,192,4627,1,0,0:0:0:0:
182,192,5427,1,0,0:0:0:0:
329,192,5627,1,0,0:0:0:0:
329,192,6227,1,0,0:0:0:0:
475,192,7027,128,0,7827:0:0:0:0:
256,192,7827,1,0,0:0:0:0:
329,192,8627,1,0,0:0:0:0:
182,192,8827,1,0,0:0:0:0:
182,192,9427,1,0,0:0:0:0:
36,192,10227,128,0,11027:0:0:0:0:
256,192,11027,1,0,0:0:0:0:
109,192,11827,1,0,0:0:0:0:
402,192,12227,1,0,0:0:0:0:
256,192,12627,1,0,0:0:0:0:
182,192,12827,1,0,0:0:0:0:
109,192,13027,1,0,0:0:0:0:
36,192,13427,128,0,16627:0:0:0:0:
256,192,14227,1,0,0:0:0:0:
182,192,15027,1,0,0:0:0:0:
329,192,15227,1,0,0:0:0:0:
329,192,15827,1,0,0:0:0:0:
475,192,16627,128,0,18227:0:0:0:0:
256,192,17427,1,0,0:0:0:0:
182,192,18227,1,0,0:0:0:0:
36,192,18227,128,0,19827:0:0:0:0:
329,192,18427,1,0,0:0:0:0:
329,192,19027,1,0,0:0:0:0:
475,192,19827,128,0,23027:0:0:0:0:
256,192,19827,1,0,0:0:0:0:
402,192,20627,1,0,0:0:0:0:
182,192,21427,1,0,0:0:0:0:
329,192,21627,1,0,0:0:0:0:
329,192,22227,1,0,0:0:0:0:
36,192,23027,128,0,25427:0:0:0:0:
402,192,23827,1,0,0:0:0:0:
329,192,24627,1,0,0:0:0:0:
182,192,25027,1,0,0:0:0:0:
329,192,25227,1,0,0:0:0:0:
475,192,25427,1,0,0:0:0:0:
256,192,25627,1,0,0:0:0:0:
109,192,25827,1,0,0:0:0:0:
402,192,25827,1,0,0:0:0:0:
182,192,26027,1,0,0:0:0:0:
256,192,26227,1,0,0:0:0:0:
36,192,27027,1,0,0:0:0:0:
182,192,27027,1,0,0:0:0:0:
475,192,27027,1,0,0:0:0:0:
402,192,27427,1,0,0:0:0:0:
256,192,27827,1,0,0:0:0:0:
182,192,28027,1,0,0:0:0:0:
109,192,28227,1,0,0:0:0:0:
329,192,28627,1,0,0:0:0:0:
36,192,28627,1,0,0:0:0:0:
475,192,28627,1,0,0:0:0:0:
109,192,28827,1,0,0:0:0:0:
182,192,29027,1,0,0:0:0:0:
256,192,29227,1,0,0:0:0:0:
402,192,29427,1,0,0:0:0:0:
182,192,29827,1,0,0:0:0:0:
36,192,30227,1,0,0:0:0:0:
475,192,30227,1,0,0:0:0:0:
256,192,30227,1,0,0:0:0:0:
329,192,30627,1,0,0:0:0:0:
182,192,31027,5,0,0:0:0:0:
402,192,31227,1,0,0:0:0:0:
256,192,31427,1,0,0:0:0:0:
109,192,31827,1,0,0:0:0:0:
475,192,31827,1,0,0:0:0:0:
329,192,31827,1,0,0:0:0:0:
182,192,32027,1,0,0:0:0:0:
402,192,32227,1,0,0:0:0:0:
256,192,32427,1,0,0:0:0:0:
109,192,32627,1,0,0:0:0:0:
182,192,33027,1,0,0:0:0:0:
36,192,33427,1,0,0:0:0:0:
475,192,33427,1,0,0:0:0:0:
329,192,33427,1,0,0:0:0:0:
109,192,33827,1,0,0:0:0:0:
329,192,34227,1,0,0:0:0:0:
182,192,34427,1,0,0:0:0:0:
475,192,34627,1,0,0:0:0:0:
256,192,35027,5,0,0:0:0:0:
36,192,35027,1,0,0:0:0:0:
402,192,35027,1,0,0:0:0:0:
329,192,35227,1,0,0:0:0:0:
182,192,35427,1,0,0:0:0:0:
109,192,35627,1,0,0:0:0:0:
36,192,35827,128,0,36627:0:0:0:0:
475,192,36627,128,0,37427:0:0:0:0:
329,192,37427,1,0,0:0:0:0:
256,192,37827,1,0,0:0:0:0:
182,192,38227,1,0,0:0:0:0:
36,192,38627,128,0,42227:0:0:0:0:
109,192,40627,1,0,0:0:0:0:
329,192,40827,1,0,0:0:0:0:
475,192,41027,1,0,0:0:0:0:
182,192,41227,1,0,0:0:0:0:
402,192,41227,1,0,0:0:0:0:
109,192,41427,1,0,0:0:0:0:
256,192,41627,1,0,0:0:0:0:
402,192,41827,1,0,0:0:0:0:
475,192,42227,128,0,43027:0:0:0:0:
329,192,42627,1,0,0:0:0:0:
109,192,43027,1,0,0:0:0:0:
36,192,43827,128,0,44627:0:0:0:0:
256,192,44227,1,0,0:0:0:0:
402,192,44627,1,0,0:0:0:0:
475,192,45427,128,0,46227:0:0:0:0:
36,192,46227,128,0,47027:0:0:0:0:
256,192,46627,1,0,0:0:0:0:
475,192,47027,128,0,47827:0:0:0:0:
329,192,47427,1,0,0:0:0:0:
109,192,47827,1,0,0:0:0:0:
36,192,48627,128,0,49427:0:0:0:0:
182,192,49227,1,0,0:0:0:0:
329,192,49427,1,0,0:0:0:0:
475,192,50227,128,0,51027:0:0:0:0:
256,192,50627,1,0,0:0:0:0:
36,192,51027,1,0,0:0:0:0:
182,192,51027,1,0,0:0:0:0:
36,192,51827,128,0,52627:0:0:0:0:
182,192,52627,1,0,0:0:0:0:
256,192,53027,1,0,0:0:0:0:
475,192,53427,128,0,54227:0:0:0:0:
182,192,54227,1,0,0:0:0:0:
109,192,54627,1,0,0:0:0:0:
36,192,55027,128,0,55827:0:0:0:0:
475,192,55827,1,0,0:0:0:0:
329,192,55827,1,0,0:0:0:0:
256,192,56227,1,0,0:0:0:0:
182,192,56627,1,0,0:0:0:0:
402,192,56627,1,0,0:0:0:0:
109,192,57027,1,0,0:0:0:0:
475,192,57427,1,0,0:0:0:0:
36,192,57427,1,0,0:0:0:0:
36,192,58227,128,0,59027:0:0:0:0:
475,192,59027,128,0,59827:0:0:0:0:
402,192,59027,1,0,0:0:0:0:
182,192,59027,1,0,0:0:0:0:
256,192,59427,1,0,0:0:0:0:
329,192,59827,1,0,0:0:0:0:
36,192,59827,128,0,60627:0:0:0:0:
109,192,59827,1,0,0:0:0:0:
402,192,60227,1,0,0:0:0:0:
256,192,60627,1,0,0:0:0:0:
475,192,60827,1,0,0:0:0:0:
182,192,61027,1,0,0:0:0:0:
36,192,61427,128,0,62227:0:0:0:0:
329,192,61427,1,0,0:0:0:0:
402,192,61827,1,0,0:0:0:0:
109,192,62227,1,0,0:0:0:0:
475,192,62227,1,0,0:0:0:0:
182,192,62627,1,0,0:0:0:0:
475,192,63027,128,0,63827:0:0:0:0:
329,192,63027,1,0,0:0:0:0:
182,192,63427,1,0,0:0:0:0:
36,192,63827,1,0,0:0:0:0:
402,192,63827,1,0,0:0:0:0:
256,192,64227,1,0,0:0:0:0:
36,192,64627,128,0,65427:0:0:0:0:
402,192,65427,1,0,0:0:0:0:
182,192,65427,1,0,0:0:0:0:
256,192,65827,1,0,0:0:0:0:
109,192,66227,1,0,0:0:0:0:
475,192,66227,1,0,0:0:0:0:
329,192,66227,1,0,0:0:0:0:
256,192,66627,1,0,0:0:0:0:
36,192,67027,1,0,0:0:0:0:
402,192,67027,1,0,0:0:0:0:
182,192,67027,1,0,0:0:0:0:
109,192,67427,5,0,0:0:0:0:
256,192,67627,1,0,0:0:0:0:
402,192,67827,1,0,0:0:0:0:
109,192,68427,5,0,0:0:0:0:
182,192,68627,1,0,0:0:0:0:
256,192,68827,1,0,0:0:0:0:
329,192,69027,1,0,0:0:0:0:
402,192,69227,1,0,0:0:0:0:
36,192,69427,128,0,70227:0:0:0:0:
475,192,69427,1,0,0:0:0:0:
329,192,69627,1,0,0:0:0:0:
256,192,69827,1,0,0:0:0:0:
475,192,70227,1,0,0:0:0:0:
402,192,70227,1,0,0:0:0:0:
182,192,70227,1,0,0:0:0:0:
256,192,70627,1,0,0:0:0:0:
475,192,71027,128,0,72627:0:0:0:0:
109,192,71027,1,0,0:0:0:0:
182,192,71227,1,0,0:0:0:0:
329,192,71427,1,0,0:0:0:0:
36,192,71827,1,0,0:0:0:0:
109,192,71827,1,0,0:0:0:0:
402,192,71827,1,0,0:0:0:0:
36,192,72627,128,0,74227:0:0:0:0:
329,192,72627,1,0,0:0:0:0:
256,192,72827,1,0,0:0:0:0:
475,192,73427,1,0,0:0:0:0:
402,192,73427,1,0,0:0:0:0:
109,192,73427,1,0,0:0:0:0:
182,192,73827,1,0,0:0:0:0:
329,192,74227,1,0,0:0:0:0:
475,192,74227,128,0,75827:0:0:0:0:
182,192,74627,1,0,0:0:0:0:
109,192,74827,1,0,0:0:0:0:
36,192,75027,1,0,0:0:0:0:
402,192,75027,1,0,0:0:0:0:
256,192,75027,1,0,0:0:0:0:
182,192,75227,1,0,0:0:0:0:
329,192,75427,1,0,0:0:0:0:
36,192,75827,128,0,78227:0:0:0:0:
475,192,76627,1,0,0:0:0:0:
402,192,76627,1,0,0:0:0:0:
109,192,76627,1,0,0:0:0:0:
329,192,77027,1,0,0:0:0:0:
182,192,77427,1,0,0:0:0:0:
256,192,77827,1,0,0:0:0:0:
109,192,78227,1,0,0:0:0:0:
329,192,78227,1,0,0:0:0:0:
402,192,78227,1,0,0:0:0:0:
475,192,79027,128,0,80627:0:0:0:0:
109,192,79827,1,0,0:0:0:0:
256,192,79827,1,0,0:0:0:0:
402,192,79827,1,0,0:0:0:0:
182,192,80227,1,0,0:0:0:0:
36,192,80627,1,0,0:0:0:0:
256,192,80627,1,0,0:0:0:0:
109,192,80827,1,0,0:0:0:0:
329,192,81027,1,0,0:0:0:0:
182,192,81227,1,0,0:0:0:0:
402,192,81427,1,0,0:0:0:0:
256,192,81627,1,0,0:0:0:0:
402,192,81827,1,0,0:0:0:0:
182,192,82027,1,0,0:0:0:0:
36,192,82227,128,0,83027:0:0:0:0:
475,192,82227,1,0,0:0:0:0:
329,192,82627,1,0,0:0:0:0:
109,192,83027,1,0,0:0:0:0:
256,192,83027,1,0,0:0:0:0:
402,192,83027,1,0,0:0:0:0:
329,192,83227,1,0,0:0:0:0:
182,192,83427,1,0,0:0:0:0:
475,192,83827,128,0,84627:0:0:0:0:
36,192,83827,1,0,0:0:0:0:
329,192,84227,1,0,0:0:0:0:
109,192,84627,1,0,0:0:0:0:
256,192,84627,1,0,0:0:0:0:
402,192,84627,1,0,0:0:0:0:
36,192,84827,1,0,0:0:0:0:
329,192,85027,1,0,0:0:0:0:
475,192,85427,128,0,86227:0:0:0:0:
182,192,85427,1,0,0:0:0:0:
36,192,86227,128,0,87027:0:0:0:0:
329,192,86227,1,0,0:0:0:0:
475,192,87027,128,0,87827:0:0:0:0:
182,192,87027,1,0,0:0:0:0:
329,192,87427,1,0,0:0:0:0:
109,192,87827,1,0,0:0:0:0:
256,192,87827,1,0,0:0:0:0:
402,192,87827,1,0,0:0:0:0:
36,192,88227,1,0,0:0:0:0:
475,192,88627,128,0,90227:0:0:0:0:
182,192,88627,1,0,0:0:0:0:
182,192,89827,1,0,0:0:0:0:
36,192,90227,128,0,91827:0:0:0:0:
256,192,91827,128,0,93427:0:0:0:0:
109,192,93227,1,0,0:0:0:0:
475,192,93427,128,0,95027:0:0:0:0:
36,192,95027,5,0,0:0:0:0:
402,192,95427,1,0,0:0:0:0:
109,192,95427,1,0,0:0:0:0:
182,192,95827,1,0,0:0:0:0:
475,192,96227,1,0,0:0:0:0:
329,192,96227,1,0,0:0:0:0:
109,192,96627,1,0,0:0:0:0:
256,192,97427,1,0,0:0:0:0:
36,192,98227,1,0,0:0:0:0:
109,192,98655,1,0,0:0:0:0:
402,192,98655,1,0,0:0:0:0:
182,192,99084,1,0,0:0:0:0:
475,192,99512,1,0,0:0:0:0:
329,192,99512,1,0,0:0:0:0:
109,192,99941,1,0,0:0:0:0:
36,192,101468,1,0,0:0:0:0:
109,192,101607,1,0,0:0:0:0:
182,192,101746,1,0,0:0:0:0:
256,192,101885,1,0,0:0:0:0:
329,192,102024,1,0,0:0:0:0:
402,192,102163,1,0,0:0:0:0:
475,192,102302,1,0,0:0:0:0:
