osu file format v14

[General]
AudioFilename: kanade (tv ver).mp3
AudioLeadIn: 0
PreviewTime: 68818
Countdown: 0
SampleSet: Soft
StackLeniency: 0.7
Mode: 3
LetterboxInBreaks: 0
SpecialStyle: 0
WidescreenStoryboard: 0

[Editor]
DistanceSpacing: 1
BeatDivisor: 4
GridSize: 4
TimelineZoom: 1

[Metadata]
Title:Kanade ~TV size ver.~
TitleUnicode:奏(かなで) ~TV size ver.~
Artist:Amamiya Sora
ArtistUnicode:雨宮 天
Creator:aisyahumairah22
Version:7K EZ
Source:一週間フレンズ。
Tags:isshuukan friends one week ending ed
BeatmapID:726990
BeatmapSetID:327594

[Difficulty]
HPDrainRate:7
CircleSize:7
OverallDifficulty:8
ApproachRate:5
SliderMultiplier:1.4
SliderTickRate:1

[Events]
//Background and Video events
0,0,"ani.re-(isshuukan_friends)(1600x1200)-00122.jpg",0,0
//Break Periods
//Storyboard Layer 0 (Background)
//Storyboard Layer 1 (Fail)
//Storyboard Layer 2 (Pass)
//Storyboard Layer 3 (Foreground)
//Storyboard Sound Samples

[TimingPoints]
627,800,4,2,0,23,1,0
69427,800,4,2,0,23,1,1
98227,857.142857142857,4,2,0,23,1,0
99941,833.333333333333,4,2,0,23,1,0

[HitObjects]
36,192,627,5,0,0:0:0:0:
256,192,1427,1,0,0:0:0:0:
402,192,2227,1,0,0:0:0:0:
182,192,2427,1,0,0:0:0:0:
182,192,3027,1,0,0:0:0:0:
475,192,3827,1,0,0:0:0:0:
256,192,4627,1,0,0:0:0:0:
182,192,5427,1,0,0:0:0:0:
329,192,5627,1,0,0:0:0:0:
329,192,6227,1,0,0:0:0:0:
36,192,7027,1,0,0:0:0:0:
256,192,7827,1,0,0:0:0:0:
329,192,8627,1,0,0:0:0:0:
182,192,8827,1,0,0:0:0:0:
182,192,9427,1,0,0:0:0:0:
475,192,10227,1,0,0:0:0:0:
256,192,11027,1,0,0:0:0:0:
109,192,11827,1,0,0:0:0:0:
402,192,12227,1,0,0:0:0:0:
256,192,12627,1,0,0:0:0:0:
182,192,12827,1,0,0:0:0:0:
109,192,13027,1,0,0:0:0:0:
36,192,13427,1,0,0:0:0:0:
256,192,14227,1,0,0:0:0:0:
182,192,15027,1,0,0:0:0:0:
329,192,15227,1,0,0:0:0:0:
329,192,15827,1,0,0:0:0:0:
475,192,16627,1,0,0:0:0:0:
256,192,17427,1,0,0:0:0:0:
182,192,18227,1,0,0:0:0:0:
329,192,18427,1,0,0:0:0:0:
329,192,19027,1,0,0:0:0:0:
109,192,19827,1,0,0:0:0:0:
402,192,20627,1,0,0:0:0:0:
182,192,21427,1,0,0:0:0:0:
329,192,21627,1,0,0:0:0:0:
329,192,22227,1,0,0:0:0:0:
36,192,23027,1,0,0:0:0:0:
402,192,23827,1,0,0:0:0:0:
329,192,24627,1,0,0:0:0:0:
182,192,25027,1,0,0:0:0:0:
475,192,25427,1,0,0:0:0:0:
256,192,25827,1,0,0:0:0:0:
36,192,26227,1,0,0:0:0:0:
109,192,27027,1,0,0:0:0:0:
475,192,27027,1,0,0:0:0:0:
329,192,27827,1,0,0:0:0:0:
402,192,28627,1,0,0:0:0:0:
36,192,28627,1,0,0:0:0:0:
256,192,28827,1,0,0:0:0:0:
182,192,29427,1,0,0:0:0:0:
109,192,30227,1,0,0:0:0:0:
475,192,30227,1,0,0:0:0:0:
402,192,31027,5,0,0:0:0:0:
475,192,31827,1,0,0:0:0:0:
36,192,31827,1,0,0:0:0:0:
256,192,32027,1,0,0:0:0:0:
182,192,32627,1,0,0:0:0:0:
475,192,33427,1,0,0:0:0:0:
109,192,33427,1,0,0:0:0:0:
329,192,34227,1,0,0:0:0:0:
182,192,34427,1,0,0:0:0:0:
402,192,35027,1,0,0:0:0:0:
36,192,35027,1,0,0:0:0:0:
109,192,35427,1,0,0:0:0:0:
475,192,35827,5,0,0:0:0:0:
182,192,36627,1,0,0:0:0:0:
329,192,37427,1,0,0:0:0:0:
475,192,37427,1,0,0:0:0:0:
256,192,37827,1,0,0:0:0:0:
109,192,38227,1,0,0:0:0:0:
36,192,38627,1,0,0:0:0:0:
109,192,40627,1,0,0:0:0:0:
256,192,41027,1,0,0:0:0:0:
402,192,41227,1,0,0:0:0:0:
182,192,41627,1,0,0:0:0:0:
36,192,41827,1,0,0:0:0:0:
109,192,42227,1,0,0:0:0:0:
256,192,42627,1,0,0:0:0:0:
402,192,43027,1,0,0:0:0:0:
475,192,43827,1,0,0:0:0:0:
256,192,44227,1,0,0:0:0:0:
36,192,44627,1,0,0:0:0:0:
109,192,45427,1,0,0:0:0:0:
475,192,46227,1,0,0:0:0:0:
256,192,46627,1,0,0:0:0:0:
36,192,47027,1,0,0:0:0:0:
182,192,47427,1,0,0:0:0:0:
329,192,47827,1,0,0:0:0:0:
475,192,47827,1,0,0:0:0:0:
36,192,48627,1,0,0:0:0:0:
182,192,49427,1,0,0:0:0:0:
475,192,50227,1,0,0:0:0:0:
109,192,50227,1,0,0:0:0:0:
256,192,50627,1,0,0:0:0:0:
36,192,51027,1,0,0:0:0:0:
402,192,51027,1,0,0:0:0:0:
109,192,51827,1,0,0:0:0:0:
182,192,52627,1,0,0:0:0:0:
256,192,53027,1,0,0:0:0:0:
329,192,53427,1,0,0:0:0:0:
182,192,54227,1,0,0:0:0:0:
109,192,54627,1,0,0:0:0:0:
36,192,55027,1,0,0:0:0:0:
109,192,55827,1,0,0:0:0:0:
402,192,55827,1,0,0:0:0:0:
256,192,56227,1,0,0:0:0:0:
182,192,56627,1,0,0:0:0:0:
329,192,56627,1,0,0:0:0:0:
109,192,57027,1,0,0:0:0:0:
36,192,57427,1,0,0:0:0:0:
402,192,57427,1,0,0:0:0:0:
109,192,58227,1,0,0:0:0:0:
329,192,58227,1,0,0:0:0:0:
182,192,59027,1,0,0:0:0:0:
475,192,59027,1,0,0:0:0:0:
256,192,59427,1,0,0:0:0:0:
36,192,59827,1,0,0:0:0:0:
329,192,59827,1,0,0:0:0:0:
402,192,60227,1,0,0:0:0:0:
256,192,60627,1,0,0:0:0:0:
475,192,60827,1,0,0:0:0:0:
182,192,61027,1,0,0:0:0:0:
402,192,61427,1,0,0:0:0:0:
36,192,61427,1,0,0:0:0:0:
109,192,62227,1,0,0:0:0:0:
475,192,62227,1,0,0:0:0:0:
182,192,62627,1,0,0:0:0:0:
329,192,63027,1,0,0:0:0:0:
36,192,63027,1,0,0:0:0:0:
182,192,63427,1,0,0:0:0:0:
109,192,63827,1,0,0:0:0:0:
402,192,63827,1,0,0:0:0:0:
256,192,64227,1,0,0:0:0:0:
182,192,64627,1,0,0:0:0:0:
475,192,64627,1,0,0:0:0:0:
36,192,65427,1,0,0:0:0:0:
402,192,65427,1,0,0:0:0:0:
256,192,65827,1,0,0:0:0:0:
109,192,66227,1,0,0:0:0:0:
329,192,66227,1,0,0:0:0:0:
475,192,66227,1,0,0:0:0:0:
256,192,66627,1,0,0:0:0:0:
36,192,67027,1,0,0:0:0:0:
182,192,67027,1,0,0:0:0:0:
402,192,67027,1,0,0:0:0:0:
109,192,67427,5,0,0:0:0:0:
256,192,67627,1,0,0:0:0:0:
402,192,67827,1,0,0:0:0:0:
109,192,68427,5,0,0:0:0:0:
182,192,68627,1,0,0:0:0:0:
256,192,68827,1,0,0:0:0:0:
329,192,69027,1,0,0:0:0:0:
402,192,69227,1,0,0:0:0:0:
475,192,69427,1,0,0:0:0:0:
182,192,70227,1,0,0:0:0:0:
402,192,70227,1,0,0:0:0:0:
36,192,70227,1,0,0:0:0:0:
256,192,70627,1,0,0:0:0:0:
475,192,71027,1,0,0:0:0:0:
329,192,71427,1,0,0:0:0:0:
402,192,71827,1,0,0:0:0:0:
36,192,71827,1,0,0:0:0:0:
182,192,71827,1,0,0:0:0:0:
256,192,72627,1,0,0:0:0:0:
109,192,73427,1,0,0:0:0:0:
475,192,73427,1,0,0:0:0:0:
402,192,73427,1,0,0:0:0:0:
329,192,73827,1,0,0:0:0:0:
182,192,74627,1,0,0:0:0:0:
36,192,75027,1,0,0:0:0:0:
256,192,75027,1,0,0:0:0:0:
402,192,75027,1,0,0:0:0:0:
109,192,75827,1,0,0:0:0:0:
182,192,76627,1,0,0:0:0:0:
402,192,76627,1,0,0:0:0:0:
475,192,76627,1,0,0:0:0:0:
329,192,77027,1,0,0:0:0:0:
256,192,77827,1,0,0:0:0:0:
109,192,78227,1,0,0:0:0:0:
329,192,78227,1,0,0:0:0:0:
402,192,78227,1,0,0:0:0:0:
36,192,79027,1,0,0:0:0:0:
109,192,79827,1,0,0:0:0:0:
256,192,79827,1,0,0:0:0:0:
402,192,79827,1,0,0:0:0:0:
182,192,80227,1,0,0:0:0:0:
36,192,80627,1,0,0:0:0:0:
109,192,80827,1,0,0:0:0:0:
182,192,81027,1,0,0:0:0:0:
256,192,81227,1,0,0:0:0:0:
329,192,81427,1,0,0:0:0:0:
402,192,81627,1,0,0:0:0:0:
475,192,81827,1,0,0:0:0:0:
402,192,82027,1,0,0:0:0:0:
36,192,82227,1,0,0:0:0:0:
109,192,83027,1,0,0:0:0:0:
256,192,83027,1,0,0:0:0:0:
402,192,83027,1,0,0:0:0:0:
182,192,83427,1,0,0:0:0:0:
475,192,83827,1,0,0:0:0:0:
329,192,84227,1,0,0:0:0:0:
109,192,84627,1,0,0:0:0:0:
256,192,84627,1,0,0:0:0:0:
402,192,84627,1,0,0:0:0:0:
182,192,85427,1,0,0:0:0:0:
475,192,86227,1,0,0:0:0:0:
256,192,86227,1,0,0:0:0:0:
36,192,86227,1,0,0:0:0:0:
329,192,87027,1,0,0:0:0:0:
109,192,87827,1,0,0:0:0:0:
256,192,87827,1,0,0:0:0:0:
402,192,87827,1,0,0:0:0:0:
475,192,88627,1,0,0:0:0:0:
256,192,90227,1,0,0:0:0:0:
36,192,91827,1,0,0:0:0:0:
256,192,93427,1,0,0:0:0:0:
36,192,95027,1,0,0:0:0:0:
109,192,95427,1,0,0:0:0:0:
256,192,95827,1,0,0:0:0:0:
402,192,96227,1,0,0:0:0:0:
109,192,96627,1,0,0:0:0:0:
256,192,97427,1,0,0:0:0:0:
36,192,98227,1,0,0:0:0:0:
402,192,98655,1,0,0:0:0:0:
329,192,99084,1,0,0:0:0:0:
182,192,99512,1,0,0:0:0:0:
109,192,99941,1,0,0:0:0:0:
182,192,102024,1,0,0:0:0:0:
475,192,102302,1,0,0:0:0:0:
